#TITLE:Euphoria;
#SUBTITLE:;
#ARTIST:KaW feat. Smiley;
#TITLETRANSLIT:;
#SUBTITLETRANSLIT:;
#ARTISTTRANSLIT:;
#CREDIT:;
#BANNER:euphoria.png;
#BACKGROUND:euphoria-bg.png;
#LYRICSPATH:;
#CDTITLE:;
#MUSIC:euphoria.ogg;
#OFFSET:0.000;
#SAMPLESTART:27.369;
#SAMPLELENGTH:12.000;
#SELECTABLE:YES;
#BPMS:0.000=140.000,152.000=70.000,184.000=140.000;
#STOPS:;
#BGCHANGES:;

//---------------dance-single - Renard----------------
#NOTES:
     dance-single:
     Renard:
     Challenge:
     12:
     0.847,1.000,0.575,0.000,1.000:
0000
0000
0000
0000
,
0000
0000
0000
0000
,
0000
0000
0000
0000
,
0000
0000
0000
0000
,
1000
0001
0100
0000
0001
1000
0100
0000
0010
0001
0010
0000
0100
1000
0001
0000
,
0100
0010
1000
0000
0100
0010
0001
0000
0010
0100
1000
0000
0001
0100
0001
0000
,
1000
0100
1000
0000
0001
0010
0001
0000
1000
0010
1000
0000
0001
0100
0001
0000
,
1000
0100
1000
0000
0001
0010
0001
0000
1000
0010
0100
0001
0010
0000
0100
0000
,
1000
0001
1000
0000
0001
0100
0001
0000
1000
0010
1000
0000
0100
0010
0001
0000
,
0010
0100
1000
0000
0001
0100
0010
0000
1000
0100
1000
0000
0001
0010
0001
0000
,
0010
0100
1000
0000
0001
0100
0010
0000
1000
0100
1000
0000
0001
0010
0100
0000
,
1000
0001
0100
0000
0010
1000
0100
0000
0010
0000
0001
0000
1000
0000
0001
0000
,
1000
0001
0000
0101
0000
0000
1001
0000
1000
0100
0000
0110
0000
0000
0011
0000
,
0001
0010
0000
0100
0000
0000
1000
0000
0010
0000
0000
0100
0001
0000
0100
0000
,
0001
1000
0000
1100
0000
0000
1001
0000
0001
0100
0000
0110
0000
0000
1010
0000
,
0001
1000
0000
1100
0000
0000
1001
0000
1001
0000
0000
0001
0100
0000
1001
0000
,
0001
0100
0000
0100
0010
0000
0010
1000
0000
1000
0100
0010
0001
0010
0100
1000
,
0001
0100
0000
0100
0001
0000
0001
1000
0000
1000
0100
0010
0001
0010
0100
1000
,
0001
1000
0000
1000
0010
0000
0010
0100
0000
0001
0010
0100
1000
0001
0010
0100
,
1000
0001
0000
0001
0100
0000
0100
0010
0000
0010
1000
0100
0010
0001
0010
0100
,
1000
0001
0000
0001
0100
0000
0100
0010
0000
0010
1000
0100
0010
0001
0010
0100
,
1000
0001
0000
0001
0100
0000
0100
0001
0000
0001
1000
0100
0010
0001
0010
0100
,
1000
0001
0000
0001
0100
0000
0100
0010
0000
0010
1000
0010
0100
0001
0010
0100
,
1000
0001
0000
0001
1000
0000
1000
0001
0000
0001
0100
0010
1000
0010
0100
0001
,
0100
0001
0000
0001
1000
0000
0000
1000
0100
0000
0000
0100
0010
0000
0000
0010
,
0001
0000
0000
0001
0010
0000
0000
0010
0100
0000
0100
0000
1000
0000
0010
0000
,
0100
0001
0000
0001
0100
0000
0000
0100
0010
0000
0000
0010
1000
0000
0000
1000
,
0100
0000
0000
0100
0010
0000
0000
0010
0001
0000
0000
0001
0010
0000
0100
0000
,
1100
0000
0100
1000
0010
0000
0100
0000
0110
0000
0100
0001
0010
0000
0100
0000
,
0110
0000
0100
1000
0010
0000
1010
0000
1000
0000
0001
0000
1001
0000
0000
0000
,
0001
0000
0100
0000
0001
0000
0100
0000
0000
0000
0001
0000
0000
0000
1000
0000
0100
0000
1000
0000
0100
0000
1000
0000
0000
0000
1000
0001
1000
0001
1000
0001
,
1000
0001
1000
0001
0000
1000
0001
0100
0001
1000
0100
0010
0001
0010
0001
1000
,
0001
0000
0100
0000
0001
0000
0100
0000
0000
0000
0001
0000
0000
0000
1000
0000
0100
0000
0010
0000
0001
0000
1000
0000
0000
0000
0001
0000
0100
0001
0100
0000
,
0001
0000
1000
0000
0100
0000
0010
0000
0000
0000
0001
0000
0010
0000
0100
0000
1000
0000
0001
0000
0100
0000
0001
0100
0001
0000
0100
0000
0001
0000
1000
0000
,
0001
0000
0100
0000
0001
0000
0100
0000
0000
0000
0001
0000
0000
0000
1000
0000
0100
0000
1000
0000
0100
0000
1000
0000
0000
0000
1000
0001
1000
0001
1000
0001
,
1000
0001
1000
0001
0000
1000
0001
0100
0001
1000
0100
0010
0001
0010
0001
1000
,
0001
0000
0100
0000
0001
0000
0100
0000
0000
0000
0001
0000
0000
0000
1000
0000
0100
0000
0010
0000
0001
0000
1000
0000
0000
0000
0001
0000
0100
0001
0100
0000
,
0001
0000
1000
0000
0100
0000
0010
0000
0000
0000
0001
0000
0010
0000
0100
0000
1000
0000
0001
0000
0100
0000
0001
0100
0001
0000
0100
0000
0001
0000
1000
0000
,
1001
0000
0000
0000
0000
0000
0000
0000
0000
0001
0100
0001
0101
0000
0000
0000
0000
0000
0000
0000
0000
0000
0000
0000
0000
0000
0000
1000
0100
1000
0100
0000
1000
0000
0100
0000
1100
0000
0000
0000
0000
0000
0000
0000
0000
0000
0000
0000
,
0000
0000
0000
0000
0000
0000
0000
0000
0000
0001
1000
0001
1001
0000
0000
0000
0000
0000
0000
0000
0000
0000
0000
0000
0000
0000
0000
1000
0100
1000
0100
0000
1000
0000
0100
0000
1100
0000
0000
0000
0000
0000
0000
0000
0000
0000
0000
0000
,
0000
0000
0000
0000
0000
0000
0000
0000
0000
0001
0100
0001
0101
0000
0000
0000
0000
0000
0000
0000
0000
0000
0000
0000
0000
0000
0000
1000
0001
1000
0001
0000
1000
0000
0001
0000
1001
0000
0000
0000
0000
0000
0000
0000
0000
0000
0000
0000
,
0000
0000
0000
0000
0000
0000
0000
0000
0000
0010
0100
0010
0110
0000
0000
0000
0000
0000
0000
0000
0000
0000
0000
0000
0000
0000
0000
0010
1000
0010
0100
0000
0001
0000
0100
0000
1001
0000
0000
0000
0000
0000
0000
0000
0000
0000
0000
0000
,
0101
0000
0000
0001
0100
0000
0010
0000
1010
0000
1010
0000
0000
0000
1000
0000
0100
0000
0000
0010
0001
0000
0010
0000
0110
0000
0110
0000
0000
0000
0100
0000
,
1100
0000
0000
1000
0010
0000
1000
0000
1001
0000
1001
0000
0000
0000
0001
0000
0100
0000
0000
0100
0001
0000
1000
0000
1100
0000
1001
0000
1010
0000
0000
0000
,
1100
0000
0000
0100
1000
0000
0010
0000
1001
0000
1100
0000
0000
0000
1000
0000
0011
0000
0000
0001
0100
0000
0001
0000
1001
0000
1100
0000
0000
0000
1001
0000
,
1010
0000
0000
1000
0100
0000
0010
0000
0011
0000
0110
0000
0000
0000
0100
0000
1100
0000
1000
0000
1010
0000
0010
0000
0110
0000
0101
0000
0101
0000
0000
0000
,
1001
0000
0000
0000
,
11MM
0000
0000
0000
1010
0000
0000
0000
1001
0000
0000
0000
M1M1
0000
0000
0000
0011
0000
0000
0000
1001
0000
0000
0000
0001
0000
0000
0100
0000
0000
0000
0000
0000
0100
0000
0000
0001
0000
0000
0000
0000
0000
0001
0000
0000
1000
0000
0000
,
0000
1000
0100
0010
0001
0010
0100
1000
0010
0100
0000
0100
0001
0000
0001
0100
,
0000
0100
0010
1000
0100
0010
0001
0010
0100
1000
0000
1000
0001
0000
0001
0100
,
0000
0100
0001
1000
0100
0010
0001
0010
0100
1000
0000
1000
0010
0000
0010
0100
,
0000
0100
0001
1000
0100
1000
0001
1000
0001
1000
0000
1000
0001
0000
0001
0000
,
0100
0010
0000
0010
1000
0000
0100
0000
0010
0001
0000
0001
0010
0000
0100
0000
,
1000
0010
0000
0010
0100
0000
0001
0000
0100
0001
0000
0001
1000
0100
0000
0100
,
0010
0001
0000
0001
0010
0000
0100
0000
1000
0010
0000
0010
0100
0001
0000
0001
,
0100
0010
0000
0010
1000
0000
0100
0000
1100
1000
0000
0010
0100
0000
0001
0000
,
0011
0001
0000
0010
0100
0000
1000
0000
1100
1000
0000
1000
1010
0000
0110
0000
,
0000
1001
0110
0000
1001
0000
0000
0000
;

//---------------dance-single - Renard----------------
#NOTES:
     dance-single:
     Renard:
     Hard:
     9:
     0.604,0.543,0.283,0.034,0.519:
1000
0000
0000
1001
0000
0000
0000
0001
0100
0000
0000
0100
0010
0000
0000
0010
,
1000
0000
0000
1000
0100
0000
0000
0100
0010
0000
0001
0000
1000
0000
0010
0000
,
0000
0000
0000
0000
,
0000
0000
0000
0000
,
1000
0000
0000
1000
0001
0000
0100
0000
0010
0000
0010
0000
0000
0000
1000
0000
,
0100
0000
0000
0010
0001
0000
1000
0000
0001
0000
0001
0000
0000
0000
0100
0000
,
0010
0000
0000
0000
0010
1000
0100
0000
0010
0000
0010
0000
0000
0000
0001
0000
,
0100
0000
0000
0010
1000
0000
0100
0000
0010
0000
0001
0000
1000
0000
0010
0000
,
0100
0000
0000
0100
0001
0000
0010
0000
0100
0000
0100
0000
0000
0000
1000
0000
,
0010
0000
0000
0100
0001
0000
1000
0000
0010
0000
0010
0000
0000
0000
0100
0000
,
0001
0000
0000
0010
0100
0000
1000
0000
0001
0000
0001
0000
0000
0000
0100
0000
,
0010
1000
0100
0010
0001
0000
1000
0000
,
0001
0100
0000
0100
0010
0000
1000
0000
0100
0010
0000
0010
0001
0000
0010
0000
,
0100
1000
0000
1000
0010
0000
0100
0000
0001
0000
0000
0010
0001
0000
1000
0000
,
0010
0100
0000
0100
0001
0000
0010
0000
0100
1000
0000
1000
0010
0000
0100
0000
,
0001
0010
0000
0010
0001
0000
1000
0000
0010
0000
0000
0000
1001
0000
0000
0000
,
0001
0100
0000
0100
0010
0000
0010
1000
0000
0000
0100
0000
0010
0000
0001
0000
,
0010
0100
0000
0100
1000
0000
1000
0010
0000
0000
0100
0000
0001
0000
0010
0000
,
0100
1000
0000
1000
0001
0000
0001
0100
0000
0000
0010
0000
1000
0000
0001
0000
,
0100
0010
0000
0010
1000
0000
1000
0001
0000
0000
0100
0000
0010
0000
1000
0000
,
0100
0010
0000
0010
0001
0000
0001
0010
0000
0000
0100
0000
1000
0000
0001
0000
,
0100
0010
0000
0010
1000
0000
1000
0010
0000
0000
0100
0000
0001
0000
0010
0000
,
0100
1000
0000
1000
0001
0000
0001
0010
0000
0000
0010
0000
0100
0000
1000
0000
,
0010
0100
0000
0100
0001
0000
0001
0100
0000
0000
0010
0000
1000
0000
0100
0000
,
0010
0001
0000
0001
0010
0000
0000
0000
0100
1000
0000
1000
0100
0000
0000
0000
,
1000
0010
0000
0010
1000
0000
0000
0000
0001
0100
0000
0100
0001
0000
0010
0000
,
0100
1000
0000
1000
0100
0000
0000
0000
0010
0001
0000
0001
0010
0000
0000
0000
,
0001
1000
0000
1000
0001
0000
0000
0000
0100
0010
0000
0010
0100
0000
0010
0000
,
1010
0000
0100
0001
0011
0000
0100
1000
,
1010
0000
0101
1001
0000
1010
1001
0000
,
1000
0000
0001
0100
0001
0000
0010
0000
0100
0000
1000
0100
1000
0000
0001
0000
,
0010
0000
0001
1000
0001
0000
0100
0000
0010
0000
1000
0010
1000
0000
0100
0000
,
0010
0000
0001
0010
0001
0000
0010
0000
0100
0000
1000
0100
1000
0000
0001
0000
,
0100
0000
0010
0100
0010
0000
1000
0000
0001
0000
0000
0000
0110
0000
1001
0000
,
1000
0000
0100
0010
0100
0000
0010
0000
0001
0000
0010
0001
0010
0000
0100
0000
,
1000
0000
0100
1000
0100
0000
1000
0000
0001
0000
0100
0001
0100
0000
0010
0000
,
1000
0000
0010
1000
0010
0000
1000
0000
0100
0000
0010
0001
0010
0000
0100
0000
,
1001
0000
0110
1001
0000
0110
1001
0000
,
2000
0000
0000
0000
3001
0000
0100
0000
0010
0000
1000
0100
0011
0000
0000
0000
,
0200
0000
0000
0000
1300
0000
0010
0000
0100
0000
0001
0010
1100
0000
0000
0000
,
2000
0000
0000
0000
3001
0000
0100
0000
0010
0000
1000
0100
0011
0000
0100
0000
,
2000
0000
0000
0000
3001
0000
0100
0000
0010
0000
1000
0010
0101
0000
0100
0000
,
0010
0000
0010
1000
0100
0010
0000
0000
0010
0000
0001
0100
0010
0010
0000
0000
,
1000
0000
0100
0010
0001
1000
0000
0000
0001
0000
0010
0100
1000
1000
0000
0000
,
0010
0000
0100
0000
0001
1000
0000
0000
0010
0000
1000
0000
0100
0100
0000
0000
,
1000
0001
0010
0001
1010
0101
1100
0011
,
1001
0000
0000
0000
,
1000
0000
0000
0000
0001
0000
0000
0000
0100
0000
0000
0000
0010
0000
0000
0000
1000
0000
0000
0000
0001
0000
0000
0000
1000
0000
0000
0001
0000
0000
0000
0000
0000
0001
0000
0000
1000
0000
0000
0000
0000
0000
1000
0000
0000
0010
0000
0000
,
0000
0000
0100
0000
0001
0000
0010
0000
0100
1000
0000
1000
0001
0000
0001
0010
,
0000
0000
0001
0000
1000
0000
0010
0000
0100
0001
0000
0001
1000
0000
1000
0100
,
0000
0000
0010
0000
0001
0000
1000
0000
0010
0100
0000
0100
0001
0000
0001
0010
,
0000
0000
0100
0000
1000
0000
0001
0000
0010
0001
0000
0001
0010
0000
0100
0000
,
1000
0001
0000
0001
1000
0000
0100
0000
0010
0100
0000
0100
0010
0000
0100
0000
,
1000
0000
0010
0000
0100
0000
0001
0000
1000
0100
0000
0100
1000
0000
0001
0000
,
0010
0001
0000
0001
0010
0000
0100
0000
1000
0001
0000
0001
0100
0000
0010
0000
,
1000
0100
0010
0001
1001
0000
0010
0100
,
1001
0000
0100
0010
1001
0000
0110
1001
,
0000
1010
0101
0000
1001
0000
0000
0000
;

//---------------dance-single - Renard----------------
#NOTES:
     dance-single:
     Renard:
     Medium:
     5:
     0.354,0.567,0.112,0.403,0.000:
0000
0000
0000
0000
,
0000
0000
0000
0000
,
0000
0000
0000
0000
,
0000
0000
0000
0000
,
2000
0000
3002
0000
,
0203
0000
0320
2030
,
3200
0000
0320
0000
,
0032
0023
0230
0000
,
2300
0000
3020
0000
,
0230
0000
0302
0000
,
2003
0000
3200
0000
,
0320
0032
2000
3003
,
0001
0100
0001
0000
1000
0100
1000
0000
,
0001
0010
0001
1000
0010
0000
0010
0000
,
0100
0001
0100
0000
0001
1000
0001
0000
,
1000
0100
1000
0000
0001
0000
0010
0000
,
0001
0000
1000
0000
0010
0100
0010
0100
,
0001
0000
1000
0000
0010
0100
0010
0000
,
1000
0000
0001
0000
0100
0010
0100
0010
,
1000
0000
0001
0000
0100
0010
0100
0000
,
0010
0000
1000
0000
0001
0100
0001
0000
,
0010
0000
0100
0000
1000
0001
1000
0000
,
0001
0000
0100
0000
0010
1000
0010
0000
,
0100
0000
0001
0000
0010
0001
0010
0000
,
0100
0100
0010
0010
,
0001
0001
1000
1000
,
0010
0010
0100
0100
,
0001
0001
1000
1000
,
0001
0101
1000
1100
,
1000
0000
0001
0100
0000
0010
1000
0000
,
0001
0001
1000
1000
,
0100
0000
0100
0000
0010
0001
0010
0001
,
0010
0010
0100
0100
,
1000
0000
1000
0000
0001
0100
0001
0100
,
0001
1000
0001
1000
,
0010
0000
0100
0000
0001
1000
0001
1000
,
0001
0100
0010
1000
,
0001
0000
0100
0010
0000
1000
0001
0000
,
0200
0000
0320
0000
2030
0000
0000
3200
,
0320
0032
2003
3020
0230
0000
0302
0023
,
0230
0000
2300
0000
3020
0000
0000
0230
,
0302
0023
0032
2003
3002
0000
0203
0000
,
0020
0330
1001
0000
0220
0330
1001
0000
,
0220
0000
1000
0331
,
0010
0100
0001
1000
,
0200
1000
2000
3310
,
1100
0000
0000
0000
,
1000
1000
0001
0100
,
0001
1000
0001
0000
1000
0000
0100
0000
,
1000
0001
1000
0000
0001
0000
0010
0000
,
0001
1000
0001
0000
1000
0000
0010
0000
,
1000
0100
1000
0000
0001
0000
0001
0000
,
1000
1000
0010
0010
,
0100
0100
0001
0001
,
1000
1000
0100
0010
,
0001
1000
1010
0000
,
1001
0000
0000
0000
0101
0000
0000
1001
,
0000
1010
1001
0000
;

//---------------dance-single - Renard----------------
#NOTES:
     dance-single:
     Renard:
     Easy:
     2:
     0.205,0.345,0.137,0.103,0.000: // measure 1
0000
0000
0000
0000
,  // measure 2
0000
0000
0000
0000
,  // measure 3
0000
0000
0000
0000
,  // measure 4
0000
0000
0000
0000
,  // measure 5
1000
0000
0001
0000
,  // measure 6
0100
0000
0000
0000
,  // measure 7
0010
0000
1000
0000
,  // measure 8
0001
0000
1000
0001
,  // measure 9
1000
0000
0100
0000
,  // measure 10
0010
0000
0010
0000
,  // measure 11
0001
0000
1000
0000
,  // measure 12
0100
1000
0001
0000
,  // measure 13
0100
0000
0100
0000
,  // measure 14
0100
0000
0100
0100
,  // measure 15
0010
0000
0010
0000
,  // measure 16
0010
0000
0010
1000
,  // measure 17
0001
0000
0100
0001
,  // measure 18
1000
0000
0100
1000
,  // measure 19
0001
0000
0010
0001
,  // measure 20
1000
0000
0010
1000
,  // measure 21
0001
0000
0100
0001
,  // measure 22
1000
0000
0100
1000
,  // measure 23
0001
0000
0010
0001
,  // measure 24
1000
0000
0010
1000
,  // measure 25
0001
1000
0001
0000
,  // measure 26
0100
0010
0100
0000
,  // measure 27
0010
1000
0010
0000
,  // measure 28
0100
0001
0100
0000
,  // measure 29
0001
0000
0001
0000
,  // measure 30
1000
0000
0001
1000
,  // measure 31
0001
0000
0001
0000
,  // measure 32
0001
0000
0100
0010
,  // measure 33
1000
0000
1000
0000
,  // measure 34
1000
0000
0100
0010
,  // measure 35
0001
0000
0001
0000
,  // measure 36
0001
0000
0010
0100
,  // measure 37
1000
0000
1000
0000
,  // measure 38
0010
0100
0001
1000
,  // measure 39
0002
0203
0320
0000
,  // measure 40
2030
3200
0320
0000
,  // measure 41
0032
2003
3002
0000
,  // measure 42
0203
0320
2030
3000
,  // measure 43
1001
0110
0000
0110
,  // measure 44
1001
0110
0000
0110
,  // measure 45
0010
1010
0000
1010
,  // measure 46
0100
0101
0000
0101
,  // measure 47
1001
0000
0000
0000
,  // measure 48
0010
0010
0010
0000
,  // measure 49
0010
0000
0100
0000
,  // measure 50
0100
0000
0001
0000
,  // measure 51
0001
0000
1000
0000
,  // measure 52
1000
0000
0100
0000
,  // measure 53
0100
0000
0100
0000
,  // measure 54
0010
0001
1000
0000
,  // measure 55
1000
0000
0001
0000
,  // measure 56
0100
0010
1010
0000
,  // measure 57
0101
0000
1001
0000
,  // measure 58
0110
0000
1001
0000
;
