#TITLE:Eternal Love;
#SUBTITLE:;
#ARTIST:Jaql feat Hecate and Emoticon;
#TITLETRANSLIT:;
#SUBTITLETRANSLIT:;
#ARTISTTRANSLIT:;
#CREDIT:;
#BANNER:love.png;
#BACKGROUND:love-bg.png;
#LYRICSPATH:;
#CDTITLE:;
#MUSIC:love.ogg;
#OFFSET:0.000;
#SAMPLESTART:26.519;
#SAMPLELENGTH:12.000;
#SELECTABLE:YES;
#BPMS:0.000=181.000;
#STOPS:;
#BGCHANGES:;

//---------------dance-single - Renard----------------
#NOTES:
     dance-single:
     Renard:
     Hard:
     9:
     0.736,0.771,0.367,0.020,0.112:
0000
0000
0000
0000
,
0000
0000
0000
0000
,
0000
0000
0000
0000
,
0000
0000
0000
0000
,
1001
0000
0011
0000
1001
0000
1000
0100
,
0000
1000
0001
0010
0001
0000
1000
0010
,
0100
0001
0100
0000
0010
1000
0100
0010
,
0000
0110
0000
1100
0000
1001
0000
0000
,
0001
0100
0001
1000
0100
1000
0001
0010
,
0001
1000
0010
1000
0001
0100
0000
0001
,
1000
0100
0010
0001
0010
0100
1000
0001
,
0100
0010
1000
0001
1000
0001
0000
1000
,
0100
0010
0001
0010
0100
1000
0010
0100
,
0001
1000
0100
1000
0001
0100
0000
0001
,
1000
0100
0010
0001
0010
0100
1000
0001
,
0000
1010
0000
1001
0000
1100
0000
1000
,
0001
0100
0001
0100
0010
1000
0010
1000
,
0100
1000
0100
1000
0001
0010
0001
0010
,
0001
0100
0010
1000
0100
0010
0001
1000
,
0001
0000
1000
0000
0001
0000
1000
0000
0001
1000
0001
1000
0001
1000
0001
1000
,
0001
0100
0010
1000
0100
0010
0000
0010
,
0100
1000
0010
0100
0001
1000
0000
0001
,
0100
0000
0001
1000
0000
1100
0000
1001
,
0000
1010
0000
1100
0000
1000
0100
0010
,
0001
1000
0001
0100
0010
1000
0000
0001
,
1000
0100
1000
0010
0100
0001
0000
1000
,
0100
0000
0010
0001
0000
0110
0000
1100
,
0000
1001
0000
1010
0000
1000
0010
0000
,
0100
0001
0100
0010
1000
0100
0010
0100
,
0000
1100
0000
1010
0000
1001
0000
1000
,
0100
0010
0001
0010
0100
1000
0001
0100
,
0000
0000
0010
0000
0000
0000
1000
0000
0000
0000
0001
1000
0001
0000
0000
0000
,
1000
0010
0100
0001
0010
0100
1000
0001
,
0000
1010
0000
1001
0000
1100
0000
1000
,
0100
0010
0001
0010
0100
1000
0001
0100
,
0000
0000
0010
0000
0000
0000
1000
0000
0000
0000
0001
1000
0100
0000
0000
0000
,
1000
0100
1000
0100
0010
0001
0010
0001
,
1000
0000
0000
0000
0001
0000
0000
0000
0100
0010
0100
0000
0010
0000
1000
0000
,
0100
0010
0001
0010
0100
1000
0001
0100
,
0010
1000
0000
1100
0000
1001
1001
0000
,
1000
0001
0100
0001
0010
0001
1000
0001
,
0100
0000
0000
0000
0010
0000
0000
0000
1000
0100
1000
0000
0100
0000
1000
0000
,
0010
0100
0001
0010
0100
1000
0001
1000
,
1001
1001
0000
1001
0000
1001
1001
0000
,
0001
0100
1000
0100
0010
0010
0000
0000
,
1000
0100
0001
0100
0010
0010
0000
0000
,
0100
1000
0010
0100
0001
0010
0100
1000
,
0010
0100
0001
0010
0100
1000
0000
0000
,
1000
0100
0001
0100
0010
0010
0000
0000
,
0100
1000
0001
0100
0010
0010
0000
0000
,
0100
0001
0010
0100
1000
0001
0100
0010
,
1000
0000
0001
0000
1000
0000
0001
0000
1000
0001
1000
0001
1000
0001
1000
0001
,
1000
0000
0001
0100
0001
1000
0100
1000
,
0000
1000
0001
0000
0101
0000
0001
1000
,
0100
1000
0001
0000
0010
0001
1000
0010
,
0000
1001
0000
1001
0000
1001
0000
0000
,
0001
0100
0001
0000
1000
0100
1000
0001
,
0000
1000
0001
0000
0101
0000
0001
0000
,
1000
0100
1000
0000
0001
0010
0001
2000
,
0002
0000
0000
0000
0000
3000
1000
1003
,
0001
0000
0100
0000
0001
0100
0000
0000
0010
0000
1000
0000
0010
1000
0000
0000
,
0100
1000
0001
0010
0100
1000
0001
0100
,
0010
0000
1000
0000
0010
1000
0000
0000
0001
0000
1000
0000
0001
1000
0000
0000
,
0100
1000
0001
0010
0100
1000
0001
1000
,
0010
0000
1000
0000
0010
1000
0000
0000
0001
0000
0100
0000
0001
0100
0000
0000
,
0001
0010
0100
1000
0001
0010
0100
1000
,
0001
0000
0100
0000
0001
0100
0000
0000
0001
0000
1000
0000
0100
1000
0000
0000
,
0100
1000
0001
0010
0100
1000
0010
1000
,
0001
1000
0001
1000
0010
1000
0010
1000
,
0100
1000
0100
1000
0001
1000
0001
1000
,
0001
0100
0001
0010
0001
1000
0001
1000
,
0001
0000
1000
0000
0010
0000
1000
0000
0001
0000
1000
0000
0001
1000
0001
1000
,
0001
0000
0000
0000
;

//---------------dance-single - Renard----------------
#NOTES:
     dance-single:
     Renard:
     Medium:
     6:
     0.360,0.551,0.000,0.000,0.000:
0000
0000
0000
0000
,
0000
0000
0000
0000
,
0000
0000
0000
0000
,
0000
0000
0000
0000
,
1000
0000
0001
0000
0000
0100
0000
0001
,
0000
1000
0100
0000
,
1000
0000
0001
0000
0100
0010
0100
0010
,
1000
1000
1000
1000
,
0010
0000
0010
0000
0100
0001
0000
0100
,
0000
0001
1000
0100
,
0010
0000
0001
0000
1000
0100
1000
0001
,
0000
0100
0000
0010
0000
1000
0000
0000
,
0001
0000
0100
0000
0001
1000
0000
0001
,
0000
0100
0010
1000
,
0100
0000
0010
0000
0001
1000
0001
0100
,
0000
0010
0000
1000
0000
0001
0000
0000
,
0100
0100
0010
1000
,
0100
0100
0010
0001
,
1000
0001
1000
0001
1000
0001
1000
0001
,
0100
0010
0100
0010
0100
0000
0010
0000
,
1000
0000
1000
0001
1000
0001
0000
0000
,
1000
0000
1000
0001
1000
0001
0000
0000
,
1000
0010
0100
0001
,
0010
0000
0001
0000
,
1000
0000
0001
0100
0001
0100
0000
0000
,
0001
0000
1000
0100
1000
0100
0000
0000
,
1000
0001
0010
0100
,
1000
0001
0100
0000
,
0001
0000
1000
0000
0100
0000
0000
1000
,
0000
0001
0000
0010
0000
0001
0000
0000
,
1000
0000
0010
0000
0100
0000
0000
0001
,
0000
0010
0000
0100
0000
0000
1000
0000
,
0001
0000
0100
0000
0010
0000
0000
1000
,
0000
0100
0000
0010
0000
0001
0000
0000
,
1000
0010
0100
0001
,
0010
0001
1000
0000
,
0001
0000
0001
0000
,
0100
0000
0100
0000
,
0001
0000
0001
0000
,
1000
1000
0100
0010
,
0001
0000
0001
0000
,
1000
0000
1000
0000
,
0001
0100
0010
1000
,
0100
0000
0000
0100
0000
0000
0100
0000
,
1000
0001
0100
0000
,
0001
1000
0100
0000
,
0010
0001
1000
0010
,
0100
0100
0100
0000
,
0001
0010
0100
0000
,
0100
1000
0010
0000
,
0100
0001
0100
0000
0001
1000
0001
0000
,
1000
0000
0100
0000
0010
0001
0010
0000
,
0001
0000
0001
0000
0010
0000
0000
0100
,
0000
1000
0010
0000
,
0100
0000
0001
0000
1000
0000
0000
0100
,
0000
0010
0000
0001
0000
1000
0000
0000
,
0001
0000
0100
0000
0010
0000
0000
1000
,
0000
0000
0100
0000
,
0010
0001
1000
0010
,
0100
0100
0100
0000
,
0010
0000
0010
0000
,
0100
0001
1000
0000
,
0100
0000
0100
0000
,
0010
0001
1000
0000
,
0010
0000
0010
0000
,
0100
0001
1000
0000
,
0001
0000
0001
0000
,
0100
0010
0100
0010
,
1000
0000
1000
0000
,
0001
0001
0001
0001
,
0100
0010
1000
0100
,
0010
0000
0001
0000
0100
0001
0100
0001
,
1000
0000
0000
0000
;

//---------------dance-single - Renard----------------
#NOTES:
     dance-single:
     Renard:
     Easy:
     2:
     0.221,0.330,0.010,0.031,0.000: // measure 1
0000
0000
0000
0000
,  // measure 2
0000
0000
0000
0000
,  // measure 3
0000
0000
0000
0000
,  // measure 4
0000
0000
0000
0000
,  // measure 5
0000
0000
0000
0000
,  // measure 6
0000
0000
0000
0000
,  // measure 7
0000
0000
0000
0000
,  // measure 8
0000
0000
0000
0000
,  // measure 9
1000
0000
1000
0000
,  // measure 10
0001
0000
0000
0000
,  // measure 11
0100
0000
0100
0000
,  // measure 12
0010
0000
1000
0000
,  // measure 13
0100
0000
0010
0000
,  // measure 14
0001
0000
0000
0000
,  // measure 15
0001
0000
0010
0000
,  // measure 16
0100
0000
1000
0000
,  // measure 17
0001
0100
0002
0000
,  // measure 18
1000
0000
1000
0000
,  // measure 19
1000
1000
1000
1000
,  // measure 20
1000
1000
1003
0000
,  // measure 21
1000
0000
0001
0000
,  // measure 22
0100
0000
0010
0000
,  // measure 23
1000
0100
0010
0001
,  // measure 24
1000
0000
0000
0000
,  // measure 25
0001
0000
1000
0000
,  // measure 26
0001
0000
0000
0000
,  // measure 27
1000
0100
0010
0001
,  // measure 28
0010
0000
0000
0000
,  // measure 29
0100
0000
0100
0000
,  // measure 30
0010
0001
0010
0001
,  // measure 31
1000
0000
0000
0000
,  // measure 32
1000
0000
0000
0000
,  // measure 33
0100
0000
0100
0000
,  // measure 34
1000
0010
1000
0010
,  // measure 35
0100
0000
0000
0000
,  // measure 36
0100
0000
0000
0000
,  // measure 37
0001
0000
0010
0000
,  // measure 38
0001
0010
0100
1000
,  // measure 39
0100
0000
0100
0000
,  // measure 40
1000
0010
0100
0001
,  // measure 41
0010
0000
0010
0000
,  // measure 42
0001
0010
0100
1000
,  // measure 43
0001
0000
0001
1000
,  // measure 44
0100
0000
0000
1100
,  // measure 45
1000
0000
1000
0000
,  // measure 46
0001
0000
0001
0000
,  // measure 47
0100
0000
0100
0000
,  // measure 48
0010
1000
0010
1000
,  // measure 49
0100
0000
0100
0000
,  // measure 50
0010
0000
0010
0000
,  // measure 51
0001
1000
0001
0100
,  // measure 52
0020
0000
0000
0000
,  // measure 53
0130
0000
0100
0000
,  // measure 54
0010
0000
0000
0000
,  // measure 55
0100
0000
0100
0000
,  // measure 56
0010
0000
0000
0000
,  // measure 57
1000
0000
1000
0000
,  // measure 58
0001
0000
0000
0000
,  // measure 59
1000
0000
1000
0000
,  // measure 60
0002
0000
0000
0000
,  // measure 61
0103
0000
0100
0000
,  // measure 62
0001
0010
0100
0000
,  // measure 63
1000
0000
1000
0000
,  // measure 64
0010
0100
0001
0000
,  // measure 65
0010
0000
0010
0000
,  // measure 66
0100
1000
0001
0100
,  // measure 67
0001
0000
0001
0000
,  // measure 68
0010
0000
0001
0000
,  // measure 69
1000
0000
1000
0000
,  // measure 70
0001
0001
0100
0010
,  // measure 71
1000
1000
0010
0100
,  // measure 72
0001
1000
0001
0100
,  // measure 73
0010
0000
0000
0000
;
