#TITLE:Elysium;
#SUBTITLE:;
#ARTIST:Scott Brown;
#TITLETRANSLIT:;
#SUBTITLETRANSLIT:;
#ARTISTTRANSLIT:;
#CREDIT:;
#BANNER:elysium.png;
#BACKGROUND:elysium-bg.png;
#LYRICSPATH:;
#CDTITLE:;
#MUSIC:elysium.ogg;
#OFFSET:0.000;
#SAMPLESTART:54.857;
#SAMPLELENGTH:12.000;
#SELECTABLE:YES;
#BPMS:0.000=175.000;
#STOPS:;
#BGCHANGES:;

//---------------dance-single - Renard----------------
#NOTES:
     dance-single:
     Renard:
     Hard:
     8:
     0.647,0.618,0.010,0.000,0.000:
0000
0000
0000
0000
,
0000
0000
0000
0000
,
0000
0000
0000
0000
,
0000
0000
0000
0000
,
0001
0100
0001
0100
0001
0100
0010
0000
,
1000
0100
1000
0100
1000
0100
0010
0000
,
0001
0010
0001
0010
0001
0010
0100
0000
,
1000
0010
0100
0001
0001
0010
0100
0000
,
1000
0010
1000
0010
1000
0010
0100
0001
,
0100
0001
0100
0001
0100
0001
0010
0100
,
0010
0100
0010
0100
0010
0100
1000
0010
,
0100
0010
0100
0001
0010
0100
0010
0100
,
1000
0010
0100
0010
0100
0010
0100
0001
,
0010
0100
0010
0100
0010
0100
1000
0010
,
0100
0010
0100
0010
0100
0010
0100
0001
,
0010
0100
0010
0001
1000
0010
0100
0001
,
0100
0000
0100
0010
0000
0010
1000
0000
,
1000
0001
0000
0001
0100
0010
1000
0100
,
0010
0000
0010
0001
0000
0001
1000
0000
,
1000
0001
0000
0001
0100
0010
1000
0100
,
0010
0000
0010
0001
0000
0001
1000
0000
,
1000
0001
0000
0001
0100
0010
1000
0001
,
1000
0000
1000
0100
0000
0100
0010
0000
,
0010
0001
0000
1000
0001
1000
0001
1000
,
0010
0000
0010
0100
0001
0100
0010
1000
,
0000
1000
0000
0100
0010
0001
0010
0100
,
1000
0000
0010
0100
0000
0001
0010
0000
,
0100
1000
0001
0010
0001
1000
0010
0100
,
0001
1000
0100
0010
0001
0000
0001
1000
,
0000
0010
0000
0100
0001
0010
0100
1000
,
0001
0000
0001
1000
0000
1000
0010
0000
,
0100
0001
0010
0100
1000
0001
0010
0100
,
1000
0000
1000
0001
0000
0001
0100
0000
,
0100
0010
0000
0010
1000
0000
0100
0001
,
0100
0000
0100
1000
0000
1000
0010
0000
,
0010
0001
0000
0010
0100
0000
1000
0100
,
0001
0000
0001
0010
0000
0010
1000
0000
,
1000
0010
0000
0010
0001
0000
1000
0100
,
0001
0000
0001
0100
0000
0100
1000
0000
,
1000
0010
0000
0010
0100
0001
0100
0010
,
1000
0000
1000
0010
0100
0001
0010
0000
,
0010
0100
1000
0010
0100
0000
0100
0001
,
0010
0100
1000
0010
0000
0010
0100
0001
,
1000
0100
0000
0100
0010
0001
0010
0100
,
1000
0010
0100
0001
0000
0001
1000
0100
,
0010
0001
0000
0001
0010
0100
1000
0010
,
0100
0001
0010
0100
0000
0100
0010
0100
,
1000
0010
0100
0001
0100
0010
1000
0100
,
0001
0100
0010
0001
0000
0001
0010
0100
,
1000
0010
0000
0010
0001
0010
0100
1000
,
0100
0001
0010
0100
0000
0100
0001
0100
,
1000
0010
0000
0010
0100
0001
0100
1000
,
0100
0001
0010
0100
0000
0100
0010
0001
,
0010
0100
0000
0100
1000
0100
0001
0100
,
1000
0010
0001
0010
0100
1000
0100
0001
,
0100
0010
0000
0010
1000
0010
0100
0001
,
1000
0000
1000
0000
1000
0100
0010
0000
,
0001
0000
0001
0000
0001
0010
0100
0000
,
1000
0010
1000
0010
1000
0010
0100
0000
,
0001
0010
0100
0010
0100
0010
0001
0000
,
0001
0000
0001
0100
0010
0000
0010
1000
,
0100
0000
0100
0010
0001
0000
0001
1000
,
0010
0000
0010
0100
0001
0010
0100
1000
,
0010
0000
0100
0001
0100
0010
0010
0000
,
1000
0000
1000
0000
1000
0010
0100
0000
,
0001
0000
0001
0000
0001
0010
0100
0000
,
1000
0000
0010
0100
0001
0010
0100
0000
,
1000
0000
0010
0100
0001
0100
1000
0100
,
0001
0000
0001
0010
0100
1000
0100
0000
,
0100
0000
1000
0100
0001
0100
1000
0000
,
1000
0000
0010
0100
0001
0010
0100
0000
,
0100
0010
0001
0010
1000
0000
1001
0000
;

//---------------dance-single - Renard----------------
#NOTES:
     dance-single:
     Renard:
     Challenge:
     10:
     0.825,0.872,0.354,0.000,0.268:
0000
0000
0000
0000
,
0000
0000
0000
0000
,
0000
0000
0000
0000
,
0000
0000
0000
0000
,
1000
1000
0001
0001
1000
1000
0110
0000
,
0001
0001
1000
1000
0001
0001
0110
0000
,
1000
1000
0001
0001
1000
1000
0110
0000
,
0001
0001
0110
1000
1000
1000
0110
0000
,
0110
0100
0101
0001
0011
0010
0110
0100
,
1100
0000
1000
0000
1001
0000
0001
0100
0001
0000
0000
0000
0110
0000
0000
0000
,
1010
1000
1100
0100
0110
0010
0011
0001
,
0101
0000
0100
0000
0110
0000
0100
0010
0100
0000
0000
0000
1001
0000
0000
0000
,
1001
0000
1000
0000
1010
0000
0000
0000
0010
0100
0010
0000
0100
0000
0000
0000
,
0011
0000
0010
0000
0110
0000
0000
0000
0100
1000
0100
0000
1000
0000
0000
0000
,
0101
0000
0100
0000
0110
0000
0000
0000
0010
1000
0010
0000
1000
0000
0000
0000
,
0001
0000
0100
0000
0001
0000
0010
0000
0001
0010
0001
0010
0001
0000
0000
0000
,
1000
0000
0001
0100
0010
0000
1000
0000
0000
0000
0100
0000
0010
0000
0001
0010
,
0001
0000
0010
0000
0000
0000
0100
0000
1000
0000
0010
0100
0010
0000
0100
0000
,
0001
0000
0100
0010
0100
0000
0010
0000
0000
0000
1000
0000
0010
0000
0100
0010
,
0100
0000
0010
0000
0000
0000
0100
0000
0001
0000
0010
0001
0010
0000
0001
0000
,
0010
0000
0100
1000
0100
0000
1000
0000
0000
0000
0010
0000
0100
0000
0001
0100
,
0001
0000
0000
0000
0000
0000
0010
0000
1000
0000
0001
1000
0001
0000
1000
0000
,
0100
0000
0010
0001
0010
0000
0001
0000
0000
0000
0010
0000
0100
0000
1000
0100
,
1000
0000
0100
0000
0000
0000
1000
0000
0001
0000
0100
0001
0100
0000
0001
0000
,
1000
0100
0001
0100
1000
0010
0001
0010
,
0100
1000
0100
0001
0100
0010
1000
0100
,
0001
0100
0010
0001
0010
0100
1000
0100
,
0001
0100
1000
0010
0001
0010
0100
1000
,
0100
0001
0010
0100
0001
0100
1000
0010
,
0100
0001
0010
0100
0010
0100
0010
0100
,
1000
0010
0100
0001
0100
0010
1000
0001
,
0010
0100
0010
1000
0010
0001
0010
0001
,
1000
0000
1000
0001
0000
0001
0100
0000
,
0100
0010
0000
0010
1000
0000
0100
0010
,
0001
1000
0001
0100
0000
0100
0010
1000
,
0100
0010
0000
0010
0001
0010
0100
1000
,
0001
0100
0010
1000
0000
1000
0010
0100
,
0001
0010
0000
0010
0001
1000
0100
0010
,
0001
0000
0001
1000
0000
1000
0010
0100
,
0001
0100
0000
0100
0010
0000
1000
0010
,
0100
0000
0001
0100
0001
0000
0100
0000
0000
0000
0010
0000
1000
0000
0010
1000
,
0010
0000
1000
0000
0000
0000
0100
0000
0010
0000
0100
0010
0100
0000
0010
0000
,
0001
0000
0100
0001
0100
0000
0001
0000
0000
0000
0100
0000
0010
0000
1000
0010
,
1000
0000
0010
0000
0000
0000
1000
0000
0100
0000
0010
0100
0010
0000
0100
0000
,
0010
0000
0001
1000
0001
0000
1000
0000
0000
0000
0001
0000
0100
0000
0010
0100
,
0010
0000
1000
0000
0000
0000
0010
0000
0100
0000
0010
0100
0010
0000
0100
0000
,
0001
0000
1000
0001
1000
0000
0001
0000
0000
0000
0010
0000
0100
0000
1000
0001
,
1000
0000
0001
0000
0000
0000
1000
0000
0010
0000
0100
0000
0001
0100
0001
0000
,
1000
0000
0010
0000
0100
0010
0100
0000
0001
0000
0010
0000
0100
0000
0010
0100
,
0010
0000
0100
0000
1000
0000
0010
0000
0100
0000
0001
0100
0001
0000
0100
0000
,
0010
0000
1000
0010
1000
0000
0010
0000
1000
0000
0100
0000
0010
0000
0001
0010
,
0001
0000
0010
0000
0100
0000
1000
0000
0001
0000
0100
0001
0100
0000
0001
0000
,
0100
0000
0010
1000
0010
0000
1000
0000
0010
0000
0100
0000
0001
0000
0010
0001
,
0010
0000
0001
0000
0010
0000
0100
0000
1000
0000
0001
1000
0001
0000
1000
0000
,
0010
0000
0100
0010
0100
0000
0001
0000
1000
0000
0100
0000
0010
0000
0001
0010
,
0001
0000
1000
0000
0000
0000
0001
0000
0100
0000
0001
0100
0001
0000
0100
0000
,
0001
0000
0001
0000
1000
0000
1000
0000
0010
0100
0010
0000
0100
0000
0000
0000
,
0001
0000
0001
0000
0010
0000
0010
0000
0100
1000
0100
0000
1000
0000
0000
0000
,
0001
0000
0001
0000
0100
0000
0100
0000
0010
1000
0010
0000
1000
0000
0000
0000
,
0001
0100
0001
0000
0010
0000
0000
0000
1000
0100
1000
0000
0100
0000
0000
0000
,
1000
0000
0010
0000
0100
0000
0001
0000
0010
0001
0010
0000
0001
0000
0000
0000
,
0010
0000
0100
0000
1000
0000
0001
0000
1000
0010
1000
0000
0001
0000
0000
0000
,
0100
0000
0001
0000
1000
0000
0001
1000
0001
0000
1000
0000
0100
0000
0000
0000
,
0010
0000
0001
0000
1000
0001
1000
0000
0010
0000
0100
0000
0001
0100
0001
0000
,
1000
1000
0001
0001
1000
1000
0110
0000
,
0001
0001
1000
1000
0001
0001
0110
0000
,
1000
1000
0001
0001
1000
1000
0110
0000
,
0001
0001
0110
1000
1000
1000
0110
0000
,
0010
0010
0100
0100
0010
0010
1001
0000
,
0100
0100
0010
0010
0100
0100
1001
0000
,
0010
0010
0100
0100
0010
0010
1001
0000
,
0100
0100
1001
0010
0010
0010
1001
0000
;

//---------------dance-single - Renard----------------
#NOTES:
     dance-single:
     Renard:
     Medium:
     6:
     0.399,0.436,0.000,0.000,0.000:
0000
0000
0000
0000
,
0000
0000
0000
0000
,
0000
0000
0000
0000
,
0000
0000
0000
0000
,
1000
0001
0100
0010
,
1000
0001
0100
0010
,
1000
0001
0100
0010
,
1000
0001
0100
0010
,
1000
0001
0010
0100
,
0010
0001
1000
0000
,
0001
0010
0100
1000
,
0100
0010
0001
1000
,
0001
0100
0010
1000
,
0100
0010
0001
1000
,
0001
0100
0010
1000
,
0001
0000
0100
0000
0001
0010
0001
0010
,
0001
0000
0000
1000
0000
0000
0100
0000
,
0000
0010
0000
0000
0001
0000
0001
1000
,
0010
0000
0000
0100
0000
0000
0001
0000
,
0000
1000
0000
0000
0100
0000
0010
0001
,
1000
0000
0000
0001
0000
0000
0100
0000
,
0000
0010
0000
0000
1000
0000
0001
0100
,
0010
0000
0000
1000
0000
0000
0001
0000
,
0000
1000
0000
0000
0100
0000
0010
0001
,
1000
0000
0001
0000
0100
0000
0010
1000
,
0000
0001
0100
0000
0001
0010
0000
0100
,
1000
0000
0001
0010
0000
0001
1000
0000
,
0001
0100
0000
0010
1000
0001
0000
0100
,
0010
0000
1000
0100
0010
0000
0001
0010
,
0000
0100
1000
0000
0001
0010
0000
0001
,
1000
0000
0001
0100
0000
0010
1000
0000
,
0001
0100
0000
0010
1000
0100
0000
0010
,
0001
0000
0010
0100
0000
0010
0100
0000
,
0010
0100
0000
0010
0100
0000
0000
0000
,
1000
0000
0010
0100
0000
0010
0100
0000
,
0010
0100
0000
0010
0100
0000
0000
0000
,
0001
0000
0010
0100
0000
0010
0100
0000
,
0010
0100
0000
0010
0100
0000
0000
0000
,
1000
0000
0010
0100
0000
0010
0100
0000
,
0001
1000
0001
1000
,
0010
0000
0010
0100
0000
0100
0001
0000
,
0001
1000
0000
1000
0100
0000
0000
0000
,
0010
0000
0010
0001
0000
0001
0010
0000
,
0010
0100
0000
0100
1000
0000
0000
0000
,
0001
0000
0001
0100
0000
0100
0010
0000
,
0010
1000
0000
1000
0001
0000
0000
0000
,
0010
0000
0010
0100
0000
0100
1000
0000
,
1000
0010
0000
0010
0100
0000
0001
0000
,
0100
0000
0000
0001
0000
0000
1000
0000
,
0000
0100
0000
0000
0010
0000
0001
1000
,
0001
0000
0000
0100
0000
0000
0010
0000
,
0000
1000
0000
0000
0100
0000
0010
0001
,
0010
0000
0000
0100
0000
0000
1000
0000
,
0000
0001
0000
0000
0100
0000
0010
1000
,
0010
0000
0000
1000
0000
0000
0100
0000
,
0000
0010
0000
0000
0001
0000
1000
0001
,
1000
1000
1000
0001
,
0100
0100
0100
0010
,
1000
1000
1000
0100
,
0010
0001
0100
0010
,
1000
1000
1000
0001
,
0010
0010
0010
0100
,
1000
1000
1000
0010
,
0100
0001
0010
0100
,
1000
0000
0000
0001
,
0100
0000
0000
0010
,
1000
0000
0000
0100
,
0010
0001
1000
0001
,
0100
0000
0000
0001
,
0010
0000
0000
0100
,
1000
0010
0100
0001
,
0010
0000
0100
0000
1000
0001
0100
0000
;

//---------------dance-single - Renard----------------
#NOTES:
     dance-single:
     Renard:
     Easy:
     3:
     0.321,0.327,0.000,0.304,0.000: // measure 1
0000
0000
0000
0000
,  // measure 2
0000
0000
0000
0000
,  // measure 3
0000
0000
0000
0000
,  // measure 4
0000
0000
0000
0000
,  // measure 5
1000
0000
0000
0001
,  // measure 6
0010
0000
0000
0100
,  // measure 7
1000
0000
0000
0010
,  // measure 8
0100
0001
0010
0001
,  // measure 9
1000
1000
1000
0001
,  // measure 10
1000
1000
1000
0001
,  // measure 11
1000
1000
1000
0001
,  // measure 12
1000
0001
1000
0001
,  // measure 13
0100
0100
0100
0010
,  // measure 14
0100
0100
0100
0010
,  // measure 15
0100
0100
0100
0010
,  // measure 16
0100
0010
0100
0010
,  // measure 17
0200
0000
0000
0302
,  // measure 18
0000
0000
0023
0000
,  // measure 19
0230
0000
0000
2300
,  // measure 20
0000
0000
3002
0000
,  // measure 21
0203
0000
0000
0302
,  // measure 22
0000
0000
0023
0000
,  // measure 23
0230
0000
0000
2300
,  // measure 24
0000
0000
3010
0100
,  // measure 25
0002
0000
0000
0000
,  // measure 26
0023
0000
0000
0000
,  // measure 27
0032
0000
2003
0000
,  // measure 28
3020
0000
0000
0000
,  // measure 29
0230
0000
0000
0000
,  // measure 30
0302
0000
0000
0000
,  // measure 31
2003
0000
3200
0000
,  // measure 32
0320
0000
0000
0000
,  // measure 33
0032
0000
0000
2003
,  // measure 34
0000
0000
3010
0100
,  // measure 35
0002
0000
0000
0023
,  // measure 36
0000
0000
0130
1000
,  // measure 37
0002
0000
0000
0203
,  // measure 38
0000
0000
0310
1000
,  // measure 39
0200
0000
0000
2300
,  // measure 40
0000
0000
3001
0010
,  // measure 41
0001
1000
0001
1000
,  // measure 42
0001
1000
0001
0000
,  // measure 43
0100
0010
0100
0010
,  // measure 44
0100
0010
0100
0000
,  // measure 45
0001
1000
0001
1000
,  // measure 46
0001
1000
0001
0000
,  // measure 47
0100
0010
0100
0000
,  // measure 48
0001
1000
0001
0000
,  // measure 49
0100
0010
1000
0000
,  // measure 50
0001
0000
0100
0000
,  // measure 51
0010
1000
0100
0000
,  // measure 52
0010
0000
0001
0000
,  // measure 53
1000
0010
0100
0000
,  // measure 54
0001
0000
0010
0000
,  // measure 55
0100
1000
0100
1000
,  // measure 56
0002
0000
0000
0000
,  // measure 57
1003
1000
1000
0001
,  // measure 58
1000
1000
1000
0001
,  // measure 59
1000
1000
1000
0001
,  // measure 60
1000
0001
1000
0001
,  // measure 61
0100
0100
0100
0010
,  // measure 62
0100
0100
0100
0010
,  // measure 63
0100
0100
0100
0010
,  // measure 64
0100
0010
0100
0010
,  // measure 65
1000
1000
1000
0001
,  // measure 66
0010
0010
0010
0100
,  // measure 67
1000
1000
1000
0001
,  // measure 68
0100
0100
0010
0100
,  // measure 69
0010
0100
0001
0100
,  // measure 70
0010
0100
0001
0100
,  // measure 71
0010
1000
0001
1000
,  // measure 72
0100
0010
0001
1000
;
