#TITLE:Elysium Plus (I Go Crazy);
#SUBTITLE:;
#ARTIST:Plus System vs Ultrabeat;
#TITLETRANSLIT:;
#SUBTITLETRANSLIT:;
#ARTISTTRANSLIT:;
#CREDIT:;
#BANNER:ely.png;
#BACKGROUND:ely-bg.png;
#LYRICSPATH:;
#CDTITLE:;
#MUSIC:ely.ogg;
#OFFSET:0.000;
#SAMPLESTART:86.669;
#SAMPLELENGTH:12.000;
#SELECTABLE:YES;
#BPMS:0.000=180.000;
#STOPS:;
#BGCHANGES:;

//---------------dance-single - Renard----------------
#NOTES:
     dance-single:
     Renard:
     Challenge:
     11:
     0.867,0.976,0.009,0.063,0.402:
0000
0000
0000
2000
3002
0203
2000
0300
,
3100
M001
1000
0010
0001
1000
0100
0001
,
1000
0010
0001
1000
0100
0001
0100
0010
,
1000
0100
0001
1000
0010
0001
1000
0100
,
0001
1000
0010
0001
0010
0100
1000
0010
,
0100
0001
0100
1000
0001
0010
1000
0001
,
0100
1000
0100
0010
1000
0010
0100
0001
,
0010
1000
0001
0100
1000
0001
0010
1000
,
0010
0100
1000
0001
0100
0010
1000
1000
,
0010
1000
0001
0100
1000
0001
0010
1000
,
0001
0100
1000
0001
0010
1000
0010
0100
,
0001
0010
1000
0001
0100
1000
0001
0010
,
1000
0001
0100
1000
0100
0010
0001
0100
,
0010
1000
0010
0001
1000
0100
0001
1000
,
0010
0001
0010
0100
0001
0100
0010
1000
,
0100
0001
1000
0010
0001
1000
0100
0001
,
0200
0000
0000
0010
0010
0010
0010
00M0
,
1300
0000
M010
0100
0010
0000
0100
0000
0001
0100
0001
0000
0100
0000
0001
0010
,
0001
0000
0010
0000
0100
0010
0100
0000
1000
0000
0100
0000
1000
0000
0010
0000
,
0100
0000
0010
0100
0010
0000
0100
0000
0001
0100
0001
0000
1000
0000
0001
1000
,
0001
0000
1000
0000
0100
1000
0100
0000
1000
0000
0100
0000
0010
0000
0001
0000
,
0010
0000
0100
0010
0100
0000
1000
0000
0100
1000
0100
0000
1000
0000
0001
0010
,
0001
0000
0100
0000
0001
0100
0001
0000
0100
0000
0010
0000
1000
0000
0010
0000
,
0100
0000
0001
0100
0001
0000
0100
0000
0010
0100
0010
0000
1000
0000
0010
1000
,
0010
0100
0010
0100
0001
1000
0001
1000
,
0001
0000
0100
0010
1000
0000
0010
0000
1000
0100
0010
0000
0001
0000
0010
0100
,
1000
0000
0001
0010
0100
0000
1000
0000
0001
0000
0100
0000
0010
0000
1000
0000
,
0010
0000
0100
0001
0100
0000
0010
0000
1000
0100
0010
0000
0001
0000
0010
0100
,
1000
0000
0001
0010
0100
0000
1000
0000
0001
0000
0100
0000
0010
0000
1000
0000
,
0010
0000
0100
0001
0100
0000
0010
1000
0100
0000
0010
0001
0010
0000
0100
1000
,
0001
0000
0010
0100
1000
0000
0001
0100
0010
0000
1000
0001
0100
0000
0010
1000
,
0100
0000
0010
0001
0010
0000
0100
1000
0001
0000
0010
0100
1000
0000
0001
0000
,
200M
0000
0000
0001
0001
0001
0001
000M
,
3001
010M
0010
1000
0010
0001
0010
0001
,
000M
0001
0010
1000
0010
0100
0001
0100
,
1000
M000
1000
0100
0M00
0100
0010
00M0
,
0010
1000
0100
0001
0100
0010
0001
0010
,
1000
0010
0001
0010
0100
1000
0100
0001
,
000M
0001
0100
1000
0100
1000
0010
0001
,
0010
00M0
0010
1000
M000
1000
0010
0100
,
0001
0100
1000
0100
1000
0100
0001
0100
,
0001
0100
0010
1000
0010
0001
0010
0001
,
000M
0001
0010
00M0
0010
0100
0M00
0100
,
1000
0100
0001
0100
0M00
0100
0010
00M0
,
0010
1000
0100
0010
0001
0010
0100
1000
,
0100
0001
0100
0010
0001
000M
0001
0010
,
00M0
0010
0100
1000
0010
0100
0001
0100
,
1000
M000
1000
0100
0M00
0100
0010
1000
,
0001
0010
0100
1000
0001
0010
0100
1000
,
0001
0100
0010
1000
M000
1000
0010
00M0
,
0010
0100
0M00
0100
0001
0010
0100
1000
,
0001
0010
0100
1000
M000
1000
0001
000M
,
0001
0100
0M00
0100
1000
M000
1000
0100
,
0001
0100
1000
0100
0M00
0100
0010
00M0
,
0010
1000
M000
1000
0010
0001
0010
0100
,
1000
0100
0001
0100
0M00
0100
0010
00M0
,
0010
1000
M000
1000
0100
0010
0001
0010
,
0100
0010
1000
0010
00M0
0010
0001
00M0
,
0001
0010
00M0
0010
0100
1000
0100
1000
,
0010
0100
0001
0100
0M00
0100
0010
00M0
,
0010
0001
000M
0001
0010
1000
0010
0100
,
0001
0000
0100
0000
0001
0100
0001
0000
0100
0000
0010
0000
0100
0010
0100
0000
,
0010
0000
1000
0000
0010
1000
0010
0000
1000
0000
0100
0000
1000
0100
1000
0000
,
0100
0010
0001
0010
0100
1000
0001
0010
0100
1000
0001
0100
0010
1000
0001
0100
,
0001
1000
0100
0010
0001
1000
0001
1000
0001
0010
0100
1000
0001
0100
0001
1000
,
0001
0000
0000
0000
0010
0001
0010
0000
0000
0000
0100
1000
0100
0000
0000
0000
,
0100
1000
0100
0000
0000
0000
0010
0001
0010
0000
0000
0000
0100
0000
1000
0000
,
0001
0000
0000
0000
0100
0010
0100
0000
0000
0000
0010
1000
0010
0000
0000
0000
,
1000
0001
1000
0000
0000
0000
0001
0100
0001
0000
0000
0000
0100
0000
0010
0000
,
1000
0000
0000
0000
0100
1000
0100
0000
0000
0000
0010
0100
0010
0000
0000
0000
,
0001
0010
0001
0000
0000
0000
0010
0000
0100
0000
1000
0000
0001
0000
0100
0000
,
0010
0000
0000
0000
1000
0010
1000
0000
0000
0000
0001
0100
0001
0000
0000
0000
,
1000
0100
1000
0000
0000
0000
0001
0010
0001
0000
0000
0000
0010
0000
0100
0000
,
1000
0100
0010
0000
0001
0000
0010
0100
1000
0000
0001
0000
0010
0001
0100
0000
,
0010
0000
1000
0010
0100
0000
0001
0000
1000
0100
1000
0000
0001
0010
0001
0000
,
1000
0010
1000
0000
0001
0000
0100
0001
0100
0000
0010
0000
1000
0100
1000
0000
,
0001
0000
0010
0100
1000
0000
0001
0000
0010
0001
0100
0000
0010
1000
0100
0000
,
1000
0001
1000
0000
0001
0000
0100
0010
0100
0000
0010
0000
1000
0010
1000
0000
,
0001
0000
0100
0001
0100
0000
0010
0000
1000
0010
1000
0000
0001
0100
0001
0000
,
1000
0100
0010
0000
0001
0000
0010
0100
1000
0000
0001
0000
0010
0001
0100
0000
,
0201
M0MM
0000
0010
1000
0001
0010
0300
;

//---------------dance-single - Renard----------------
#NOTES:
     dance-single:
     Renard:
     Hard:
     9:
     0.701,0.613,0.009,0.000,0.000:
0000
0000
0000
0000
,
1000
0100
0010
0001
0010
0100
1000
0010
,
0100
0001
0100
0010
1000
0100
1000
0100
,
1000
0001
0010
0100
1000
0001
0100
0010
,
1000
0100
0010
0001
1000
0001
1000
0001
,
1000
0001
0100
0010
1000
0100
0010
0100
,
1000
0001
0010
0100
0010
0001
0010
0001
,
0010
0100
1000
0001
0100
0010
1000
0100
,
0010
0001
1000
0010
1000
0010
1000
0001
,
0100
0010
1000
0100
0010
0001
0010
0100
,
1000
0001
0100
0010
1000
0001
1000
0001
,
0100
0010
1000
0100
0010
0001
1000
0010
,
0100
0001
0010
0100
1000
0100
1000
0100
,
1000
0001
0010
0100
1000
0001
0100
0010
,
1000
0001
0100
0001
0010
0100
0010
0100
,
0010
0100
1000
0010
0100
0001
0010
0100
,
1000
0000
0000
0000
,
0001
0100
0001
0000
1000
0010
0000
1000
,
0100
0010
0001
0010
0000
0100
1000
0001
,
0100
0010
1000
0000
0001
0100
0000
0010
,
1000
0000
0100
0010
0001
0010
0100
1000
,
0001
0100
0010
0000
1000
0010
0000
0100
,
0001
0010
0100
1000
0000
0001
0100
0010
,
1000
0100
0010
0000
0001
0010
0000
0100
,
1000
0001
0100
0010
0000
0010
1000
0000
,
0100
0010
0001
0000
0010
0100
1000
0001
,
0100
0000
0010
1000
0100
0010
0001
1000
,
0001
0100
0010
0000
1000
0100
0010
0001
,
1000
0000
0001
0010
0100
1000
0001
0100
,
0010
1000
0100
0010
0001
1000
0000
0001
,
0010
0100
1000
0001
0000
0100
0010
1000
,
0100
0010
0100
1000
0001
0100
0010
1000
,
0001
0000
0000
0000
,
1000
0100
0010
0001
0010
0000
0010
0100
,
0000
0100
1000
0010
0100
0001
1000
0001
,
0100
0000
0100
0001
0000
0001
1000
0000
,
0100
0010
0001
1000
0001
0100
0010
1000
,
0100
0010
0001
1000
0010
0100
0001
0100
,
0000
0100
0010
1000
0100
0010
0001
1000
,
0001
0000
0001
0100
0000
0100
0010
0000
,
0010
1000
0100
0010
0001
0010
0100
1000
,
0001
0100
0010
1000
0001
0000
0001
0100
,
0000
0100
0001
0000
0010
0100
0000
1000
,
0010
0000
0010
0100
0000
0100
0001
0000
,
0100
0010
1000
0100
0010
0001
0000
0010
,
0100
1000
0001
0100
0010
1000
0010
0100
,
0000
0100
0001
0010
0100
1000
0001
0100
,
0010
0000
0010
1000
0000
1000
0001
0000
,
0001
0100
0001
0010
0100
1000
0001
0100
,
0010
1000
0100
0010
0000
0010
0100
1000
,
0010
0100
0000
0100
0010
1000
0100
0010
,
0100
1000
0010
0100
0000
0100
0010
1000
,
0100
0010
0000
0010
0100
1000
0010
0100
,
0001
0010
0100
0010
0000
0010
0001
0100
,
0010
0100
0000
0100
0001
0010
0100
0010
,
0001
0100
0010
0100
0000
0100
0001
0010
,
0100
0010
0000
0010
0001
0100
0010
1000
,
0100
0010
0001
1000
0000
1000
0001
0010
,
0100
1000
0000
1000
0001
0010
0100
1000
,
0001
0100
0010
1000
0000
1000
0100
0010
,
0001
1000
0000
1000
0001
0010
0100
1000
,
0001
0100
0010
1000
0000
1000
0001
1000
,
0100
0010
0000
0010
0001
0010
0001
1000
,
0100
1000
0001
0100
0000
0100
0010
1000
,
0100
0100
0100
0100
,
1000
0010
0100
0001
0000
0001
0100
0010
,
1000
0100
0000
0100
0010
0001
1000
0010
,
0100
0001
0010
0001
0000
0001
0010
0100
,
1000
0010
0000
0010
0100
0001
0100
0010
,
1000
0001
0100
0010
0000
0010
1000
0100
,
0010
0001
0000
0001
1000
0100
0010
0001
,
0010
0100
1000
0001
0000
0001
0100
0010
,
1000
0100
0000
0100
0010
0001
1000
0010
,
0100
0001
0010
0001
0000
0001
1000
0100
,
0010
0001
0000
0001
0010
0100
1000
0001
,
0100
0010
0100
0010
0000
0010
1000
0100
,
0010
0100
0000
0100
1000
0010
0100
0001
,
0010
0100
1000
0100
0000
0100
1000
0010
,
0100
0010
0000
0010
1000
0100
0010
0001
,
0010
0100
1000
0001
0000
0001
0010
0000
,
1001
0000
0000
0010
0100
0001
1000
0000
;

//---------------dance-single - Renard----------------
#NOTES:
     dance-single:
     Renard:
     Medium:
     6:
     0.387,0.397,0.000,0.152,0.000:
0000
0000
0000
0000
,
1000
0000
0000
0001
0000
0000
0100
0000
,
0000
0001
0000
0000
0010
0000
0100
0000
,
1000
0000
0000
0001
0000
0000
0100
0000
,
0000
0001
0000
0000
0010
0000
0100
0000
,
1000
0000
0000
0001
0000
0000
0100
0000
,
0000
0010
0000
0000
1000
0000
0100
0000
,
0010
0000
0000
0001
0000
0000
1000
0000
,
0000
0010
0000
0000
0100
0000
0001
0000
,
0100
0000
0000
0010
0000
0000
1000
0000
,
0000
0010
0000
0000
0100
0000
0000
0001
,
0000
0000
0010
0000
0000
0100
0000
0000
,
1000
0000
0000
0010
0000
0000
0100
0000
,
0001
0000
0000
0010
0000
0000
0100
0000
,
0000
1000
0000
0000
0010
0000
0000
0100
,
0000
0000
0001
0000
0000
0200
0010
0000
,
0020
0000
0000
0330
,
0010
0000
0100
0000
0000
0001
0000
0000
,
1000
0000
0000
0100
0000
0000
0010
0000
,
0001
0000
1000
0000
0000
0001
0000
0000
,
0100
0000
0000
0010
0000
0000
1000
0000
,
0001
0000
0100
0000
0000
0001
0000
0000
,
0010
0000
0000
0100
0000
0000
1000
0000
,
0001
0000
0100
0000
0000
0010
0000
0000
,
1000
0000
0000
0100
0000
0000
0010
0000
,
0001
1000
0001
0000
,
1000
0001
1000
0000
,
0010
0100
0010
0100
,
0001
1000
0001
1000
,
0100
1000
0100
0000
,
1000
0001
1000
0000
,
0001
0010
0001
1000
,
0001
0000
0000
0000
0000
0000
0100
0010
,
0020
0000
0000
0000
0000
0000
1030
0200
,
0000
0000
0000
0000
0000
0000
0310
0002
,
0000
0000
0000
0000
0000
0003
0100
0002
,
0000
0000
0000
0000
0000
0000
1003
0200
,
0000
0000
0000
0000
0000
0000
0310
0002
,
0000
0000
0000
0000
0000
0000
1003
0020
,
0000
0000
0000
0000
0000
0030
0100
0002
,
0000
0000
0000
0000
0000
0003
1000
0200
,
0000
0000
0000
0000
0000
0000
0310
0002
,
0000
0000
0000
0000
0000
0003
1000
0020
,
0000
0000
0000
0000
0000
0030
0100
0020
,
0000
0000
0000
0000
0000
0000
0130
0002
,
0000
0000
0000
0000
0000
0003
0010
0200
,
0000
0000
0000
0000
0000
0310
0000
0100
,
0000
1000
0000
0020
0000
0000
0000
0000
,
0000
0000
0000
0000
0000
0000
0000
0030
,
0100
0000
0100
0001
0000
0001
0010
0000
,
0010
0100
0000
0100
1000
0000
0010
0000
,
0100
0000
0100
0001
0000
0001
1000
0000
,
1000
0100
0000
0100
0010
0000
0001
0000
,
1000
0000
1000
0010
0000
0010
0100
0000
,
0100
0001
0000
0001
1000
0000
0100
0000
,
0010
0000
0010
0001
0000
0001
0010
0000
,
0010
0100
0000
0100
1000
0000
0010
0000
,
0100
0000
0100
0001
0000
0001
0100
0000
,
0100
0010
0000
0010
1000
0000
0100
0000
,
0010
0000
0010
0001
0000
0001
0010
0000
,
0010
0100
0000
0100
1000
0000
0010
0000
,
0100
0000
0100
0001
0000
0001
0100
0000
,
0100
0010
0000
0010
1000
0000
0100
0000
,
0010
0000
0010
0001
0000
0001
1000
0000
,
0010
0010
0010
0010
,
0100
0000
0001
0100
0000
0001
0100
0000
,
0001
0100
0000
0001
0100
0000
0010
0000
,
1000
0000
0100
1000
0000
0100
1000
0000
,
0100
1000
0000
0100
1000
0000
0100
0000
,
0010
0000
0001
1000
0000
0001
1000
0000
,
0001
1000
0000
0001
1000
0000
0010
0000
,
0100
0000
0001
1000
0000
0001
1000
0000
,
0001
1000
0000
0001
1000
0000
0010
0000
,
1000
0000
0100
1000
0000
0100
1000
0000
,
0100
1000
0000
0100
1000
0000
0001
0000
,
0010
0000
0001
1000
0000
0001
1000
0000
,
0001
1000
0000
0001
1000
0000
0001
0000
,
0100
0000
0010
0100
0000
0010
0100
0000
,
0010
0100
0000
0010
0100
0000
0001
0000
,
0010
0000
0100
1000
0000
0001
1000
0000
,
0010
0000
0000
0100
0001
1000
0100
0000
;

//---------------dance-single - Renard----------------
#NOTES:
     dance-single:
     Renard:
     Easy:
     2:
     0.257,0.289,0.009,0.134,0.000: // measure 1
0000
0000
0000
0000
,  // measure 2
1000
0000
1000
0000
,  // measure 3
0001
0000
0001
0100
,  // measure 4
0010
0000
0010
0000
,  // measure 5
1000
0000
1000
0100
,  // measure 6
0010
0000
0010
0000
,  // measure 7
0001
0000
0001
1000
,  // measure 8
0010
0000
0100
0000
,  // measure 9
0001
0000
1000
0100
,  // measure 10
1000
0000
0001
0000
,  // measure 11
0100
0000
0001
0010
,  // measure 12
0001
0000
1000
0000
,  // measure 13
0001
0000
0100
0010
,  // measure 14
0100
0000
0010
0000
,  // measure 15
1000
0000
0100
0010
,  // measure 16
0001
0000
1000
0000
,  // measure 17
0001
0000
0100
0000
,  // measure 18
0010
0000
0010
0000
,  // measure 19
0010
0010
0010
0000
,  // measure 20
0100
0000
0100
0000
,  // measure 21
0100
0100
0100
0000
,  // measure 22
0001
0000
0001
0000
,  // measure 23
0001
0001
0001
0000
,  // measure 24
1000
0000
1000
0000
,  // measure 25
1000
1000
1000
0000
,  // measure 26
0001
0100
0001
0100
,  // measure 27
0001
0100
0001
0000
,  // measure 28
1000
0100
1000
0100
,  // measure 29
1000
0100
1000
0000
,  // measure 30
0001
0010
0001
0000
,  // measure 31
1000
0010
1000
0000
,  // measure 32
0001
0100
0001
0000
,  // measure 33
1001
0000
0000
0000
,  // measure 34
1000
2000
0000
0000
,  // measure 35
3001
0002
0000
0000
,  // measure 36
0203
0000
0000
0000
,  // measure 37
0320
0000
0000
0000
,  // measure 38
1030
2000
0000
0000
,  // measure 39
3200
0000
0000
0000
,  // measure 40
0320
0000
0000
0000
,  // measure 41
0031
0002
0000
0000
,  // measure 42
2003
0000
0000
0000
,  // measure 43
3001
0002
0000
0000
,  // measure 44
0203
0000
0000
0000
,  // measure 45
0320
0000
0000
0000
,  // measure 46
1030
2000
0000
0000
,  // measure 47
3200
0000
0000
0000
,  // measure 48
0320
0000
0000
0000
,  // measure 49
0000
0000
0000
0000
,  // measure 50
0031
0000
0010
0000
,  // measure 51
0100
1000
0010
0000
,  // measure 52
0100
0000
0001
0000
,  // measure 53
0010
0001
1000
0000
,  // measure 54
0001
0000
0100
0000
,  // measure 55
0010
1000
0100
0000
,  // measure 56
0010
0000
0001
0000
,  // measure 57
1000
0001
0100
0000
,  // measure 58
0001
0000
1000
0000
,  // measure 59
0100
0010
0001
0000
,  // measure 60
1000
0000
0010
0000
,  // measure 61
0100
0001
0100
0000
,  // measure 62
0010
0000
1000
0000
,  // measure 63
0100
0010
0001
0000
,  // measure 64
0010
0000
0100
0000
,  // measure 65
1000
0010
1000
0001
,  // measure 66
1000
0000
1000
0000
,  // measure 67
0001
0100
0001
0000
,  // measure 68
1000
0000
1000
0000
,  // measure 69
0001
0010
0001
0000
,  // measure 70
1000
0000
0001
0000
,  // measure 71
0100
0010
0100
0000
,  // measure 72
0010
0000
1000
0000
,  // measure 73
0100
0010
0100
0000
,  // measure 74
0010
0000
0001
0000
,  // measure 75
1000
0001
1000
0000
,  // measure 76
0001
0000
0100
0000
,  // measure 77
0010
1000
0010
0000
,  // measure 78
0100
0000
0001
0000
,  // measure 79
0010
0100
0010
0000
,  // measure 80
0100
0000
1000
0000
,  // measure 81
0010
0000
0100
0100
;
