#TITLE:Eikon;
#SUBTITLE:;
#ARTIST:Kettu;
#TITLETRANSLIT:;
#SUBTITLETRANSLIT:;
#ARTISTTRANSLIT:;
#CREDIT:;
#BANNER:eikon.png;
#BACKGROUND:eikon-bg.png;
#LYRICSPATH:;
#CDTITLE:;
#MUSIC:eikon.ogg;
#OFFSET:0.000;
#SAMPLESTART:28.425;
#SAMPLELENGTH:12.000;
#SELECTABLE:YES;
#BPMS:0.000=135.000;
#STOPS:;
#BGCHANGES:;

//---------------dance-single - Renard----------------
#NOTES:
     dance-single:
     Renard:
     Challenge:
     9:
     0.629,0.642,0.198,0.094,0.495:
0000
0000
0000
0000
,
0000
0000
0000
0000
,
0000
0000
0000
0000
,
0000
0000
0000
0000
,
1000
0000
0001
0000
0110
0000
0000
1000
0010
0000
0001
0000
0011
0000
0010
0000
,
1000
0000
0001
0000
1001
0000
0000
1000
0100
0000
0001
0000
0101
0000
0100
0000
,
1000
0000
0001
0000
1001
0000
0000
0001
0100
0000
1000
0000
1100
0000
0100
0000
,
0001
0000
1000
0000
1001
0000
0000
0001
0010
0000
0001
1000
0000
0001
0100
0000
,
0001
0000
0000
0000
0100
0000
0010
1000
0000
0000
1000
0000
0000
0000
1000
0000
,
0000
0010
0000
0000
0010
0000
0000
0100
0000
0000
0100
0000
0001
0100
0010
0000
,
1000
0000
0000
0000
0010
0000
0100
0001
0000
0000
0001
0000
0000
0000
0001
0000
,
0000
0100
0000
0000
0100
0000
0000
0010
0000
0000
0010
0000
1000
0010
0100
0000
,
0010
0000
0000
0000
0001
0000
1000
0100
0000
0000
0100
0000
0000
0000
0100
0000
,
0000
1000
0000
0000
1000
0000
0000
0001
0000
0000
0001
0000
0010
0001
1000
0000
,
0100
0000
0000
0000
1000
0000
0001
0010
0000
0000
0010
0000
0000
0000
0010
0000
,
0000
0001
0000
0000
0001
0000
0000
1000
0000
0000
1000
0000
0100
1000
0001
0000
,
0010
0000
0100
0000
1000
0000
0001
0100
0000
0000
0100
0000
0010
0000
1000
0000
,
0100
0000
0010
0000
0001
0000
1000
0001
0000
0001
0100
0000
0010
0000
1000
0000
,
0010
0000
0100
0000
0001
0000
1000
0100
0000
0100
1000
0100
0010
0000
0001
0000
,
1000
0000
0001
0100
0000
0100
0010
0000
2000
0000
0000
0000
0002
0000
3003
0000
,
0100
0000
0010
0000
0001
0000
1000
0010
0000
0000
0010
0000
0100
0000
0001
0000
,
0010
0000
0100
0000
1000
0000
0001
1000
0000
1000
0010
0000
0100
0000
0001
0000
,
0100
0000
0010
0000
1000
0000
0001
0010
0000
0010
0001
0010
0100
0000
1000
0000
,
0001
0000
1000
0000
0001
0100
0002
0000
0200
0000
0000
0000
1010
0000
0303
0000
,
0001
0100
0000
0010
1000
0100
0010
0000
0110
0000
0000
0011
0000
0000
1001
0000
,
0001
0100
0000
0010
0100
0010
1000
0000
0010
0000
0000
1000
0000
0000
0001
0000
,
1000
0100
0000
0010
0100
0010
0001
0000
1000
0000
0001
0000
0100
0000
0010
0000
,
1000
0001
0100
0010
2000
0000
3001
0000
,
0001
0100
0000
0010
1000
0100
0010
0000
0011
0000
0000
0110
0000
0000
1100
0000
,
0001
1000
0000
0010
0100
0001
0100
0000
0010
0000
1000
0100
0000
0010
0001
0000
,
0010
0000
0100
0000
1000
0000
0001
0100
0000
0100
0010
0000
1000
0000
0100
0000
,
0010
0000
0001
1000
0001
0000
0100
0000
0202
0000
0000
0000
1010
0000
0303
0000
,
2002
0000
0200
0000
0000
0010
3313
0000
,
1000
0000
0000
0000
0001
0000
0000
0001
0100
0010
1000
0100
0010
0000
0000
0000
,
0001
0000
0000
0000
0010
0000
0000
0010
0100
1000
0001
0100
0010
0000
0000
0000
,
1000
0000
0000
0000
0010
0000
0000
0010
0100
0001
0010
0100
0010
0000
0000
0000
,
0001
0000
0000
0000
1000
0000
0000
1000
0010
0100
0001
1000
0010
0000
0100
0000
,
0001
0000
0000
0000
1000
0000
0000
1000
0001
1000
0001
0010
0100
0000
0000
0000
,
1000
0000
0000
0000
0001
0000
0000
1000
0001
1000
0010
1000
0001
0000
0000
0000
,
0100
0000
0000
0000
0001
0000
0000
0001
0010
0100
1000
0001
0100
0000
0010
0000
,
1000
0000
0010
0000
0000
1010
0000
0001
0100
0000
0000
1010
0000
0000
1001
0000
,
0001
0000
0100
0010
1000
0000
0010
0100
0001
0000
0010
0000
0100
0000
1000
0000
,
0001
0000
0100
0010
1000
0000
0001
1000
0001
1000
0001
0000
1000
0000
1000
0000
,
0001
0000
0100
0000
0010
0000
1000
0100
0010
0000
0001
0010
0100
0000
1000
0000
,
0001
0000
0001
0000
0100
0010
1000
0000
0010
0000
0000
0000
0010
0000
0000
0000
,
0100
0000
0001
0000
0010
0000
0100
1000
0001
0000
1000
0000
0010
0000
0100
0001
,
0100
0000
0010
1000
0001
0000
0100
0000
0001
0000
1000
0000
1000
0000
0001
0000
,
0010
0000
0100
0000
1000
0000
0001
1000
0010
0000
0100
0000
0001
0000
1000
0000
,
0001
0000
1000
0001
1000
0000
0001
0000
1000
0100
0010
0000
0001
0000
0001
0000
,
1000
0000
0001
0000
0100
0000
0010
1000
0010
0100
0001
0000
0010
0000
0100
0000
,
1000
0000
0001
0000
0100
0000
0010
1000
0010
0100
0010
0000
0010
0000
0010
0000
,
1000
0000
0100
0000
0010
0000
0001
0010
0100
0000
1000
0000
0001
0000
0100
0000
,
0010
1000
0010
1000
0010
0000
1001
0000
,
1000
0000
0100
0000
0010
0000
0001
0010
0100
0000
1000
0000
0010
0000
0100
0000
,
0001
0000
0100
0000
0010
0000
0100
0000
0001
0000
0010
0100
0010
0000
0100
0000
,
1000
0001
0010
0100
0010
0001
0100
0010
,
1000
0001
0100
0001
1000
1000
1000
0000
;

//---------------dance-single - Renard----------------
#NOTES:
     dance-single:
     Renard:
     Hard:
     8:
     0.470,0.455,0.094,0.000,0.165:
0000
0000
0000
0000
,
0000
0000
0000
0000
,
0000
0000
0000
0000
,
0000
0000
0000
0000
,
1000
0000
0000
0000
0001
0000
0000
0100
0000
0000
0001
0000
1000
0000
0100
0000
,
0010
0000
0000
0000
0001
0000
0000
1000
0000
0000
0010
0000
0100
0000
0001
0000
,
0010
0000
0000
0000
0100
0000
0000
1000
0000
0000
0010
0000
0100
0000
0001
0000
,
0010
0001
1000
0010
0100
0001
1000
0010
,
0100
0000
0000
0000
0001
0000
0000
0010
0000
0000
0100
0000
1000
0000
0001
0000
,
0100
0000
0010
0000
1000
0000
0000
0100
0000
0000
0010
0000
0001
0000
0010
0000
,
0100
0000
0000
0000
1000
0000
0000
0001
0000
0000
0100
0000
0010
0000
1000
0000
,
0100
0000
0010
0000
0001
0000
0000
1000
0000
0000
0001
0000
0100
0000
0010
0000
,
1000
0000
0000
0000
0100
0000
0000
0010
0000
0000
0001
0000
1000
0000
0001
0000
,
0100
0010
1000
0000
0100
0000
0010
0000
,
0001
0000
0000
0000
0010
0000
0000
0100
0000
0000
1000
0000
0001
0000
0100
0000
,
0010
1000
0001
0000
0100
0001
1000
0000
,
0100
0000
0010
0000
0001
0000
1000
0010
,
0100
0000
0000
0000
0001
0000
0000
0010
0000
0000
0001
0000
1000
0000
0010
0000
,
0100
0000
0001
0000
0100
0010
1000
0100
,
0010
0001
0000
0010
0100
0000
1001
0000
,
0001
0000
0100
0010
1000
0000
0010
0000
,
0100
0000
0001
0000
1000
0000
0100
0010
,
0001
0000
0000
0000
1000
0000
0000
0010
0000
0000
0100
0000
0001
0000
0100
0000
,
0010
0000
1000
0000
0001
0100
0001
0000
0100
0000
0000
0000
0001
0000
0000
0000
,
1000
0000
0000
0000
0100
0000
0010
0000
0001
0000
0000
0010
0000
0000
0100
0000
,
1000
0000
0000
0000
0001
0000
0100
0000
0010
0000
0000
1000
0000
0000
0100
0000
,
0010
0000
0000
0000
0001
0000
1000
0000
0010
0000
0000
0100
0000
0000
0001
0000
,
0100
0010
1000
0010
0100
0000
1001
0000
,
0001
0000
0000
0000
0100
0000
0010
0000
1000
0000
0000
0100
0000
0000
0010
0000
,
0001
0000
0010
0100
1000
0001
0100
0000
,
0010
0000
1000
0000
0100
0000
0010
0001
0000
0000
0010
0000
0100
0000
1000
0000
,
0001
0000
0100
0000
0010
1000
0010
0000
1000
0000
0000
0000
0101
0000
0000
0000
,
0001
0000
0000
0000
,
0001
0000
0001
1000
0000
1000
0100
0010
,
0001
1000
0010
0100
0001
0000
1001
0000
,
0001
0000
0001
0010
0000
0010
0100
1000
,
0010
0100
0001
1000
0100
0000
1001
0000
,
1000
0100
0010
0001
0000
0001
1000
0000
,
1000
0010
0000
0100
0001
0000
1001
0000
,
0001
0100
0010
1000
0000
1000
0100
0010
,
0001
0000
1000
0000
0001
0100
0000
0000
0010
0000
0000
1000
0001
0000
1000
0000
,
0100
0000
0000
0000
0010
0000
0000
0001
0000
0000
0010
0000
0100
0000
1000
0000
,
0001
0000
0100
0000
0010
0000
0000
1000
0000
0000
0001
0000
0100
0001
0100
0000
,
0001
0000
0000
0000
1000
0000
0000
0100
0000
0000
0010
0000
0001
0000
1000
0000
,
0010
0000
0100
0001
0000
0000
1000
0000
0100
0000
0000
0000
1001
0000
0000
0000
,
1000
0000
0100
0000
0010
0000
0001
1000
0000
0000
0001
0000
0100
0000
0010
0000
,
1000
0000
0100
0000
0010
0000
0001
1000
0000
0000
0001
0000
0100
0000
0010
0000
,
1000
0000
0100
0000
0010
0000
0001
0100
0000
0000
0001
0000
0010
0000
0100
0000
,
1000
0000
0001
0000
0100
0010
0100
0000
0010
0000
0000
0000
1001
0000
0000
0000
,
1000
0000
0100
0000
0010
0000
0001
0010
0000
0000
0100
0000
1000
0000
0001
0000
,
0100
0000
0010
0000
1000
0000
0001
0100
0000
0000
0001
0000
1000
0000
0100
0000
,
0010
0000
0001
0000
1000
0000
0010
0100
0000
0000
0010
0000
1000
0000
0001
0000
,
0100
0010
1000
0100
0010
0000
1001
0000
,
0001
0000
0100
0000
0010
0000
1000
0001
0000
0000
0100
0000
0010
0000
1000
0000
,
0100
0000
0010
0000
0001
0000
1000
0001
0000
0000
0100
0000
0010
0000
1000
0000
,
0100
0000
1000
0000
0001
0000
0010
0001
0000
0000
1000
0000
0010
0000
0100
0000
,
0001
0010
0100
1000
0001
0000
0110
0000
;

//---------------dance-single - Renard----------------
#NOTES:
     dance-single:
     Renard:
     Medium:
     5:
     0.306,0.321,0.019,0.047,0.000:
0000
0000
0000
0000
,
0000
0000
0000
0000
,
0000
0000
0000
0000
,
0000
0000
0000
0000
,
1000
0000
0001
0000
0000
0100
0010
0000
,
1000
0000
0100
0000
0000
0010
0001
0000
,
1000
0000
0001
0000
0000
0010
0100
0000
,
1000
0001
0100
0010
,
1000
0000
1000
0001
,
0100
0000
0100
0001
,
0010
0000
0010
0001
,
0100
0000
0010
1000
,
0100
0000
0100
0000
,
0010
0000
0010
0000
,
0001
0001
1000
1000
,
0001
0100
0010
0000
1000
0010
0100
0000
,
0001
0000
0100
0000
0000
0010
1000
0000
,
0100
0000
0010
0000
0000
0001
0010
0000
,
0100
0000
1000
0000
0000
0001
0100
0000
,
0010
1000
0001
0100
0001
0000
1000
0000
,
0001
0000
0010
0000
0000
0100
1000
0000
,
0001
0000
0100
0000
0000
0010
1000
0000
,
0001
0000
1000
0000
0000
0100
1000
0000
,
0001
0010
0001
1001
,
0001
0100
0001
1000
,
0100
0010
0001
1000
,
0010
0100
0001
0010
,
0100
1000
0000
0001
0100
0000
0001
0000
,
1000
0100
0010
0010
,
0001
1000
0010
0010
,
0100
0000
0001
0000
0000
1000
0100
0000
,
0010
0001
1000
0001
0100
0000
0020
0000
,
2000
0000
0000
3030
,
1000
0000
0100
0010
0000
0001
0010
0000
,
0100
1000
0000
0001
0010
0000
0000
0000
,
0001
0000
0010
0100
0000
1000
0001
0000
,
0010
0002
0000
0000
0000
0000
0000
0003
,
1000
0000
0010
0100
0000
0001
0100
0000
,
0010
1000
0000
0100
0020
0000
0000
0000
,
0031
0000
0001
0010
0000
0010
0100
0000
,
0100
2000
0000
0000
0000
0000
0000
0000
,
3001
0001
0100
0100
,
0010
1000
0010
0100
,
0001
1000
0100
0010
,
0001
1000
0001
0100
0010
0000
1000
0000
,
0001
0100
0010
1000
,
0100
0000
0010
0000
0001
1000
0001
0000
,
0100
0010
1000
0100
,
0010
0001
0010
0001
1000
0000
0001
0000
,
0100
0000
0010
1000
0000
0001
0100
0000
,
0010
1000
0000
0001
0100
0000
0000
0000
,
0001
1000
0100
0010
,
0001
1000
0000
0001
0100
0000
0010
0000
,
1000
0000
0010
0100
0000
0001
0100
0000
,
0010
1000
0000
0001
0100
0000
0001
0000
,
1000
0000
0100
0010
0000
0001
0010
0000
,
0100
1000
0001
0100
0010
0000
1001
0000
;

//---------------dance-single - Renard----------------
#NOTES:
     dance-single:
     Renard:
     Easy:
     2:
     0.251,0.294,0.170,0.207,0.000: // measure 1
0000
0000
0000
0000
,  // measure 2
0000
0000
0000
0000
,  // measure 3
0000
0000
0000
0000
,  // measure 4
0000
0000
0000
0000
,  // measure 5
1000
0000
1000
0001
,  // measure 6
0100
0000
0001
0010
,  // measure 7
0100
0010
0001
1000
,  // measure 8
0001
0100
0010
1000
,  // measure 9
0002
0000
0203
0000
,  // measure 10
0002
0000
0000
0300
,  // measure 11
2000
0003
0200
3000
,  // measure 12
0020
0000
0000
0300
,  // measure 13
0002
0030
2000
0003
,  // measure 14
0002
0000
0000
3000
,  // measure 15
0203
0000
0320
0000
,  // measure 16
1030
0100
0010
0001
,  // measure 17
1000
0000
0101
0000
,  // measure 18
1000
0000
0011
0000
,  // measure 19
0001
0000
1100
0000
,  // measure 20
0001
0100
0010
1000
,  // measure 21
0001
0000
1010
0000
,  // measure 22
0001
0000
1100
0000
,  // measure 23
1000
0000
0011
0000
,  // measure 24
1000
0001
0100
0010
,  // measure 25
1000
0110
0000
0110
,  // measure 26
0000
0110
0000
0110
,  // measure 27
0001
0110
0000
0110
,  // measure 28
0000
0110
0000
0110
,  // measure 29
1000
0100
0010
0000
,  // measure 30
0001
0010
0100
0000
,  // measure 31
1000
0110
0000
0110
,  // measure 32
0001
0110
0000
0110
,  // measure 33
0020
0000
0000
0030
,  // measure 34
1000
0000
0100
0000
,  // measure 35
0010
0000
0001
0000
,  // measure 36
0100
0000
0010
0000
,  // measure 37
2000
0000
0100
0100
,  // measure 38
3010
0000
0001
0000
,  // measure 39
0010
0000
0100
0000
,  // measure 40
1000
0000
0010
0000
,  // measure 41
0100
0001
0100
0010
,  // measure 42
2000
0000
3001
0100
,  // measure 43
0020
0000
1030
0100
,  // measure 44
0020
0000
0031
1000
,  // measure 45
0001
0100
0010
1000
,  // measure 46
0200
0000
0310
0001
,  // measure 47
2000
0000
3001
0100
,  // measure 48
0020
0000
1030
0100
,  // measure 49
0010
0001
0010
0100
,  // measure 50
1000
0100
0010
0001
,  // measure 51
1000
0010
0200
0000
,  // measure 52
0301
0010
0100
1000
,  // measure 53
0010
0100
0002
0000
,  // measure 54
1003
0100
0010
0001
,  // measure 55
1000
0010
0200
0000
,  // measure 56
0301
1000
0100
0010
,  // measure 57
0001
1000
0001
0100
;
