#TITLE:Duel;
#SUBTITLE:;
#ARTIST:Bond;
#TITLETRANSLIT:;
#SUBTITLETRANSLIT:;
#ARTISTTRANSLIT:;
#CREDIT:;
#BANNER:duel.png;
#BACKGROUND:duel-bg.png;
#LYRICSPATH:;
#CDTITLE:;
#MUSIC:duel.ogg;
#OFFSET:0.000;
#SAMPLESTART:40.836;
#SAMPLELENGTH:12.000;
#SELECTABLE:YES;
#BPMS:0.000=123.000;
#STOPS:;
#BGCHANGES:;

//---------------dance-single - Renard----------------
#NOTES:
     dance-single:
     Renard:
     Hard:
     11:
     0.774,0.879,0.551,0.097,0.764:
0000
0000
0000
0000
,
0000
0000
0000
0000
,
0000
2000
3020
0230
,
0302
0000
0023
0000
,
0130
1000
1010
0000
0001
0100
0101
0000
,
0001
0010
0011
0000
1000
0100
1100
0000
,
1000
0010
1010
0010
0100
0001
0101
0001
,
0010
0001
0011
0010
0100
0010
0110
0100
,
1000
0010
0100
0001
0100
0010
1000
1000
,
0010
0100
0100
0001
0010
0100
1000
0000
,
0001
0010
0001
0010
0001
0000
0010
0001
0010
0000
0000
0000
0001
0010
0001
0010
,
0001
0000
0000
0000
0010
0001
0010
0001
0010
0000
0000
0000
0011
0000
0000
0000
,
1000
0100
1000
0100
1000
0000
0100
1000
0100
0000
0000
0000
1000
0100
1000
0100
,
1000
0000
0000
0000
0100
1000
0100
1000
0100
0000
0000
0000
1100
0000
0000
0000
,
0010
0100
0010
0100
0010
0100
0010
0000
1000
0001
1000
0000
0001
1000
0001
1000
,
0001
0000
0000
0000
0000
0000
1000
0000
0000
0001
0000
0000
1000
0000
0000
0001
0000
0000
1000
0000
0000
0000
0000
0000
0010
0000
0000
0100
0000
0000
0010
0000
0000
0100
0000
0000
0010
0000
0000
0000
0000
0000
1000
0000
0010
0000
1000
0000
,
0010
0000
0000
0010
0000
0000
0100
0000
0000
0100
0000
0000
0001
0000
0000
0001
0000
0000
0010
0000
0000
0010
0100
0010
,
0100
0000
0000
0100
0000
0000
1000
0000
0000
1000
0000
0000
0010
0000
0000
0010
0000
0000
0100
0000
0000
0001
0100
0001
,
0100
0100
0110
0010
1010
1000
1001
0001
,
0101
0100
0110
0010
2010
0000
0000
0000
,
3100
0200
0010
0020
0331
0002
0020
0133
,
0100
1000
0100
1000
0100
0000
1000
0100
1000
0000
0001
0010
0001
1000
0010
0100
,
0001
0000
0000
0000
0100
0010
1000
0001
0100
0000
0010
1000
0100
0010
0001
0000
,
0010
0100
1000
0001
0010
0001
0010
0001
0010
0000
0000
0000
0001
0010
0001
0010
,
0001
0000
1000
0100
1000
0100
1000
0000
0010
1000
0010
1000
0010
0000
0100
0000
,
0001
1000
0001
1000
0100
0010
0001
0000
0010
0100
1000
0000
0010
0100
0001
0100
,
0010
0000
1000
0001
0100
0010
1000
0000
0001
0100
0010
1000
0001
0000
1000
0100
,
0010
0001
0011
0010
0110
0100
1100
1000
,
1010
0010
0110
0100
0101
0001
0011
0010
,
0011
0010
0110
0010
0110
0010
1010
0010
,
0110
0010
1010
0010
1010
0010
0011
0001
,
0101
0000
0010
0000
1000
0000
0010
0000
0100
0001
0010
0100
1000
0010
0100
0001
,
0100
0000
0110
0000
1010
0000
1001
0000
0110
0000
0001
1000
0100
0010
0001
0010
,
0100
0000
0110
0000
1100
0000
1010
0000
0101
0000
0001
0100
0010
1000
0001
0010
,
0100
0000
0110
0000
0011
0000
1001
0000
1010
0000
0001
0100
0010
1000
0001
0010
,
0100
0000
0011
0000
0110
0000
1100
0000
1001
0000
0000
0000
0110
0000
0000
0010
,
1000
0001
0100
0000
0010
0000
1000
0000
0100
0000
0000
0000
0110
0000
0000
0100
,
1000
0010
0100
0000
0101
0000
0000
0010
1000
0000
0000
0000
0110
0000
0000
0100
,
1000
0010
0100
0000
0101
0000
0000
0010
1000
0000
0100
0000
0011
0000
0000
0000
,
1100
0000
0000
0000
0000
0000
0000
0000
0001
0010
0100
1000
0010
0100
0001
0100
,
0010
0000
1000
0000
0001
0000
0100
0000
0010
0000
1000
0000
0001
0000
1000
0001
1000
0000
0010
0000
0100
0000
0001
0000
0010
0000
0100
0000
1000
0000
0010
0000
,
0100
0000
0001
0000
1000
0000
0100
0000
0010
0000
0001
0000
0010
0000
0001
0010
0001
0000
0010
0000
0100
0000
1000
0000
0010
0000
0100
0000
0001
0000
1000
0000
,
0100
0000
0010
0000
0001
0000
1000
0000
0001
0000
1000
0000
0001
0000
1000
0010
1000
0000
0001
0000
1000
0000
0010
0000
0100
0000
0001
0000
0010
0000
0100
0000
,
1000
0000
0010
0000
0100
0000
0001
0000
1000
0000
0001
0000
1000
0000
0001
1000
0001
0000
1000
0000
0010
0000
0100
0000
0001
0000
0010
0000
0100
0000
1000
0001
,
1000
0000
0001
0000
1000
0000
0010
0000
0100
0000
0001
0000
0010
0000
0001
0010
0001
0000
0010
0000
0100
0000
1000
0000
0010
0000
0100
0000
0001
0000
0100
0001
,
0100
0000
0010
0000
1000
0000
0001
0000
0010
0000
0100
0000
1000
0010
1000
0000
0010
0000
1000
0000
0001
0000
0100
0000
0010
0000
1000
0000
0001
0000
0010
0000
,
0100
0000
1000
0000
0010
0000
0100
0000
0001
0000
1000
0000
0001
1000
0001
0000
1000
0000
0010
0000
0100
0000
0001
0000
0010
0000
0100
0000
0010
0000
0100
0010
,
0100
0000
1000
0000
0010
0000
0100
0000
0001
0000
0100
0001
0100
0000
0001
0100
0001
0000
0000
0000
0001
0000
0000
0000
0001
0000
0000
0000
0001
0000
0000
0000
,
0001
0001
0001
0001
1111
0000
0000
0000
,
0000
0000
0000
0000
,
0000
0000
0110
0000
;

//---------------dance-single - Team Fuego----------------
#NOTES:
     dance-single:
     Team Fuego:
     Challenge:
     14:
     1.000,1.000,1.000,0.967,0.967:
0000
0000
0000
0000
,
0000
0000
0000
0000
,
0000
0000
0000
0000
,
0000
0000
0000
0000
,
0000
0000
0001
0010
0100
1000
0100
0010
0002
0000
0100
0000
0010
0000
1000
0000
,
0103
0000
0010
1000
0010
0100
0001
0010
0200
0000
0001
0000
0010
0000
1300
0000
,
2200
0011
00MM
3300
0202
1010
M0M0
0303
,
2200
0011
0311
00MM
0002
0110
3113
MMMM
,
0001
0000
0000
1000
0100
1000
0100
0000
0000
0010
0001
0010
0001
0000
0000
0010
0000
0000
0000
0000
0000
1100
0000
0000
,
0001
0000
0000
1000
0100
1000
0100
0000
0000
0010
0001
0010
0001
0000
0000
1000
0000
0000
0000
0000
0000
0101
0000
0000
,
0010
0000
1000
0000
0001
0100
0001
0000
0100
0000
0010
0000
1000
0000
0001
1000
0001
0000
0000
0000
0000
0000
0000
0000
0100
0000
0010
0000
1000
0000
0001
0000
,
0100
0000
0000
0000
0000
0000
0000
0000
0010
0000
1000
0001
1000
0000
0001
0000
0100
0000
0000
0000
0010
0000
1000
0000
0001
0000
0100
0000
0010
0000
0010
0000
,
1000
0000
0100
0000
0010
0000
0001
0000
0010
0000
0100
0000
1000
0000
0000
0000
0000
0000
0001
0000
0000
0010
0000
0000
0100
0000
0000
0000
0000
0000
0000
0000
0000
0000
0000
0000
1000
0000
0000
0100
0000
0000
0010
0000
0000
0001
0000
0000
,
0011
0000
0100
1000
0010
1000
1010
0000
0001
0100
0010
1000
1010
0100
0011
0000
,
0011
0010
0110
0100
1100
1000
1001
0000
0001
0010
1000
0000
0011
0010
0110
0100
,
1100
0000
0000
0000
0000
0000
2000
0000
0000
3020
0000
0000
0032
0000
0000
2003
0000
0000
3200
0000
0000
0000
0000
0000
0320
0000
0000
2030
0000
0000
3200
0000
0000
0302
0000
0000
0023
0000
0000
0000
0000
0000
0130
0000
1000
0000
0100
0000
,
2000
0000
0000
0000
0110
0000
0000
0000
0101
0000
0000
0000
3110
0000
1000
0100
0020
0000
0000
0000
0002
0000
0000
0000
0100
0000
0000
0000
1000
0000
0000
0000
,
1133
0000
0000
0000
0110
0000
0000
0000
22MM
0000
0000
0000
0022
0000
3300
0000
2200
0000
0033
0000
0022
0000
3300
0000
2200
0000
0000
0000
3333
0000
0001
1000
,
0100
0001
0000
0000
0000
0000
0000
0000
1000
0010
0000
0000
0000
0000
0000
0000
0100
0001
0000
0000
0000
0000
0000
0000
0010
0100
0000
0000
0000
0000
0000
0000
1000
0010
0000
0000
0000
0000
0000
0000
0100
0001
0000
0000
0000
0000
0000
0000
1000
0100
0000
0000
0000
0000
0000
0000
0010
0001
0000
0000
0000
0000
0000
0000
,
2000
0200
0020
3331
2222
0000
0000
3333
,
1MMM
0000
0000
1000
0000
0000
0100
0000
0000
0100
0000
0000
0010
0000
0000
0010
0000
0000
0001
0000
0000
0001
0000
0000
1000
0000
0000
0000
0000
0000
0001
0000
0010
0000
0100
0000
1000
0000
0100
0000
0010
0000
0001
0000
0010
0000
0100
0000
,
10M0
0100
010M
1000
01M0
1000
100M
0100
10M0
0100
010M
1000
01M0
1000
010M
0100
,
10M0
0100
100M
1000
01M0
1000
010M
0100
10MM
0100
10MM
1000
01MM
1000
0100
0000
,
M010
0020
0M01
0032
M010
0023
0M01
0001
M032
0010
0M13
0002
M023
0032
0M23
0032
,
M010
0023
0M32
0023
M032
0023
0M32
0013
MM20
0032
MM23
0031
MM10
0002
0013
0000
,
10M0
0100
100M
0100
10MM
0200
2000
0000
0001
0020
3002
0300
1000
0100
1000
0200
,
2003
0000
0000
0030
0000
0000
0001
0000
0000
0010
0000
0000
0001
0000
0000
0020
0000
0000
3002
0000
0000
0300
0000
0000
1000
0000
0000
0100
0000
0000
1000
0000
0000
0100
0000
0000
1000
0000
0000
0000
0000
0000
1000
0000
0100
0033
1000
0000
,
2200
0000
0011
3300
0022
0000
1100
0033
2200
0000
0011
3300
0022
0000
1100
0033
,
1100
0000
0101
0000
0011
0000
1010
0000
1100
0000
1010
0100
0011
0000
0101
0000
,
1100
0000
0101
0000
0011
0000
1010
0000
1100
0010
0101
0000
0011
0000
1010
0000
,
1100
0000
0101
0010
1100
0000
1010
0100
0022
0000
0133
0000
2020
0000
3031
0000
,
2200
0000
3310
0000
0202
0000
1303
0000
0010
1000
0001
0001
0011
0100
1000
1000
,
1010
0000
1011
0000
1101
0000
1011
0000
1001
0001
0100
0100
0010
0010
1010
0010
,
0110
0000
0111
0000
1101
0000
0111
0000
1001
1000
0100
0100
1000
1000
1010
0010
,
0110
0000
0111
0000
1110
0000
1011
0000
1000
0100
0010
0010
0100
0100
0101
0110
,
2200
0302
0023
0130
3111
0000
1111
0000
,
0001
1111
0000
1000
0000
0000
1111
0000
,
1000
1111
0000
0001
0000
0000
1111
0000
,
0010
1111
0000
0100
0000
0000
1111
0000
,
0100
0000
1111
0000
1000
0001
1000
0001
0100
0010
1000
0010
0001
0010
0100
1000
,
0100
0001
0100
0010
0100
1000
0100
0010
0001
0010
1000
0010
0100
0001
0100
0010
,
1000
0100
0001
0100
0010
0001
0010
1000
0010
0100
1000
0100
0001
0100
0010
0001
,
0010
1000
0010
0100
0001
0100
1000
0010
0001
0010
0100
1000
0100
0001
0100
0010
,
0100
0000
0000
0001
0000
0000
1000
0000
0000
0100
0000
0000
0010
0000
0000
0001
0000
0000
1000
0000
0000
0001
0000
0000
0010
0000
0000
0000
0000
0000
0001
0000
0010
0000
1000
0000
0010
0000
0000
0000
0000
0000
0100
0000
1000
0000
0100
0000
,
0001
0000
0000
0100
1000
0010
1000
0000
0000
0010
0100
0001
0100
0000
0000
0010
1000
0010
0001
0000
0000
0010
0100
0001
,
0100
0000
0000
0010
1000
0100
0010
0000
0000
0000
0000
0000
0020
0000
0000
0200
0000
0000
2000
0000
0000
0302
0000
0000
,
3230
0010
2300
0203
3020
0002
0330
0220
,
2303
0032
0200
3313
1101
1011
1101
1011
,
1101
0000
1011
0000
0100
0000
0110
0110
1111
0000
0000
0000
0000
0000
0000
0000
,
0000
0000
0000
0000
0000
0000
0000
0000
0000
0000
0000
0000
1000
0001
1000
0001
1000
0001
1000
0001
1000
0001
1000
0001
,
1000
0001
1000
0001
1000
0001
1000
0001
1000
0000
0000
0000
0110
0000
0110
0000
1111
0000
0000
0000
0000
0000
0000
0000
0000
0000
0000
0000
0000
0000
0000
0000
;

//---------------dance-single - Renard----------------
#NOTES:
     dance-single:
     Renard:
     Medium:
     8:
     0.480,0.562,0.048,0.010,0.184:
0000
0000
0000
0000
,
0000
0000
0000
0000
,
0000
0000
0000
0000
,
0000
0000
0000
0000
,
0000
0000
1000
0100
1000
0000
0001
0000
0010
0000
0000
0000
0000
0000
0000
0000
,
0000
0000
0001
0100
0001
0000
0100
0000
0010
0000
0000
0000
1000
0000
0000
0000
,
0100
0100
0010
0000
0001
0001
1000
0000
,
0010
0100
0001
0010
0100
1000
0001
1000
,
0010
0100
0001
0000
0100
0010
0000
1000
,
0000
0001
0100
0000
0010
1000
0000
0100
,
1000
0000
0100
1000
0100
0000
1000
0001
1000
0000
0000
0000
0001
0000
0100
0000
,
0010
0000
0000
0000
1000
0001
1000
0000
0010
0000
0000
0000
0100
0000
0000
0000
,
0001
0010
0001
0000
0010
0000
0100
0000
1000
0000
0000
0000
0001
1000
0001
0000
,
1000
0000
0000
0000
0010
1000
0010
0000
1000
0000
0000
0000
0001
0000
0000
0000
,
0100
0001
0100
0001
0100
0000
0000
0001
1000
0000
0000
0100
1000
0000
0000
0001
,
0010
0000
0000
0000
0001
0000
1000
0000
0010
1000
0010
1000
0010
0000
1000
0000
,
0001
0001
0100
0010
1000
0000
0100
0000
,
0010
0001
0010
0010
0100
0000
1000
0000
,
0001
0100
0010
1000
0100
0010
0001
0100
,
0010
1000
0100
0010
0002
0000
1000
0000
,
0103
0010
1000
0100
0010
0000
0000
0000
,
0001
0010
0001
0010
0001
0000
0010
0001
0010
0000
0000
0000
0001
0000
0010
0000
,
0100
1000
0100
0000
,
1000
0100
1000
0100
1000
0000
0001
0010
0001
0000
0000
0000
1000
0001
1000
0001
,
1000
0000
0010
0100
0001
1000
0100
0000
,
1000
0001
0010
0001
1000
0010
1000
0001
,
0100
0000
0001
1000
0100
0010
0001
1000
,
0001
0100
0010
1000
0100
0010
0001
0100
,
0010
1000
0100
0010
0001
0100
0010
1000
,
0010
0100
0001
0010
0100
1000
0010
0100
,
0010
1000
0100
0010
0001
0100
0010
1000
,
0001
0100
0010
1000
0100
0010
0001
0010
,
0100
1000
0010
0100
0001
0010
0001
1000
,
0010
0100
0001
0010
0100
1000
0001
0100
,
0010
0000
1000
0000
0100
0000
0010
0000
0001
0000
1000
0000
0010
0000
1000
0001
,
1000
0001
0100
0010
1000
0100
0010
0000
,
0001
0010
0000
0110
0000
0100
1000
0000
,
0010
0100
0000
0101
0000
0001
1000
0000
,
0100
0010
0000
1001
0000
0001
0100
0000
,
0010
0000
1000
0000
0100
0000
0010
0000
0001
0000
0010
0001
0010
0000
0100
0000
,
1000
0000
0001
0000
0100
0000
0010
0000
1000
0000
0100
1000
0100
0000
1000
0000
,
0001
0000
0010
0000
0100
0000
1000
0000
0001
0000
0100
0001
0100
0000
0001
0000
,
0100
0000
0010
0000
1000
0000
0100
0000
0010
0000
0001
0010
0001
0000
0010
0000
,
0100
0000
1000
0000
0001
0000
0100
0000
0010
0000
1000
0100
1000
0000
0001
0000
,
0010
0000
0001
0000
1000
0000
0001
0000
0100
0000
0010
0100
0010
0000
1000
0000
,
0100
0000
0010
0000
0001
0000
1000
0000
0001
0000
0100
0001
0100
0000
0010
0100
,
0010
0000
1000
0010
1000
0000
0100
1000
0100
0000
1000
0001
0010
0000
0001
0010
,
0001
0000
0010
0100
0010
0000
0100
1000
0001
0000
0100
0000
0010
0000
1000
0000
,
0100
0010
0001
1000
0110
0000
0000
0000
,
0000
0000
0000
0000
,
0000
0000
1001
0000
;

//---------------dance-single - Renard----------------
#NOTES:
     dance-single:
     Renard:
     Easy:
     6:
     0.391,0.415,0.048,0.029,0.000: // measure 1
0000
0000
0000
0000
,  // measure 2
0000
0000
0000
0000
,  // measure 3
0000
0000
0000
0000
,  // measure 4
0000
0000
0000
0000
,  // measure 5
0000
1000
0001
0100
0001
0000
0000
0000
,  // measure 6
0000
1000
0001
0010
0001
0000
0000
0000
,  // measure 7
1000
1000
0000
0000
0001
0001
0000
0000
,  // measure 8
0100
0100
0000
0000
0010
1000
0010
1000
,  // measure 9
0001
0100
0020
0000
,  // measure 10
1030
0100
0020
0000
,  // measure 11
0031
0010
0100
1000
0100
0000
0010
0100
,  // measure 12
1000
0000
0001
0010
0100
0000
0000
0000
,  // measure 13
0100
1000
0010
0100
0001
0000
0100
0010
,  // measure 14
1000
0000
0001
0100
0010
1000
0100
1000
,  // measure 15
0001
0010
0001
0010
0001
0010
0100
1000
,  // measure 16
0001
0000
1000
0010
0100
0001
0100
0010
,  // measure 17
1000
1000
1000
1000
1000
0000
0000
0000
,  // measure 18
0001
0001
0001
0001
0001
0000
0000
0000
,  // measure 19
0100
0100
0100
0100
0001
0001
0001
0001
,  // measure 20
1000
1000
1000
1000
0100
0000
0010
0000
,  // measure 21
0001
1000
0001
1000
0001
0100
0010
0100
,  // measure 22
0010
1000
0001
0100
0001
0000
1000
0100
,  // measure 23
0010
0000
0001
0010
0100
1000
0001
1000
,  // measure 24
0001
0100
0010
1000
0001
0000
0100
0001
,  // measure 25
1000
0000
0100
0010
0001
1000
0100
1000
,  // measure 26
0001
0100
0001
1000
0001
0100
0010
1000
,  // measure 27
0001
0000
1000
0100
1000
0001
0010
0001
,  // measure 28
1000
0000
0001
1000
0001
0000
0100
0000
,  // measure 29
0010
0000
1000
0001
1000
0000
0010
0000
,  // measure 30
0100
0001
0010
0100
1000
0001
0100
0010
,  // measure 31
1000
0100
0010
0001
1000
0000
0001
0000
,  // measure 32
0100
0000
0010
1000
0001
0000
0100
0000
,  // measure 33
0010
1000
0100
0010
0001
0000
1000
0000
,  // measure 34
0001
0100
0010
1000
0100
0000
0010
0000
,  // measure 35
0001
0010
0100
1000
0001
0000
0100
0000
,  // measure 36
0010
1000
0100
0010
0001
0000
0010
0000
,  // measure 37
0100
1000
0000
1001
0000
0000
0001
0000
,  // measure 38
0100
0010
0000
1001
0000
0000
1000
0000
,  // measure 39
0100
0010
0000
0011
0000
0000
0010
0000
,  // measure 40
0100
1000
0001
0100
0010
1000
0100
0010
,  // measure 41
0001
0100
0010
1000
0100
0010
0001
0010
,  // measure 42
0100
1000
0001
0100
0010
1000
0100
0010
,  // measure 43
0001
1000
0100
1000
0001
0010
0001
1000
,  // measure 44
0010
1000
0001
0100
0001
0010
0100
1000
,  // measure 45
0010
0100
0001
0010
0100
1000
0010
0100
,  // measure 46
0001
0010
0100
1000
0100
0010
0001
0100
,  // measure 47
0010
1000
0100
1000
0001
0010
0001
1000
,  // measure 48
0010
1000
0001
0100
0020
0000
0000
0000
,  // measure 49
0000
0000
0000
0030
1001
0000
0000
0000
,  // measure 50
0000
0000
0000
0000
,  // measure 51
0000
0000
0110
0000
;
