#TITLE:Dropzone;
#SUBTITLE:;
#ARTIST:Darren Styles;
#TITLETRANSLIT:;
#SUBTITLETRANSLIT:;
#ARTISTTRANSLIT:;
#CREDIT:;
#BANNER:dropzone.png;
#BACKGROUND:dropzone-bg.png;
#LYRICSPATH:;
#CDTITLE:;
#MUSIC:dropzone.ogg;
#OFFSET:0.000;
#SAMPLESTART:43.886;
#SAMPLELENGTH:12.000;
#SELECTABLE:YES;
#BPMS:0.000=175.000;
#STOPS:;
#BGCHANGES:;

//---------------dance-single - Ryvard----------------
#NOTES:
     dance-single:
     Ryvard:
     Challenge:
     9:
     0.535,0.707,0.420,0.343,0.028:
0000
0000
0000
0000
,
0000
0000
0000
0000
,
0000
0000
0000
0000
,
0000
0000
0000
0000
,
0000
0000
0000
0000
,
0000
0001
0000
0001
0100
0000
0001
0100
,
0001
0001
0000
0001
0000
0000
0000
0000
,
0000
0010
0000
1000
2020
0000
0000
3030
,
0001
1000
0100
0010
0100
0010
1000
0000
,
0001
0100
1000
0010
1000
0100
0000
0000
,
1000
0001
0000
1000
0001
0001
0000
0001
,
0000
0010
0100
0010
1000
0001
0000
1000
,
0001
0001
0000
0001
0100
0010
0000
0010
,
0000
1000
0010
1000
0010
1010
0000
0001
,
0201
0000
0010
0000
1000
0300
0101
0000
1000
0000
0100
0000
,
0101
0000
0000
0000
0000
0000
0000
0000
0022
0000
0000
0000
2200
0000
0000
0030
,
0020
0000
0000
0000
,
0000
0000
0000
0000
0000
0000
0300
0030
,
0003
0000
0000
0000
,
0000
0000
0000
0200
,
0020
0000
0000
0000
,
0000
0000
0000
0000
0000
0000
0000
0000
0000
0000
0000
0000
3002
0030
0020
0300
,
0200
0000
0000
0000
0000
0000
2000
0000
0000
0000
0000
0000
0000
0000
0000
3000
,
0003
0030
0300
0000
0000
0000
0000
0000
0000
0000
0000
0000
2020
0000
0000
0000
,
0202
0000
0000
0000
,
0000
0000
0000
0000
0000
0000
0000
0000
0000
3000
2000
0030
0020
0003
0002
0300
,
0100
0000
0000
0000
,
0000
0000
0000
0000
0000
0000
0000
0000
0000
0000
0000
0000
0000
0000
0000
0030
,
0200
0000
0000
0000
,
0000
0000
0000
0000
0000
0000
0000
0000
0000
0000
0000
0000
0000
0000
0000
0003
,
0020
0000
0000
0000
,
3330
0000
0000
0000
0000
0000
0000
0000
0011
0000
0000
0000
,
1000
0010
0100
0001
0010
0100
1000
0000
,
0001
0100
1000
0001
0010
1000
0001
0000
,
0010
0010
0110
0100
0101
0001
1001
1000
,
1100
0000
0010
0100
0001
0010
0100
0001
,
0100
1000
0001
0010
0001
0100
0010
0000
,
0001
1000
0010
0100
0010
0000
1001
0000
,
0010
0100
0010
1000
0001
1000
0001
0000
,
0101
0000
1010
0000
0202
0000
1010
0303
,
0000
0000
0001
1000
0010
0100
0001
0000
,
0001
1000
0100
1000
0001
1000
0010
0000
,
0001
0100
0010
0100
1000
0100
0001
0100
,
0010
0000
0001
0010
0100
1000
1000
0000
,
0110
0000
1000
0100
0010
0001
0001
0000
,
0110
0010
0100
0010
0100
0000
0010
0010
,
0110
0000
0100
0100
0110
0000
1000
0001
,
1000
0001
0100
0010
1000
0000
0101
0000
,
1010
0000
0001
0100
0010
1000
0100
0001
,
0100
0000
1000
0100
0001
0100
0000
0001
,
1000
0001
0000
0100
0010
1000
0000
0001
,
0100
0010
0000
0010
1000
0001
0100
0000
,
0001
0010
0001
0100
1000
0100
0001
0000
,
0001
0100
0010
0000
0010
1000
0001
0000
,
0001
0100
0010
1000
0100
0100
0010
0000
,
1000
0100
0000
0001
0100
0000
1100
0000
,
0011
0000
0010
0001
0010
0001
1000
0000
,
1010
0110
0000
0110
0101
0000
1001
0000
,
0010
0100
1000
0100
0010
0001
0001
0000
,
1000
0000
0001
1000
0000
0001
1000
0000
,
0001
0100
1000
0100
,
2020
0000
3030
0202
0000
0303
1010
0000
,
0001
1000
0001
1000
0001
1000
0001
1000
,
0001
0000
1000
0000
2002
0000
0110
3003
,
1001
0000
0000
0000
;

//---------------dance-single - Renard----------------
#NOTES:
     dance-single:
     Renard:
     Hard:
     9:
     0.548,0.743,0.055,0.719,0.011:
0000
0000
0000
0000
,
0000
0000
0000
0000
,
0000
0000
0000
0000
,
0000
0000
0000
0000
,
1001
0000
0000
1001
0000
0000
0000
0000
,
0000
0000
0001
0000
0000
0000
0001
0000
1000
0000
0000
1000
0000
0000
1000
0000
,
0010
0000
0000
0010
0000
0000
0100
0000
0000
0000
0000
0000
0000
0000
0000
0000
,
0000
0001
0000
0002
2000
0000
0000
3003
,
0001
0100
0001
0100
0010
0100
0010
0100
,
1000
0100
1000
0100
0010
0100
0010
0100
,
0001
1000
0001
1000
0100
1000
0100
1000
,
0100
0010
0100
0010
0100
0001
0100
0001
,
0100
1000
0100
1000
0001
1000
0001
1000
,
0001
0100
0001
0100
1000
0100
1000
0100
,
0001
0010
0001
0010
0100
0010
0100
0010
,
0200
0000
0000
0000
,
2300
0000
0000
0000
,
0000
0000
0000
0000
0000
3010
0100
0002
,
0000
0023
0000
0000
0000
0000
0000
0000
,
0000
0000
0000
0230
,
2300
0000
0000
0000
,
0000
0000
0000
0000
0000
3010
0100
0002
,
0000
0023
0000
0230
0000
0000
0000
0000
,
0000
0000
0000
2300
,
3020
0000
0000
0000
,
0000
0000
0000
0000
0000
0130
0001
0020
,
0000
0230
0000
0000
0000
0000
0000
0000
,
0000
0000
0000
0000
0000
1300
0001
0020
,
0000
0000
0000
0000
,
0000
0000
0000
0000
0000
0230
0000
0000
,
2300
0000
0000
0000
,
0000
0000
0000
0000
0000
3002
0000
0000
,
2003
0000
0001
0000
0100
0000
0010
0010
,
0010
0000
0100
3000
1000
0010
0100
0002
,
0010
0023
0001
0000
0100
0000
1000
0000
,
0100
0000
0001
0001
0100
0000
0230
0000
,
2300
0000
0001
0000
0010
0000
0001
0001
,
0001
0000
0100
3000
1000
0010
0100
0002
,
1000
0023
1000
0230
1000
0000
1000
0000
,
0010
0000
0001
0000
1000
0000
2300
0010
,
3020
1000
1000
0000
0100
0000
0001
0000
,
0100
0000
0001
0030
0010
0100
0001
0020
,
0100
0230
0010
0000
1000
0000
0301
0000
,
1100
0000
1010
0000
0100
1000
0001
0020
,
0001
0100
1000
0100
,
0001
0000
1000
0030
0010
0200
0001
0000
,
2300
0001
0100
0100
,
0001
0000
0010
0000
0001
3002
1000
1003
,
0001
0100
2000
0000
3100
0020
0000
1030
,
0020
0000
0031
0020
0000
1030
0020
0000
,
0130
0001
0200
0000
1300
0200
0000
0301
,
0200
0000
0310
0002
0000
0013
2000
0000
,
3010
0100
0002
0000
0013
0200
0000
0310
,
2000
0000
3010
0002
0000
0013
2000
0000
,
3001
0100
2000
0000
3001
0010
2000
0000
,
3001
0100
2000
3020
0032
0023
0230
0000
,
0301
0100
2000
0000
3000
0200
0000
0310
,
2000
0000
3010
0002
0000
0013
0200
0000
,
0301
0100
2000
0000
3100
0002
0000
0013
,
0100
1000
0100
0002
0000
0003
0100
0000
,
1000
0010
0001
0010
0100
1000
0100
0001
,
0010
0100
1000
0100
0001
1000
0010
0001
,
1000
0100
0001
0100
0010
0001
0010
1000
,
0001
0100
0010
0001
0100
1000
0100
0000
,
1001
0000
0000
0000
;

//---------------dance-single - Renard----------------
#NOTES:
     dance-single:
     Renard:
     Medium:
     5:
     0.268,0.354,0.011,0.210,0.000:
0000
0000
0000
0000
,
0000
0000
0000
0000
,
0000
0000
0000
0000
,
0000
0000
0000
0000
,
0000
0000
0000
0000
,
0000
0000
0000
0000
,
0000
0000
0000
0000
,
0000
0000
0000
0000
,
1000
0001
0100
0001
,
1000
0001
0010
0001
,
0010
0100
1000
0001
,
0100
0010
1000
0100
,
0010
0001
0100
0010
,
1000
0100
0010
0001
,
0010
0100
1000
0001
,
0200
0000
0000
0000
,
0320
0000
0000
0000
,
0000
0000
0000
2030
,
3200
0000
0000
0000
,
0000
0000
0000
0320
,
0032
0000
0000
0000
,
0000
0000
0000
2003
,
3020
0000
0230
0000
,
0000
0000
0000
0302
,
0023
0000
0000
0000
,
0000
0000
0000
0230
,
2300
0000
0000
0000
,
0000
0000
3002
0203
,
0320
0000
0000
0000
,
0000
0000
0000
2030
,
3200
0000
0000
0000
,
0000
0000
0000
0000
0000
0320
0000
0000
,
0031
1000
0001
0100
,
0010
0000
1000
0000
0001
1000
0001
1000
,
0000
0001
0000
0000
0000
0000
0100
0000
,
0000
0010
0000
1000
,
0100
0010
0100
0010
,
0001
0000
1000
0000
0001
0100
0001
0100
,
0000
0010
0000
1000
0000
0000
0000
0000
,
0001
0000
0100
0010
,
1000
0000
0100
0000
,
0010
0000
0000
0000
0001
1000
0010
1000
,
0000
0001
0000
0000
0100
0000
0000
0000
,
0001
0010
0100
1000
,
0001
0000
0001
0100
,
0010
0000
0010
1000
,
0100
0010
0001
1000
,
0001
0000
0000
0000
0000
0100
0000
0000
,
0010
0000
1000
0000
0000
0001
0000
0000
,
0100
0000
0000
0001
0000
0000
0010
0000
,
0100
0000
1000
0000
0000
0001
0000
0000
,
0100
0000
0000
0010
0000
0000
1000
0000
,
0001
0000
0100
0000
0000
0010
0000
0000
,
1000
0000
0000
0100
0000
0000
0010
0000
,
0001
0000
1000
0000
0000
0001
0000
0000
,
0100
0000
0000
0010
0000
0000
1000
0000
,
0010
0000
0100
0000
0000
0001
0000
0000
,
0010
0000
0000
0100
0000
0000
1000
0000
,
0001
0000
0100
0000
0000
0001
0000
0000
,
1000
0000
0000
0100
0000
0000
0010
0000
,
0001
0000
1000
0000
0000
0001
0000
0000
,
1000
0000
0000
0001
0000
0000
1000
0000
,
0010
0000
0100
0000
0000
0010
0000
0000
,
1000
0000
0000
0001
0000
0000
0100
0000
,
1001
0000
0000
0000
;

//---------------dance-single - Renard----------------
#NOTES:
     dance-single:
     Renard:
     Easy:
     2:
     0.201,0.318,0.011,0.321,0.000: // measure 1
0000
0000
0000
0000
,  // measure 2
0000
0000
0000
0000
,  // measure 3
0000
0000
0000
0000
,  // measure 4
0000
0000
0000
0000
,  // measure 5
0000
0000
0000
0000
,  // measure 6
0000
0000
0000
0000
,  // measure 7
0000
0000
0000
0000
,  // measure 8
0000
0000
0000
0000
,  // measure 9
1000
0000
1000
0001
,  // measure 10
1000
0000
1000
0001
,  // measure 11
0001
0000
0001
1000
,  // measure 12
0001
0100
0010
0000
,  // measure 13
1000
0000
0001
0000
,  // measure 14
0100
0000
0010
0000
,  // measure 15
1000
0001
1000
0001
,  // measure 16
0200
0000
0000
0000
,  // measure 17
0302
0000
0000
0000
,  // measure 18
0000
0000
0000
0000
,  // measure 19
2003
0000
0000
0000
,  // measure 20
0000
0000
0000
3020
,  // measure 21
0230
0000
0000
0000
,  // measure 22
0000
0000
0000
0000
,  // measure 23
0302
0000
0000
0000
,  // measure 24
0000
0000
0000
0023
,  // measure 25
0230
0000
0000
0000
,  // measure 26
0000
0000
0000
0000
,  // measure 27
2300
0000
0000
0000
,  // measure 28
0000
0000
0000
0000
,  // measure 29
3002
0000
0000
0000
,  // measure 30
0000
0000
0000
0000
0000
0203
0000
0000
,  // measure 31
0320
0000
0000
0000
,  // measure 32
0000
0000
0000
0000
0000
2030
0000
0000
,  // measure 33
3200
0000
0000
0000
,  // measure 34
0000
0000
0000
0320
,  // measure 35
0032
0000
0100
0000
,  // measure 36
1000
0000
2000
0003
,  // measure 37
0200
0000
0000
3000
,  // measure 38
0000
0000
0010
0000
,  // measure 39
0320
0000
0032
0000
,  // measure 40
1000
0000
0100
0100
,  // measure 41
0200
0000
0000
0003
,  // measure 42
0010
0000
0320
0000
,  // measure 43
2000
0000
0000
0000
,  // measure 44
0030
0000
0000
0000
0200
3000
0000
0000
,  // measure 45
0020
0000
0000
0300
,  // measure 46
0002
0030
2000
0003
,  // measure 47
0020
0000
0000
3000
,  // measure 48
0200
0000
0000
0000
0000
0030
0000
0000
,  // measure 49
0001
0010
0000
0010
,  // measure 50
0000
0010
0000
0001
,  // measure 51
0001
0000
0010
0000
,  // measure 52
0001
0000
0010
0000
,  // measure 53
1000
1000
0010
0000
,  // measure 54
0010
0000
0010
0000
,  // measure 55
1000
0000
0010
0000
,  // measure 56
0001
0000
0010
0000
,  // measure 57
0010
0001
0000
0001
,  // measure 58
0000
1000
0000
1000
,  // measure 59
0010
1000
0000
1000
,  // measure 60
0000
0010
0000
0001
,  // measure 61
0010
0001
0000
0001
,  // measure 62
0000
0001
0000
0001
,  // measure 63
0000
0010
1000
0010
,  // measure 64
0001
0000
0010
0000
1000
0000
0010
0300
,  // measure 65
1001
0000
0000
0000
;
