#TITLE:Dolphin Island;
#SUBTITLE:;
#ARTIST:Beek;
#TITLETRANSLIT:;
#SUBTITLETRANSLIT:;
#ARTISTTRANSLIT:;
#CREDIT:;
#BANNER:dolphin.png;
#BACKGROUND:dolphin-bg.png;
#LYRICSPATH:;
#CDTITLE:;
#MUSIC:dolphin.ogg;
#OFFSET:0.000;
#SAMPLESTART:5.120;
#SAMPLELENGTH:12.000;
#SELECTABLE:YES;
#BPMS:0.000=187.500;
#STOPS:;
#BGCHANGES:;

//---------------dance-single - Renard----------------
#NOTES:
     dance-single:
     Renard:
     Challenge:
     9:
     0.787,0.761,0.129,0.000,0.173:
0000
0000
0000
0000
,
0000
0000
0000
0000
,
0001
0001
0000
0001
0000
1000
0100
0010
,
0001
0001
0000
0001
1000
0100
1000
0001
,
0100
0000
0010
1000
0000
1010
0000
1001
,
0000
0000
1100
0000
0000
0000
1001
0000
0000
0000
1000
0100
1000
0000
0100
0000
,
1000
0000
0010
0100
0000
0101
0000
1001
,
0000
0000
0011
0000
0000
0000
1001
0000
0000
0000
0001
0100
0001
0000
0100
0000
,
0001
0000
1000
0100
0000
1001
0000
1010
,
0000
0000
1100
0000
0000
0000
1001
0000
0000
0000
1000
0100
1000
0000
0100
0000
,
1000
0010
0100
0001
0000
0010
0001
0010
,
0100
1000
0001
1000
0000
1000
0010
1000
,
0100
0000
1000
0010
0000
0100
0001
0010
,
0001
0000
0010
0100
0000
1000
0010
0100
,
0001
0000
0001
0100
0000
0100
0010
1000
,
0100
1000
0001
0010
0000
0010
0100
1000
,
0001
0000
0000
0000
1000
0000
0100
0000
0000
0000
1000
0000
0001
0000
1000
0001
,
1000
0000
0001
0000
0100
0000
0010
0000
0000
0000
1000
0000
0010
0000
1000
0010
,
1000
0000
0100
1000
0000
0001
0010
0100
,
1000
0000
0001
0000
0100
0000
0010
0000
1000
0000
0100
0000
1000
0000
0100
1000
,
0100
1000
0010
0100
0001
0010
0001
1000
,
0000
1000
0001
0100
0000
0010
1000
0100
,
1000
0000
0100
1000
0100
0000
1000
0000
0010
0000
0100
0000
0001
0000
0010
0000
,
0000
0010
0100
0010
0000
0010
0001
0100
,
0010
0000
1000
0001
1000
0000
0001
0000
0100
0000
0010
1000
0010
0000
1000
0000
,
0100
1000
0001
0010
0100
1000
0001
1000
,
0001
0000
0100
0001
0100
0000
0001
0000
0100
0000
0010
0000
1000
0000
0010
0000
,
1000
0000
0001
1000
0001
0000
1000
0000
0100
0000
1000
0100
1000
0000
0100
0000
,
1000
0010
0100
0001
0010
0100
1000
0001
,
0100
0001
0010
0001
0000
0001
0010
0100
,
1000
0000
1000
0001
0100
0010
1000
0100
,
0010
0000
0010
0100
1000
0010
0100
0001
,
0100
0000
0010
0100
0010
0000
0100
0000
0010
0000
1000
0010
1000
0000
0010
0000
,
1000
0000
0001
1000
0001
0000
1000
0000
0100
0000
1000
0000
0001
0000
0010
0000
,
0100
0000
1000
0100
1000
0000
0001
0000
1000
0000
0001
1000
0001
0000
0100
0000
,
0001
0100
0010
1000
0100
0010
0001
0010
,
0100
0000
0100
1000
0010
0000
0010
0100
,
0001
0000
0001
0100
0000
0100
0010
0000
,
1000
0100
0010
0000
0010
0001
0010
0100
,
1000
0000
1000
0001
0100
0010
1000
0001
,
1000
0000
1000
0001
0000
0001
0100
0000
,
0010
0000
0000
0000
1000
0000
0000
0000
0100
0000
0000
0000
1000
0100
0010
0001
,
0010
0000
0100
1000
0000
0010
0100
0000
,
0001
0000
0000
0000
0100
0000
0000
0000
0010
0000
0000
0000
1000
0010
0100
0001
,
0100
0000
0100
0010
0000
0010
1000
0000
,
0100
0000
0010
0000
0001
0000
0010
0000
0100
0000
1000
0000
0001
0010
0100
1000
,
0001
0000
1000
0010
0000
0100
0001
0000
,
0100
0010
0000
1000
0100
0010
0001
0010
,
0100
1000
0100
0010
0000
0010
0001
0010
,
0100
0000
1000
0000
0000
0000
1000
0000
0010
0000
0100
0000
0001
0100
0001
0100
,
0001
0000
0100
0010
0000
1000
0100
0000
,
1000
0100
0000
1000
0001
0000
1000
0100
,
0010
0000
0010
0001
0000
0001
0010
0000
,
0100
1000
0010
0100
0001
0100
0001
1000
,
0100
0000
0100
1000
0000
1000
0010
0100
,
0001
0010
0100
1000
0000
1000
0001
1000
,
0001
0000
0001
0100
0010
1000
0100
0010
,
0001
0010
0100
1000
0000
1000
0010
0100
,
0001
0000
0100
0010
0000
1000
0100
0010
,
0001
0000
0001
0010
0000
0010
0100
1000
,
0010
0100
0001
0100
0000
0100
0010
1000
,
0100
0010
0001
0010
0000
0010
0100
1000
,
0010
0100
0001
1000
0000
1000
0100
1000
,
0001
0000
0010
0000
0001
0000
1000
0000
0001
0000
1000
0001
1000
0000
0001
0000
,
0100
0000
0010
0000
1000
0000
0100
0000
0010
0000
0001
0000
0010
0001
0010
0000
,
0100
0000
1000
0000
0001
0000
1000
0000
0001
0000
1000
0000
0100
1000
0100
0000
,
1000
0001
0010
0001
1000
0100
1000
0001
,
1000
0010
1000
0001
0100
0010
1000
0001
,
1000
0000
0100
0000
1000
0000
0001
0000
0010
0000
0001
0000
1000
0001
1000
0000
,
0001
0000
0100
0000
0010
0000
1000
0000
0100
0000
1000
0000
0100
1000
0100
0000
,
1000
0000
0001
0000
0010
0000
0001
0000
1000
0000
0010
0000
1000
0010
1000
0000
,
0010
0000
0100
0000
0001
0000
1000
0000
0100
0000
1000
0000
0001
1000
0001
0000
,
1000
0000
0100
0000
0010
0000
0001
0010
0001
0000
0010
0000
0100
0000
1000
0100
,
1000
0000
0100
0000
1000
0000
0010
1000
0010
0000
1000
0000
0001
0000
1000
0000
,
0001
0100
0010
1000
0000
1000
0010
0100
,
0001
0010
0100
1000
0000
1000
0100
1000
,
0001
0010
0100
1000
0010
0100
0001
1000
,
1001
0000
0000
0000
;

//---------------dance-single - Renard----------------
#NOTES:
     dance-single:
     Renard:
     Hard:
     9:
     0.629,0.609,0.148,0.030,0.000:
0000
0000
0000
0000
,
0000
0000
0000
0000
,
1000
0100
0000
1000
0000
0001
0010
0100
,
1000
0100
0000
1000
0000
0001
0100
0010
,
1000
0000
1000
0100
0000
1000
0000
0001
,
0000
0010
0000
0001
0000
1000
0010
1000
,
0100
0000
1000
0010
0000
1001
0000
1100
,
0000
1001
0000
1010
0000
1000
0100
0010
,
0001
0010
0100
1000
0000
0001
0000
1000
,
0000
0010
0000
1000
0000
0100
1000
0001
,
0010
0001
1000
0001
0000
0100
0000
0001
,
0000
0010
0000
0011
0000
0000
0001
0010
,
0100
0000
0100
1000
0000
1000
0010
0100
,
0001
0000
0001
0100
0000
0001
1000
0100
,
1000
0000
1000
0001
0000
1000
0010
1000
,
0100
0000
0100
1000
0000
1000
0001
0010
,
0100
0000
0100
1000
0000
1000
0010
0100
,
0001
0100
0010
1000
0000
0100
1000
0001
,
1000
0000
0100
1000
0000
0001
0010
0100
,
1000
0000
1000
0010
0000
0100
0001
0100
,
0010
0000
0010
1000
0000
0100
0000
0010
,
0000
0001
0000
0010
0000
0100
1000
0010
,
0100
0000
0001
0100
0000
0001
0000
0101
,
0000
0011
0000
1001
0000
0001
0100
0010
,
1000
0100
1000
0001
0000
1000
0000
0100
,
0000
1000
0000
0010
0000
1000
0100
1000
,
0001
1000
0100
1000
0000
1010
0000
1001
,
0000
1100
0000
1001
0000
1000
0100
0010
,
0001
0010
0100
1000
0000
1000
0010
0100
,
0001
0100
0010
1000
0000
1000
0100
1000
,
0001
0010
0100
1000
0000
1000
0001
0100
,
0010
1000
0100
1000
0000
1000
0001
0010
,
0100
1000
0001
0100
0000
0100
0010
1000
,
0000
1000
0100
1000
0000
1000
0001
0010
,
0100
0000
1000
0010
0000
0100
0001
0100
,
0000
0010
1000
0100
0000
1000
0100
1000
,
0010
0000
0100
0000
0001
0100
0001
0000
,
1000
0000
0100
0000
1000
0010
1000
0000
,
0100
0000
1000
0000
0001
0010
0001
1000
,
0010
0000
0010
0000
0010
0000
0010
1000
,
0100
0000
0100
1000
0000
0000
0011
0000
,
0100
0000
1000
0000
0001
0010
0100
1000
,
0100
0000
0100
1000
0000
1000
0100
0000
,
1000
0000
0100
0000
1000
0010
0001
0010
,
1000
0000
1000
0100
0000
0100
0010
0000
,
0001
0000
0010
0000
0100
0000
1000
0100
,
0010
0000
0010
0001
0000
0001
0010
0000
,
0100
0000
1000
0000
1000
0100
0001
0100
,
1000
0000
1000
0001
0000
0001
0100
0000
,
1000
0100
1000
0100
0010
0100
0010
0100
,
0001
0000
0001
0010
0000
0010
1000
0000
,
0010
1000
0010
1000
0010
0001
0010
0001
,
0100
0000
0100
0010
0000
0010
1000
0000
,
1000
0010
1000
0010
0001
0010
0001
0010
,
0100
0010
0100
0010
1000
0100
1000
0100
,
1000
0001
0010
0001
1000
0000
0100
0000
,
1100
0000
1000
0001
0000
1000
0010
1000
,
0100
0000
0100
1000
0000
1000
0001
0010
,
0100
0000
0100
1000
0000
1000
0010
0100
,
0001
0000
0001
0100
0000
0100
0010
1000
,
0100
0000
1000
0001
0000
0010
0100
0000
,
1000
0000
0001
0100
0000
0010
1000
0000
,
0100
0000
1000
0100
1000
0001
0010
0000
,
0001
0000
1000
0010
1000
0001
1000
0000
,
0100
1000
0001
1000
0000
1000
0010
0100
,
0001
0000
0001
1000
0000
1000
0100
0010
,
0001
0000
0001
0010
0000
0100
1000
0000
,
0010
0000
0100
0001
0000
0100
0010
1000
,
0100
0000
1000
0010
0000
1000
0001
0000
,
1000
0000
0100
1000
0000
0010
1000
0000
,
0100
0000
1000
0010
0000
1000
0001
0000
,
1000
0000
0100
1000
0000
0010
1000
0000
,
0100
0000
1000
0010
0000
1000
0001
0000
,
1000
0000
0100
1000
0000
0010
1000
0000
,
0002
1000
0100
0013
,
2000
0100
0010
0000
0001
0000
3001
0000
,
0002
0100
1000
0013
,
1001
0000
0000
0000
;

//---------------dance-single - Renard----------------
#NOTES:
     dance-single:
     Renard:
     Medium:
     6:
     0.360,0.457,0.000,0.020,0.000:
0000
0000
0000
0000
,
0000
0000
0000
0000
,
0001
0000
0000
0001
0000
0000
0001
0000
,
1000
0000
0000
1000
0000
0000
1000
0000
,
0010
0000
0000
1000
0000
0100
0000
1000
,
0000
0001
0000
1000
0000
0000
0000
0000
,
0100
0000
0000
1000
0000
0001
0000
0010
,
0000
0001
0000
1000
0000
0000
0000
0000
,
0010
0000
0000
1000
0000
0100
0000
1000
,
0000
0001
0000
0010
0000
0000
0000
0000
,
0001
1000
0010
0000
,
0100
0001
1000
0000
,
0100
1000
0001
1000
,
0010
1000
0100
1000
,
0001
0010
0001
1000
,
0001
0100
0001
1000
,
0100
0000
0000
1000
0000
0010
0000
0100
,
0000
0001
0000
1000
0000
0000
0100
0000
,
1000
0010
0100
0001
,
1000
0100
1000
0001
,
1000
0000
0000
0100
0000
1000
0000
0001
,
0000
0010
0000
0001
0000
0000
1000
0000
,
0001
0000
0000
0100
0000
0010
0000
1000
,
0000
0100
0000
0010
0000
0000
0000
0000
,
0001
0000
0000
0010
0000
0100
0000
1000
,
0000
0010
0000
0100
0000
0000
0001
0000
,
0100
0100
0010
0010
,
1000
0001
1000
0001
,
1000
0100
1000
0001
,
1000
0001
0010
0001
,
0100
0010
1000
0100
,
1000
1000
1000
0000
,
0001
0000
0000
0100
0000
0010
0000
1000
,
0000
0100
0000
0010
0000
0000
0001
0000
,
0010
0100
1000
0010
,
1000
0001
0100
0001
,
1000
0000
0000
0001
0000
0000
0100
0000
,
0010
0000
0000
1000
0000
0000
0100
0000
,
1000
0000
0000
0001
0000
0000
0010
0000
,
0100
0000
0100
0000
,
1000
0000
0000
0010
0000
0000
0100
0000
,
0000
0000
0000
0000
0000
0000
0001
0100
,
0001
0000
0000
0100
0000
0000
0010
0000
,
0000
0000
0000
0000
0000
0000
1000
0100
,
1000
0000
0000
0010
0000
0000
0100
0000
,
0000
0000
0000
0000
0000
0000
0001
0010
,
0001
0000
0000
0010
0000
0000
0100
0000
,
0000
0000
0000
0000
1000
0100
1000
0000
,
0100
0000
0000
1000
0000
0000
0010
0000
,
0100
0001
0100
0001
0100
0001
0100
0001
,
0100
0000
0000
0001
0000
0000
0010
0000
,
0000
0000
0100
1000
0100
1000
0100
1000
,
0100
0000
0000
1000
0000
0000
0010
0000
,
1000
0001
1000
0000
0001
0100
0001
0000
,
1000
0000
0000
0100
0000
0000
1000
0000
,
0001
0000
0000
0010
0001
0010
0001
0000
,
0010
0000
0000
0100
0000
0000
1000
0000
,
0010
0000
0000
0100
0000
0000
0001
0000
,
0100
0000
0000
0010
0000
0000
1000
0000
,
0100
0000
0000
1000
0000
0000
0001
0000
,
0010
0000
0000
0100
0000
0000
1000
0000
,
0010
0000
0000
0100
0000
0000
0001
0000
,
0100
0000
0000
0010
0000
0000
1000
0000
,
0100
0000
0000
1000
0000
0000
0001
0000
,
0010
0000
0010
0001
0000
0000
0000
0000
,
1000
0000
1000
0100
0000
0000
0000
0000
,
1000
0000
1000
0010
0000
0000
0100
0000
,
0001
0010
0100
1000
,
0001
0000
0001
0010
0000
0000
0000
0000
,
0100
0000
0100
1000
0000
0000
0000
0000
,
0001
0000
0001
0010
0000
0000
0000
0000
,
0100
0000
0100
1000
0000
0000
0000
0000
,
0001
0000
0001
0010
0000
0000
0000
0000
,
0100
0000
0100
1000
0000
0000
0000
0000
,
0002
0000
0100
0000
,
0010
0000
0010
0013
,
2000
0000
0100
0100
,
3010
0000
0000
0000
;

//---------------dance-single - Renard----------------
#NOTES:
     dance-single:
     Renard:
     Easy:
     4:
     0.400,0.381,0.020,0.158,0.000: // measure 1
0000
0000
0000
0000
,  // measure 2
0000
0000
0000
0000
,  // measure 3
1000
0000
1000
0000
,  // measure 4
0001
0000
0001
0100
,  // measure 5
0001
1000
0100
0010
,  // measure 6
0001
0010
0100
1000
,  // measure 7
0001
0001
1000
1000
,  // measure 8
0001
0100
0001
0100
,  // measure 9
0001
0001
1000
1000
,  // measure 10
0010
0100
0010
0100
,  // measure 11
0010
0010
1000
1000
,  // measure 12
0001
1000
0100
0000
,  // measure 13
1000
0001
0010
0100
,  // measure 14
1000
0100
0010
0001
,  // measure 15
1000
1000
0001
0001
,  // measure 16
0100
0010
1000
0100
,  // measure 17
1000
1000
0001
0001
,  // measure 18
0100
0001
1000
0100
,  // measure 19
1000
1000
0001
0001
,  // measure 20
0010
0001
1000
0010
,  // measure 21
1000
0000
0001
0000
,  // measure 22
0100
0001
1000
0100
,  // measure 23
1000
0000
0001
0000
,  // measure 24
0010
0001
1000
0010
,  // measure 25
0100
0000
0001
0000
,  // measure 26
1000
0100
1000
0001
,  // measure 27
0010
0001
1000
0010
,  // measure 28
1000
0001
0100
0001
,  // measure 29
1000
1000
0001
0000
,  // measure 30
1000
1000
0001
0000
,  // measure 31
0001
0001
1000
0000
,  // measure 32
0001
0001
1000
0000
,  // measure 33
0010
1000
0010
1000
,  // measure 34
0001
0100
0001
0100
,  // measure 35
0001
0010
0001
0010
,  // measure 36
0100
1000
0100
1000
,  // measure 37
0010
0010
0010
0010
,  // measure 38
0100
0100
0100
0100
,  // measure 39
0001
1000
0001
1000
,  // measure 40
1001
0000
0000
0001
,  // measure 41
0200
0000
0020
0300
,  // measure 42
2000
0000
0030
0000
,  // measure 43
0200
3000
0020
0300
,  // measure 44
0002
0000
0000
0030
,  // measure 45
0200
0003
0020
0300
,  // measure 46
2030
3100
0010
0001
,  // measure 47
0020
0000
0200
0030
,  // measure 48
2300
3010
0100
0001
,  // measure 49
0100
0010
1000
0100
,  // measure 50
2000
0000
3001
0000
,  // measure 51
0001
0100
0010
1000
,  // measure 52
0002
0000
1003
0000
,  // measure 53
0001
0200
0010
1000
,  // measure 54
0001
0010
0310
0000
,  // measure 55
0010
1000
0100
0020
,  // measure 56
0001
0100
1000
0130
,  // measure 57
0010
0001
0010
0100
,  // measure 58
0010
0001
0010
0100
,  // measure 59
1000
0100
0010
0100
,  // measure 60
1000
0100
0010
0000
,  // measure 61
0100
1000
0010
0100
,  // measure 62
0001
0100
0010
0100
,  // measure 63
0001
1000
0100
1000
,  // measure 64
0001
0010
0001
1000
,  // measure 65
0010
1000
0001
0100
,  // measure 66
0001
1000
0100
1000
,  // measure 67
0001
1000
0100
1000
,  // measure 68
0010
1000
0100
1000
,  // measure 69
0001
0010
0100
1000
,  // measure 70
0001
0010
0100
1000
,  // measure 71
0001
0010
0100
1000
,  // measure 72
0001
0010
0100
1000
,  // measure 73
0001
0010
0100
1000
,  // measure 74
0001
0010
0100
1000
,  // measure 75
1000
0100
0010
0001
,  // measure 76
1000
0100
0010
0001
,  // measure 77
0010
0100
1000
0010
,  // measure 78
0110
0000
0000
0000
;
