#TITLE:Do Not Attempt;
#SUBTITLE:;
#ARTIST:Scott Brown and Brisk;
#TITLETRANSLIT:;
#SUBTITLETRANSLIT:;
#ARTISTTRANSLIT:;
#CREDIT:;
#BANNER:attempt.png;
#BACKGROUND:attempt-bg.png;
#LYRICSPATH:;
#CDTITLE:;
#MUSIC:attempt.ogg;
#OFFSET:0.000;
#SAMPLESTART:68.513;
#SAMPLELENGTH:12.000;
#SELECTABLE:YES;
#BPMS:0.000=175.150;
#STOPS:;
#BGCHANGES:;

//---------------dance-single - Renard----------------
#NOTES:
     dance-single:
     Renard:
     Hard:
     9:
     0.584,0.675,0.672,0.136,0.419:
0000
0000
0000
0000
,
0000
0000
0000
0000
,
0000
0000
0000
0000
,
0000
0000
0000
0000
,
1001
0000
0000
1000
0000
0000
1010
0000
0000
1000
0000
0001
,
0100
0000
0010
1000
0000
0100
0010
0000
0000
0001
0000
0000
,
0110
0000
0000
0010
0000
0000
0011
0000
0000
0001
0000
1000
,
0010
0000
0100
0001
0000
0000
2002
0000
0000
0000
0000
0000
,
0220
0000
0000
0000
,
0000
0000
3333
0000
,
1000
0000
0001
0100
0000
0000
0010
0000
0000
0010
0000
0000
,
0010
0000
1000
0100
0000
1000
0100
0000
0000
0100
0000
0000
,
0010
0000
0010
0001
0000
0000
0001
0000
0000
0100
0000
0000
,
0001
0000
1000
0001
0000
1000
0001
0000
0000
1000
0000
0000
,
0010
0000
0010
0100
0000
0000
0100
0000
0000
0100
0000
0000
,
0001
0000
1000
0001
0000
1000
0001
0000
0000
1000
0000
0000
,
0010
0000
0010
0100
0000
0000
0100
0000
0000
0100
0000
0000
,
0001
0000
1000
0100
0000
1000
0001
0000
0000
0100
0000
0000
,
0001
0000
0001
1000
0000
0000
0010
0000
0000
0100
0000
0000
,
0001
0000
1000
0100
0000
0010
0001
0000
0000
1000
0000
0000
,
0010
0000
0010
0100
0000
0000
0001
0000
0000
1000
0000
0000
,
0100
0000
0010
0001
0000
0010
0001
0000
0000
0010
0000
0000
,
0100
0000
0100
1000
0000
0000
0010
0000
0000
0100
0000
0000
,
0001
0000
0001
0100
0000
0100
1000
0000
0000
1000
0000
0000
,
0100
0000
0100
0001
0000
0000
0001
0000
0000
0010
0000
0000
,
1000
0000
1000
0010
0000
0010
0001
0000
0000
0001
1000
0010
,
1000
0000
0000
0001
0000
0000
0100
0000
0000
0010
0000
1000
,
0001
0000
1000
0010
0000
0100
0001
0000
0000
1000
0000
0000
,
1001
0000
0000
1000
0000
0000
1010
0000
0000
0010
0000
0100
,
0001
0000
0010
0001
0000
0000
0011
0000
0000
0010
0000
0000
,
0110
0000
0000
0100
0000
0000
1100
0000
0000
1000
0000
0010
,
0100
0000
0001
0100
0000
0010
1000
0000
0000
0001
0000
0000
,
0101
0000
0000
0100
0000
0000
0110
0000
0000
0010
0000
1000
,
0010
0000
1000
0001
0000
0000
2002
0000
0000
3003
0000
0000
,
1010
0000
0000
1000
0000
0000
1001
0000
0000
1000
0000
0100
,
0010
0000
0001
0010
0000
0100
1000
0000
0000
0001
0000
0000
,
0101
0000
0000
0100
0000
0000
0110
0000
0000
0010
0000
0010
,
1000
0000
1000
0001
0000
0000
0101
0000
0000
0100
0010
0100
,
0010
0000
0000
0010
1000
0010
1000
0000
0000
0001
0000
0000
,
0100
0000
0000
1001
0000
0000
1100
0000
0000
0010
0001
0010
,
0100
0000
0000
1000
0100
1000
0100
0000
0000
1000
0010
0100
,
0001
0000
0100
0001
0000
0000
0101
0000
0000
1001
0000
0000
,
2002
0000
0000
0000
,
0000
0000
0000
0000
,
0220
0000
0000
0000
,
0000
0000
0000
3333
,
1010
1000
1100
0100
,
0110
0010
0011
0001
,
0101
1100
1010
0011
,
0001
0000
0001
0100
0000
0100
0010
0000
0000
0000
0000
0000
,
1001
0000
1000
0100
0000
0000
0110
0000
0000
0011
0000
0000
,
0101
0000
0001
0100
0000
0100
0010
0000
0000
1010
0000
0000
,
1001
0000
1000
0100
0000
0000
0110
0000
0000
0010
0000
0000
,
0011
0000
0001
0100
0000
0100
0010
0000
0000
0010
0000
0000
,
1100
0000
0100
0010
0000
0000
0011
0000
0000
0001
0000
0000
,
0101
0000
0001
1000
0000
1000
0100
0000
0000
0010
0000
0000
,
1001
0000
1000
0010
0000
0000
0110
0000
0000
0100
0000
0000
,
0101
0000
0001
1000
0000
0100
0010
0000
0000
0011
0000
0000
,
0011
0000
0010
0100
0000
0000
1100
0000
0000
1000
0000
0000
,
1010
0000
0010
0100
0000
0100
0001
0000
0000
0100
0000
0000
,
0110
0000
0010
1000
0000
0000
1100
0000
0000
0100
0000
0000
,
0010
0000
0010
0001
0000
0001
0100
0000
0000
0001
0000
0000
,
0110
0000
0100
0010
0000
0000
1010
0000
0000
1000
0000
0000
,
0100
0000
0100
0010
0000
0010
0001
0000
0000
0100
0000
0000
,
0101
0000
0100
0010
0000
0000
1010
0000
0000
1000
0000
0000
,
0101
0000
0100
0010
0000
1000
0100
0000
0000
0010
0000
0000
,
0011
0010
0110
0100
,
0011
0000
0000
0001
0000
0000
0101
0000
0010
1000
0000
0000
,
0101
0100
0110
0010
,
1001
0000
0000
1000
0000
0000
0100
0000
0010
0001
0000
0000
,
1001
1000
0110
0100
,
0011
0000
0000
0010
0000
0000
0100
0000
1000
0001
0000
0000
,
2222
0000
0000
0000
,
0000
0000
0000
0000
,
0000
0000
0000
0000
,
0000
0000
0000
0000
,
0000
0000
0000
0000
,
3333
0000
0000
0000
;

//---------------dance-single - Renard----------------
#NOTES:
     dance-single:
     Renard:
     Medium:
     6:
     0.357,0.385,0.146,0.000,0.185:
0000
0000
0000
0000
,
0000
0000
0000
0000
,
0000
0000
0000
0000
,
0000
0000
0000
0000
,
1000
0000
1000
0000
,
0001
0100
0010
0000
,
1000
0000
1000
0000
,
0100
0010
0001
0000
,
0110
0000
0000
0000
,
0000
0000
0000
0000
,
0010
0100
0001
0100
,
0010
0000
0100
0010
0000
0100
0010
0000
0000
0000
0000
0000
,
1000
0100
0010
0001
,
1000
0000
0100
1000
0000
0100
1000
0000
0000
0000
0000
0000
,
0001
0010
0001
1000
,
0010
0000
0100
0010
0000
0100
0010
0000
0000
0000
0000
0000
,
0100
0001
0010
0100
,
1000
0000
0001
1000
0000
0001
1000
0000
0000
0000
0000
0000
,
0001
0100
0010
1000
,
0001
0000
0100
0010
0000
0100
0010
0000
0000
0000
0000
0000
,
1000
0100
0010
0001
,
1000
0000
0001
1000
0000
0001
1000
0000
0000
0000
0000
0000
,
0010
0100
0001
0010
,
0100
0000
1000
0100
0000
1000
0100
0000
0000
0000
0000
0000
,
1000
0001
0010
0100
,
1000
0000
0001
1000
0000
0001
1000
0000
0000
0001
0000
0000
,
0100
0000
0100
0000
,
0010
0000
0010
0100
0000
0100
0010
0000
0000
0000
0000
0000
,
1000
0000
0100
0000
,
0010
0000
0010
0001
0000
0000
0010
0000
0000
0000
0000
0000
,
0100
0000
1000
0000
,
0001
0000
0001
0100
0000
0100
0001
0000
0000
0000
0000
0000
,
0100
0000
0010
0000
,
1000
0000
1000
0100
0000
0000
0010
0000
0000
0000
0000
0000
,
0001
0000
0100
0000
,
0010
0000
0010
1000
0000
1000
0010
0000
0000
0000
0000
0000
,
0100
0000
0001
0000
,
0010
0000
0010
0001
0000
0000
1000
0000
0000
0000
0000
0000
,
0100
0000
0010
0000
,
0001
0000
0001
1000
0000
1000
0010
0000
0000
0000
0000
0000
,
0100
0000
0001
0000
,
1000
0000
0100
1000
0000
0000
0001
0000
0000
0010
0000
0000
,
1001
0000
0000
0000
,
0000
0000
0000
0000
,
0000
0000
0000
0000
,
0000
0000
0000
0000
,
0010
0000
0010
0000
,
0010
0000
0010
0000
,
0010
0000
0000
0010
0000
0000
0010
0000
0000
0010
0000
0010
,
0100
0000
0001
1000
0000
0100
1000
0000
0000
0000
0000
0000
,
0001
1000
0100
0010
,
1001
1001
1001
0000
,
0001
0100
0010
1000
,
0101
1010
1001
0000
,
1000
0100
0010
0001
,
1010
1010
1001
0000
,
0001
0100
0010
1000
,
0101
0101
1001
0000
,
0001
0000
0010
0001
0000
0000
0010
0000
0000
0100
0000
0000
,
1000
0001
0100
0100
,
0010
0000
1000
0010
0000
0000
1000
0000
0000
0100
0000
0000
,
0010
0001
1000
0001
,
0100
0000
0010
0100
0000
0000
0010
0000
0000
1000
0000
0000
,
0100
0010
0001
1000
,
0001
0000
0100
0001
0000
0000
0100
0000
0000
0010
0000
0000
,
1000
0100
0010
0001
,
1000
0000
0010
1000
0000
0000
0001
0000
0000
0100
0000
0000
,
0001
0010
0100
0000
,
1000
0000
0001
1000
0000
0000
0001
0000
0000
0100
0000
0000
,
0001
0010
0100
0000
,
1000
0000
0010
1000
0000
0000
0010
0000
0000
0100
0000
0000
,
0001
0010
0100
1000
,
1001
0000
0000
0000
;

//---------------dance-single - Renard----------------
#NOTES:
     dance-single:
     Renard:
     Easy:
     2:
     0.227,0.286,0.010,0.029,0.000: // measure 1
0000
0000
0000
0000
,  // measure 2
0000
0000
0000
0000
,  // measure 3
0000
0000
0000
0000
,  // measure 4
0000
0000
0000
0000
,  // measure 5
1000
0000
1000
0000
,  // measure 6
0001
0001
0001
0000
,  // measure 7
0100
0000
0100
0000
,  // measure 8
0010
0010
0010
0000
,  // measure 9
1000
0000
0000
0000
,  // measure 10
0000
0000
0000
0000
,  // measure 11
0001
0100
0001
0100
,  // measure 12
0001
0000
0001
0000
,  // measure 13
1000
0100
1000
0100
,  // measure 14
1000
0000
1000
0000
,  // measure 15
0001
0010
0001
0010
,  // measure 16
0001
0000
0001
0000
,  // measure 17
1000
0010
1000
0010
,  // measure 18
1000
0000
1000
0000
,  // measure 19
0001
0000
0001
0000
,  // measure 20
1000
0100
1000
0000
,  // measure 21
0001
0000
0001
0000
,  // measure 22
1000
0010
1000
0000
,  // measure 23
0010
0000
0010
0000
,  // measure 24
0100
0001
0100
0000
,  // measure 25
0010
0000
0010
0000
,  // measure 26
1000
0100
1000
0000
,  // measure 27
0001
0000
0001
0000
,  // measure 28
1000
1000
1000
0000
,  // measure 29
0010
0000
0010
0000
,  // measure 30
0100
0100
0100
0000
,  // measure 31
0010
0000
1000
0000
,  // measure 32
0100
0100
0100
0000
,  // measure 33
0010
0000
0001
0000
,  // measure 34
0100
0100
0100
0000
,  // measure 35
0010
0000
0100
0000
,  // measure 36
0001
0001
0001
0000
,  // measure 37
0100
0000
0010
0000
,  // measure 38
1000
1000
1000
0000
,  // measure 39
0100
0000
0010
0000
,  // measure 40
0001
0001
0001
0000
,  // measure 41
0010
0000
0100
0000
,  // measure 42
1000
1000
1000
0000
,  // measure 43
0020
0000
0000
0000
,  // measure 44
0000
0000
0000
0000
,  // measure 45
0000
0000
0000
0000
,  // measure 46
0000
0000
0000
0030
,  // measure 47
0010
0000
0010
0000
,  // measure 48
0010
0000
0010
0000
,  // measure 49
0010
0010
0010
0010
,  // measure 50
0010
0010
0010
0000
,  // measure 51
0001
0000
0001
0000
,  // measure 52
1000
0100
0010
0001
,  // measure 53
1000
0000
1000
0000
,  // measure 54
0001
0010
0100
1000
,  // measure 55
0001
0000
0001
0000
,  // measure 56
1000
0100
0010
0001
,  // measure 57
1000
0000
1000
0000
,  // measure 58
0001
0010
0100
1000
,  // measure 59
0001
0000
1000
0000
,  // measure 60
0001
0000
1000
0000
,  // measure 61
0010
0000
0100
0000
,  // measure 62
0010
0000
0100
0000
,  // measure 63
0001
0000
1000
0000
,  // measure 64
0001
0000
1000
0000
,  // measure 65
0001
0000
0010
0000
,  // measure 66
0100
1000
0100
1000
,  // measure 67
0001
0000
0001
0000
,  // measure 68
0010
0000
0000
0000
,  // measure 69
0100
0000
0100
0000
,  // measure 70
1000
0000
0000
0000
,  // measure 71
0010
0000
0010
0000
,  // measure 72
0100
0000
0000
0000
,  // measure 73
2002
0000
0000
0000
,  // measure 74
0000
0000
3003
0000
;
