#TITLE:Do It Like We Do;
#SUBTITLE:;
#ARTIST:Plus System;
#TITLETRANSLIT:;
#SUBTITLETRANSLIT:;
#ARTISTTRANSLIT:;
#CREDIT:;
#BANNER:;
#BACKGROUND:;
#LYRICSPATH:;
#CDTITLE:;
#MUSIC:it.ogg;
#OFFSET:0.000;
#SAMPLESTART:33.882;
#SAMPLELENGTH:12.000;
#SELECTABLE:YES;
#BPMS:0.000=170.000;
#STOPS:;
#BGCHANGES:;
#GENRE:Hardcore;

//---------------dance-single - Renard----------------
#NOTES:
     dance-single:
     Renard:
     Hard:
     9:
     0.648,0.625,0.262,0.019,0.058:
0000
0000
0000
0000
,
0000
0000
0000
0000
,
0000
0000
0000
0000
,
0000
0000
0000
0000
,
0001
0100
0010
0000
1000
1000
0010
0000
,
0100
0001
0010
0001
0010
0001
0010
0000
,
0100
1000
0001
0100
0010
1000
0001
1000
,
0100
0010
0001
1000
0001
0000
0000
0000
,
1000
0010
0000
0010
0100
0001
0000
0001
,
0010
0100
0000
0100
1000
0010
0100
0001
,
1000
0100
0000
0100
0010
0001
0000
0001
,
1000
0001
1000
0001
0100
0001
0100
0001
,
0100
0010
0000
0010
1000
0100
0000
0100
,
0010
0000
0001
0000
0000
0000
0001
0000
0100
0000
0001
0100
0001
0000
0100
0000
,
0010
1000
0000
1000
0100
0010
0000
0010
,
0001
0000
0000
0000
,
1000
0001
0100
0000
0110
0000
0010
1000
,
0100
0010
0100
0000
0110
0000
0010
0001
,
0100
0010
0100
0000
0110
0000
0010
1000
,
0100
0010
0100
0000
0110
0000
0010
0001
,
1000
0001
1000
0000
1001
0000
0001
0100
,
0010
1000
0001
0000
1001
0000
1000
0100
,
0010
0001
1000
0000
1001
0000
0001
0100
,
0010
1000
0001
0000
1001
0000
1000
0100
,
1000
0010
1000
0000
1000
0010
0100
0001
,
0000
0001
0010
0001
0000
0001
0100
0010
,
1000
0001
0100
0000
0100
0001
1000
0100
,
0000
0000
0100
0000
1000
0000
0010
0000
0100
0000
0001
1000
0001
0000
1000
0000
,
0010
0100
0001
0000
0001
1000
0100
1000
,
0000
1000
0001
0100
0010
1000
0001
0100
,
0001
0000
0000
1000
0000
0000
0001
0000
0100
0000
0000
0000
0010
0000
1000
0000
,
0100
0000
0000
0000
1000
0000
0001
0000
0000
0000
0001
0100
0001
0100
0001
0000
,
0100
0010
1000
0001
0100
0010
1000
0001
,
0000
0001
0100
0001
1000
0100
0010
0001
,
1000
0000
0001
0100
0001
0000
0100
0000
0010
0000
1000
0000
0001
0000
1000
0000
,
0000
1000
0100
0000
0110
0000
0011
0000
,
1001
0000
0000
0000
0001
0000
0100
0010
0100
0000
0001
0000
0100
0000
0010
0000
,
0000
0010
1000
0100
0010
0001
1000
0001
,
0100
0000
0010
0000
1000
0000
0001
0000
1000
0000
0100
1000
0100
0000
1000
0000
,
0001
0000
0100
0000
0010
0000
1000
0000
0001
0000
0000
0001
1000
0000
0010
0000
,
0100
0000
0101
0000
0010
1000
0010
0100
,
0000
0010
1010
0000
1000
0100
0010
0001
,
1000
0000
0101
0000
0010
1000
0100
0010
,
0000
0010
0110
0000
0100
1000
0010
0100
,
0001
0100
0101
0000
0001
0100
0110
0000
,
0010
1000
0100
0010
0000
0010
0100
1000
,
0010
0100
0110
0000
0010
1000
1010
1001
,
0000
0000
0000
0000
,
1000
1000
0001
0001
0100
0100
0010
0010
,
1000
0100
1000
0100
0010
0001
0010
0001
,
1000
1000
0010
0010
0100
0100
0001
0001
,
1000
0001
1000
0000
0001
1000
0001
0000
,
1000
1000
0010
0010
0100
0100
0001
0001
,
0010
0100
1000
0001
0100
0010
1000
0100
,
0010
0010
0001
0000
1000
0001
0100
0000
,
0010
1000
0000
1001
0000
0110
0000
0001
,
1000
0000
1000
0000
0010
0000
0100
0001
,
0000
0000
0001
0000
1000
0000
0100
0000
0010
0000
0001
1000
0001
0000
0010
0000
,
0100
1000
0001
0000
0100
0000
0020
1000
,
0000
1000
1000
0000
1000
0000
1030
0000
,
1000
0000
0010
0000
0100
0000
0001
0010
0001
0000
1000
0000
0100
0000
0010
0000
,
0000
0010
0001
0010
0100
1000
0010
0100
,
0001
0010
0001
1000
0001
0100
0020
0100
,
0000
0100
0100
0000
0100
0000
0130
0000
,
0001
0000
0100
0000
0010
1000
0100
0010
,
0000
0010
0100
1000
0010
0000
0110
0000
,
0001
0100
0010
0100
0001
0000
0010
0100
,
0000
0100
0010
0001
0010
0000
0011
0000
,
0001
0100
0010
1000
0001
0000
1001
0000
,
1000
0000
0010
0000
0100
0000
0001
0000
0100
0000
0001
0100
0001
0000
0100
0000
,
0010
1000
0001
0000
0101
0000
0110
0000
,
0010
1000
0100
0010
0001
0000
0000
0000
;

//---------------dance-single - Renard----------------
#NOTES:
     dance-single:
     Renard:
     Medium:
     6:
     0.387,0.382,0.029,0.000,0.000:
0000
0000
0000
0000
,
0000
0000
0000
0000
,
0000
0000
0000
0000
,
0000
0000
0000
0000
,
1000
1000
1000
0001
,
0100
0000
0010
0100
0000
0000
0010
0000
,
1000
0100
0010
0001
,
1000
0000
0001
1000
0001
0000
0000
0000
,
1000
1000
0001
0001
,
0100
0001
1000
0001
,
1000
1000
0001
0001
,
0010
0001
1000
0010
,
1000
1000
0001
0001
,
1000
0100
1000
0001
,
0100
0001
0001
1000
,
0010
1000
0001
0000
,
1000
1000
0001
0100
,
0010
0000
0010
1000
0000
0000
0010
0000
,
0100
0000
0100
0001
,
0010
0000
0001
0010
0001
0000
0000
0000
,
0010
0000
0010
0100
,
1000
0000
0010
1000
0010
0000
1000
0000
,
0001
0001
0100
0100
,
0001
0000
0010
0001
0010
0000
0000
0000
,
0001
0001
1000
0001
,
0100
0000
0100
0010
0000
0010
1000
0000
,
0001
0100
0001
1000
,
0001
1000
0001
1000
0001
0000
1000
0000
,
0010
0010
0100
0100
,
0001
0000
0001
0010
0000
0010
0100
0000
,
1000
0001
1000
0001
,
1000
0001
1000
0001
1000
0000
0000
0000
,
0001
0000
0100
0000
0010
0000
1000
0001
,
0000
0001
1000
0000
0100
0000
0010
0000
,
0001
0000
1000
0000
0010
0000
0100
0001
,
0000
0001
1000
0000
0001
0000
0010
0000
,
0100
0000
1000
0000
0001
0000
1000
0001
,
0000
0001
1000
0000
0010
0100
0010
0000
,
1000
0000
0001
0000
1000
0000
0001
1000
,
0000
1000
0010
0000
0100
0000
0001
0000
,
0010
0000
0100
0000
1000
0000
0001
1000
,
0000
0001
0100
0000
0001
0000
1000
0000
,
0100
0000
0010
0000
0001
0000
1000
0010
,
0000
0100
0001
0000
1000
0000
0100
0000
,
0010
0000
0001
0000
1000
0000
0001
1000
,
0000
0001
1000
0000
0010
0000
0100
0000
,
0001
0000
0010
0000
0100
0000
1000
0001
,
0000
1000
0001
0000
1000
0000
0000
0000
,
0010
0100
0001
0100
,
0001
0100
0001
0000
,
0010
1000
0100
1000
,
0100
1000
0100
0000
,
0010
0001
0100
0001
,
0100
0001
0100
0000
,
0010
1000
0100
1000
,
0100
0000
1001
1010
,
0101
0000
0001
0000
,
0100
0100
0100
0010
,
1000
0000
0100
0000
,
0010
0000
0001
0000
0100
0001
0100
0000
,
0010
0000
0010
0000
,
1000
0100
0010
0001
,
1000
0000
1000
0000
,
0010
0100
0010
0100
0010
0000
0000
0000
,
0100
0100
0100
0000
,
0001
0000
0010
0000
0100
1000
0100
0000
,
0010
0010
0001
0000
,
0100
0000
0100
0000
0010
1000
0010
1000
,
0010
0010
0100
0000
,
0001
0000
0001
0000
1000
0100
1000
0100
,
0010
0010
0001
1000
,
0001
0100
0001
0100
0010
0000
0000
0000
;

//---------------dance-single - Renard----------------
#NOTES:
     dance-single:
     Renard:
     Easy:
     2:
     0.223,0.278,0.049,0.010,0.000:
0000
0000
0000
0000
,
0000
0000
0000
0000
,
0000
0000
0000
0000
,
0000
0000
0000
0000
,
1000
0000
1000
0000
,
0001
0000
0001
0000
,
0100
0000
0100
0000
,
0010
0020
0000
0000
0000
0000
0000
0000
,
1030
0000
1000
0000
,
0001
0001
0001
0000
,
0100
0000
0100
0000
,
0010
0000
0010
0000
,
1000
0000
1000
0000
,
0001
0001
0001
0000
,
0100
0000
0001
0000
,
1001
0000
0000
0000
,
1000
0000
1000
0000
,
0001
0000
0001
0000
,
0100
0000
0010
0000
,
0100
0000
1001
0000
,
0001
0000
1000
0000
,
0100
0000
0010
0000
,
0001
0000
1000
0000
,
0001
0000
1001
0000
,
1000
0000
1000
0000
,
0001
0100
0001
0000
,
1000
0000
1000
0000
,
0100
1000
0100
0000
,
1000
0000
1000
0000
,
0010
0000
0100
0000
,
0001
1000
0001
0000
,
1000
0001
1001
0000
,
1000
1000
1000
0000
,
0001
0000
0001
0000
,
0100
0000
0010
0000
,
1000
0000
0100
0000
,
0010
0010
0010
0000
,
0001
0000
0100
0000
,
0010
0000
1000
0000
,
0100
0000
0010
0000
,
0001
0001
0001
0000
,
0010
0000
0100
0000
,
1000
0000
0010
0000
,
0100
0000
0001
0000
,
0100
0100
0100
0000
,
0010
0000
1000
0000
,
0100
0000
0010
0000
,
1001
0000
0000
0000
,
1000
0000
1000
0000
,
0001
0000
0001
0001
,
0100
0000
0100
0000
,
0010
0000
0010
0010
,
1000
0000
1000
0000
,
0100
0000
0100
0100
,
0010
0000
0010
0000
,
0001
0000
0001
0001
,
0100
0000
0100
0000
,
0010
0000
0010
0000
,
1000
0000
0010
0000
,
0100
0001
0100
0000
,
0001
0000
0001
0000
,
0010
0000
0010
0000
,
0100
0000
1000
0000
,
0100
1000
0100
1000
,
1000
0000
1000
0000
,
0001
0100
0001
0000
,
1000
0000
1000
0000
,
0001
0100
0001
0000
,
1000
0000
1000
0000
,
0001
0010
0001
0000
,
1000
0000
1000
0000
,
0001
0010
0100
0000
;

//---------------dance-single - Renard----------------
#NOTES:
     dance-single:
     Renard:
     Challenge:
     10:
     0.807,0.798,0.126,0.000,0.364: // measure 1
0000
0000
0000
0000
,  // measure 2
0000
0000
0000
0000
,  // measure 3
0000
0000
0000
0000
,  // measure 4
0000
0000
0000
0000
,  // measure 5
0001
0000
0100
0001
0100
0000
0000
0000
0010
0000
1000
0000
0100
0000
0000
0000
,  // measure 6
0010
0010
0001
0010
0010
0100
1000
0000
,  // measure 7
0010
0000
0100
0010
0100
0000
0001
0000
0100
0000
0001
0100
0001
0000
1000
0000
,  // measure 8
0001
0000
1000
0000
0001
0000
1000
0000
0000
0000
0010
0100
0010
0100
0010
0000
,  // measure 9
0100
0000
0010
0000
1000
0000
0010
0000
0100
0000
0010
0100
0010
0100
0010
0000
,  // measure 10
0100
0000
0001
0000
0010
0000
0100
0000
0010
0000
0100
0010
0100
0000
0000
0000
,  // measure 11
1000
0000
0010
0000
0100
0000
0001
0000
0100
0000
0010
0100
0010
0100
0010
0000
,  // measure 12
1000
0000
0001
1000
0001
0000
1000
0000
0001
0000
1000
0000
0001
0000
1000
0000
,  // measure 13
0010
0000
0100
0000
0001
0000
0010
0000
0100
0000
1000
0100
1000
0100
1000
0000
,  // measure 14
0100
0000
1000
0000
0100
0000
0010
0000
0001
0010
0001
0000
0010
0000
0000
0000
,  // measure 15
0001
0000
0100
0000
0010
0000
1000
0000
0010
0000
1000
0010
1000
0010
1000
0000
,  // measure 16
0000
0000
0000
0000
,  // measure 17
0001
0100
0010
1000
0110
0000
0100
1000
,  // measure 18
0010
0100
0001
0010
0011
0000
0010
0100
,  // measure 19
1000
0010
0100
0001
1010
0000
0001
0100
,  // measure 20
0010
1000
1100
0000
0010
0001
0011
0000
,  // measure 21
0001
0100
0010
1000
0101
0000
0010
1000
,  // measure 22
0100
0010
0001
0010
1100
0000
0001
0010
,  // measure 23
0100
1000
0010
0001
0110
0000
0001
1000
,  // measure 24
0010
0100
0101
0000
0010
1000
0101
0000
,  // measure 25
1000
0000
0001
0000
0100
0000
0001
0100
0001
0000
0100
0000
0010
0000
1000
0000
,  // measure 26
0100
0100
0010
0010
0001
0001
0010
0010
,  // measure 27
0100
0000
1000
0100
1000
0000
0001
0010
0001
0000
1000
0010
1000
0000
0001
0100
,  // measure 28
0001
0000
0100
0000
0010
0000
1000
0000
0100
0000
0010
0001
0010
0000
0010
0000
,  // measure 29
0100
1000
0010
0100
0001
0100
0010
1000
,  // measure 30
0001
1000
0001
0000
1000
0000
0010
0000
0100
0000
0010
0000
0100
0000
0010
0000
,  // measure 31
1000
0010
1000
0000
0010
0000
0100
0000
0001
0100
0001
0000
0100
0000
0001
0000
,  // measure 32
0010
0000
0100
0000
1000
0000
0001
0000
0100
0000
0001
0100
0001
0100
0000
0000
,  // measure 33
0010
1000
0010
1000
0010
1000
0001
1000
,  // measure 34
0100
0000
1000
0000
0001
0000
0010
0000
0001
0010
0001
0010
0001
0000
0010
0000
,  // measure 35
0001
0100
0010
1000
0001
0010
0100
1000
,  // measure 36
0001
0000
0010
0000
0100
0000
1000
0000
0001
1000
0001
1000
0001
0000
1000
0000
,  // measure 37
0100
0010
0001
0010
0100
1000
0010
0100
,  // measure 38
0001
0000
0010
0000
0100
0000
1000
0000
0100
1000
0100
1000
0100
0000
1000
0000
,  // measure 39
0010
0100
0001
0010
0001
1000
0010
0100
,  // measure 40
0000
0000
0100
0000
0001
0000
0100
0000
0010
0100
0010
0000
0100
0000
0010
0000
,  // measure 41
1000
0000
0010
0000
0100
0000
0001
0000
0010
0000
0001
1000
0001
0000
0010
0000
,  // measure 42
0100
0000
1000
0000
0010
0000
0100
0000
0001
0000
1000
0001
1000
0000
0001
0000
,  // measure 43
1000
0000
0010
0000
0100
0000
0001
0000
0010
0000
0100
0010
0100
0000
0010
0000
,  // measure 44
0100
0000
1000
0000
0010
0000
0100
0000
0001
0000
0100
0010
0100
0000
0010
0000
,  // measure 45
1000
0010
0100
0001
0010
0100
1000
0010
,  // measure 46
0100
0000
0001
0000
1000
0000
0001
0100
0001
0000
0100
0010
0100
0000
0010
1000
,  // measure 47
0010
1000
0100
0010
0001
1000
0001
0100
,  // measure 48
0000
0000
0000
0000
,  // measure 49
0010
1000
0010
1000
0010
0000
0000
0000
1000
0000
1000
0000
0010
0000
0000
0000
,  // measure 50
0100
0000
0001
0000
0010
0000
0100
0000
0010
0000
0001
0010
0001
0000
0000
0000
,  // measure 51
0001
0100
0001
0100
0001
0000
0100
0000
0010
0000
1000
0000
0000
0000
0000
0000
,  // measure 52
0001
0100
0010
1000
0100
0000
0001
1000
,  // measure 53
0100
1000
0100
1000
0100
0000
0010
0000
0100
0000
0010
0000
0000
0000
0000
0000
,  // measure 54
0001
0100
0010
1000
0001
0100
0001
1000
,  // measure 55
0001
1000
0001
1000
0001
0000
1000
0000
0010
0000
0100
0000
0001
0000
0010
0000
,  // measure 56
0100
0000
1000
0000
0001
0000
0100
0000
0001
0100
0001
0100
0001
0000
1000
0000
,  // measure 57
0100
1000
0100
1000
0100
0000
1000
0000
0100
0000
0010
0000
0001
0000
0010
0000
,  // measure 58
0001
0010
0001
0010
0001
0000
0100
0000
0010
0000
1000
0000
0001
0000
0010
0000
,  // measure 59
0100
0010
0100
0010
0100
0000
1000
0000
0010
0000
0100
0000
0001
0000
0100
0000
,  // measure 60
0010
0100
0010
0100
0010
0000
1000
0000
0100
1000
0100
1000
0100
0000
1000
0000
,  // measure 61
0001
0010
0001
0010
0001
0000
0100
0000
0010
0000
1000
0000
0001
0000
0010
0000
,  // measure 62
0100
0010
0100
0010
0100
0000
1000
0000
0010
0000
0100
0000
0001
0000
1000
0000
,  // measure 63
0001
1000
0001
0000
1000
0000
0010
0000
1000
0010
1000
0010
1000
0000
0001
0000
,  // measure 64
0100
0000
0001
0000
0010
0000
0100
0000
1000
0000
0001
0100
0001
0100
0001
0000
,  // measure 65
0100
0000
0010
0000
1000
0000
0010
1000
0010
0000
1000
0000
0001
0000
0100
0000
,  // measure 66
0010
1000
0001
1000
0001
0000
0101
0000
,  // measure 67
0010
1000
0010
0000
1000
0000
0010
0000
0100
0000
0001
0000
0010
0000
0100
0000
,  // measure 68
1000
0001
0100
0001
1000
0000
1001
0000
,  // measure 69
1000
0010
1000
0000
0010
0000
0100
0000
0001
0000
0010
0000
0100
0000
1000
0000
,  // measure 70
0010
0100
0001
0100
0010
0100
0110
0000
,  // measure 71
0010
1000
0010
0000
1000
0000
0100
0000
0010
0000
0001
0000
0010
0000
0100
0000
,  // measure 72
1000
1000
0010
0100
0001
0000
0000
0000
;
