#TITLE:Dizzy;
#SUBTITLE:;
#ARTIST:Emoticon;
#TITLETRANSLIT:;
#SUBTITLETRANSLIT:;
#ARTISTTRANSLIT:;
#CREDIT:;
#BANNER:dizzy.img;
#BACKGROUND:dizzy-bg.img;
#LYRICSPATH:;
#CDTITLE:;
#MUSIC:dizzy.ogg;
#OFFSET:0.000;
#SAMPLESTART:31.595;
#SAMPLELENGTH:12.000;
#SELECTABLE:YES;
#DISPLAYBPM:200.000;
#BPMS:0.000=150.000,28.000=200.091,244.000=400.182,262.000=200.091;
#STOPS:;
#BGCHANGES:;
#GENRE:Synthcore;

//---------------dance-single - Renard----------------
#NOTES:
     dance-single:
     Renard:
     Challenge:
     15:
     1.000,1.000,0.782,0.023,1.000: // measure 1
0000
0000
0000
0000
,  // measure 2
0101
0000
0000
0000
0000
0000
0110
0000
0000
0000
0010
1000
0100
0000
0010
0000
,  // measure 3
0001
0000
0000
0000
0110
0000
0100
0000
0000
0000
0100
1000
0001
0000
0100
0000
,  // measure 4
0010
0000
0000
0000
1000
0000
0000
0000
0010
0000
0100
0001
0100
0000
0010
0000
,  // measure 5
1000
0100
0110
0100
1000
0001
0100
0010
,  // measure 6
1000
0000
0001
0000
0100
0000
0010
0000
0000
0000
0010
1000
0010
0000
0100
0000
,  // measure 7
0001
0010
0100
1000
0001
0010
0100
1000
,  // measure 8
M001
0000
0000
0000
0100
0000
0000
0000
0010
0000
1000
0010
1000
0000
0010
0000
,  // measure 9
1000
0010
0100
0001
1000
0001
0100
0010
1000
0001
1000
0100
0010
0001
0010
0100
,  // measure 10
1000
0001
0010
0100
1000
0001
1000
0010
0100
0001
1000
0001
0100
0001
1000
0100
,  // measure 11
0010
0001
1000
0001
0010
0100
1000
0001
1000
0001
0100
0010
1000
0001
1000
0001
,  // measure 12
0100
0001
1000
0100
0010
0001
1000
0001
0010
0100
1000
0001
0100
0010
1000
0001
,  // measure 13
1000
0100
1000
0001
0010
0001
1000
0010
1000
0001
0100
0001
1000
0000
0100
0000
,  // measure 14
0010
0001
1000
0001
0100
0010
1000
0100
1000
0001
0010
0001
1000
0001
1000
0001
,  // measure 15
0100
0001
1000
0100
1000
0001
0010
0001
0010
0100
1000
0001
0100
0000
0001
0000
,  // measure 16
1000
0100
1000
0001
0010
0100
1000
0100
0010
0001
0010
0100
1000
0010
0100
0000
,  // measure 17
0001
0100
0010
1000
0001
1000
0010
0100
0001
1000
0001
0010
0100
1000
0100
0010
,  // measure 18
0001
1000
0100
0010
0001
1000
0001
0100
0010
1000
0001
1000
0010
1000
0001
0010
,  // measure 19
0100
1000
0001
1000
0100
0010
0001
1000
0001
1000
0010
0100
0001
1000
0001
1000
,  // measure 20
0010
1000
0001
0010
0100
1000
0001
1000
0100
0010
0001
1000
0010
0100
0001
1000
,  // measure 21
0001
0010
0001
1000
0100
1000
0001
0100
0001
1000
0010
1000
0001
0000
0010
0000
,  // measure 22
0100
1000
0001
1000
0010
0100
0001
0010
0001
1000
0100
1000
0001
1000
0001
1000
,  // measure 23
0010
1000
0001
0010
0001
1000
0100
1000
0100
0010
0001
1000
0010
0000
1000
0000
,  // measure 24
0001
0010
0001
1000
0100
0010
0001
0010
0100
1000
0100
0010
0001
1000
0100
0010
,  // measure 25
0001
0000
0011
0010
0110
0000
1100
1000
,  // measure 26
1010
0000
1010
0010
0110
0000
0101
0001
,  // measure 27
0011
0000
0011
0010
0110
0100
1100
1001
,  // measure 28
0201
0010
1000
1000
0010
0001
1300
0000
,  // measure 29
1001
0000
0000
0000
1000
0100
0001
0000
0100
0000
0000
0000
1000
0010
0001
0000
,  // measure 30
0010
0000
0000
0000
1000
0010
0001
0000
0010
0000
0000
0000
0100
0001
0100
0000
,  // measure 31
1000
0000
0000
0000
0100
0010
1000
0000
0010
0000
0000
0000
0100
0001
0010
0000
,  // measure 32
0011
0000
0010
0000
0110
0000
0100
0000
1100
0000
1000
0000
0001
1000
0001
0000
,  // measure 33
1001
0000
0010
0000
0100
0001
0100
0010
1000
0000
0000
0000
0100
0000
0010
0000
,  // measure 34
0011
0000
0010
0000
0100
1000
0001
0010
0100
0000
0000
0000
1000
0000
0001
0000
,  // measure 35
0101
0000
0010
0000
1000
0010
0100
0001
1000
0000
0010
0000
1000
0000
0001
0000
,  // measure 36
0011
0000
0000
0000
0100
0010
0001
0010
0100
0000
0000
0000
1000
0000
0100
0000
,  // measure 37
1100
0000
0010
0000
0100
0001
0100
0010
1000
0000
0000
0000
0010
0000
0100
0000
,  // measure 38
0101
0000
1000
0000
0100
0010
0001
0010
0100
0000
1000
0000
0001
0000
0100
0000
,  // measure 39
0110
1010
1001
1100
0011
0000
0110
0000
,  // measure 40
1100
1001
0110
1001
1010
0000
0101
0000
,  // measure 41
1100
0011
0110
1001
0110
0000
1001
0000
,  // measure 42
1010
0101
1010
1001
0101
0000
0011
0000
,  // measure 43
0110
1001
1100
1001
0110
0000
1010
0000
,  // measure 44
0101
0101
0011
0011
1100
1100
1010
0000
,  // measure 45
1000
0100
0010
0001
0100
0010
1000
0100
0010
0000
0000
0000
1001
0000
0000
0000
,  // measure 46
1000
0100
0010
0001
1000
0001
0010
0100
1000
0001
1000
0100
0010
0001
1000
0001
,  // measure 47
1000
0010
0100
0001
1000
0001
0100
0010
1000
0001
1000
0010
0100
0001
1000
0001
,  // measure 48
1000
0100
0010
0100
1000
0001
0010
0100
0010
0001
1000
0100
1000
0001
0010
0001
,  // measure 49
1000
0010
0100
0010
1000
0001
0100
0010
0100
0001
1000
0010
1000
0001
0100
0001
,  // measure 50
1000
0100
1000
0001
0010
0100
1000
0001
0010
0001
1000
0100
0010
0000
0001
0000
,  // measure 51
1000
0100
1000
0001
0010
0100
1000
0001
0010
0001
1000
0100
0010
0001
0010
0100
,  // measure 52
1000
0100
1000
0001
0100
0001
1000
0100
1000
0001
0010
0001
1000
0000
0010
0000
,  // measure 53
0100
0001
0100
0010
1000
0010
1000
0100
0010
0001
0010
0001
0100
0010
1000
0000
,  // measure 54
0001
0010
0100
1000
0001
1000
0100
0010
0001
1000
0001
0010
0100
1000
0001
1000
,  // measure 55
0001
0100
0010
1000
0001
1000
0010
0100
0001
1000
0001
0100
0010
1000
0001
1000
,  // measure 56
0001
0010
0100
0010
0001
1000
0100
0010
0100
1000
0001
0010
0001
1000
0100
1000
,  // measure 57
0001
0100
0010
0100
0001
1000
0010
0100
0010
1000
0001
0100
0001
1000
0010
1000
,  // measure 58
0001
0010
0001
1000
0100
0010
0001
1000
0100
1000
0001
0010
0100
0000
1000
0000
,  // measure 59
0001
0010
0001
1000
0100
0010
0001
1000
0100
1000
0001
0010
0100
1000
0100
0010
,  // measure 60
0001
0010
0001
1000
0010
1000
0001
0010
0001
1000
0100
1000
0001
0000
0100
0000
,  // measure 61
0010
1000
0010
0100
0001
0100
0001
0010
0100
1000
0100
1000
0010
0100
0001
1000
,  // measure 62
1001
0000
0000
MMMM
0000
0000
0000
0000
0000
0000
0000
0000
0000
0000
0000
0000
,  // measure 63
0000
0000
0000
0000
,  // measure 64
0000
0000
0000
0000
,  // measure 65
0000
0000
0000
0000
,  // measure 66
0000
0000
0000
0000
0000
0000
MMMM
0000
2000
0000
0000
0000
3001
0010
0100
1000
,  // measure 67
0010
0100
0001
0010
0100
1000
0010
0100
0001
1000
0100
0010
0001
0100
0010
1000
,  // measure 68
0100
0010
0001
0100
0010
0000
0100
0000
1001
0000
0000
0000
0000
0000
0000
0000
;
