#TITLE:Disconnected Hazard;
#SUBTITLE:;
#ARTIST:Inspector K remixed by DM Ashura;
#TITLETRANSLIT:;
#SUBTITLETRANSLIT:;
#ARTISTTRANSLIT:;
#CREDIT:;
#BANNER:hazard.png;
#BACKGROUND:hazard-bg.png;
#LYRICSPATH:;
#CDTITLE:;
#MUSIC:hazard.ogg;
#OFFSET:0.000;
#SAMPLESTART:57.143;
#SAMPLELENGTH:12.000;
#SELECTABLE:YES;
#BPMS:0.000=210.000,96.000=105.000,112.000=210.000,245.000=105.000,261.000=210.000;
#STOPS:176.000=0.857
;
#BGCHANGES:;

//---------------dance-single - Renard----------------
#NOTES:
     dance-single:
     Renard:
     Challenge:
     10:
     0.933,1.000,0.638,0.000,0.558:
0000
0000
0000
0000
,
0000
0000
0000
0000
,
0000
0000
0000
0000
,
0000
0000
0000
0000
,
1000
0100
0010
0001
0010
0000
0100
0000
,
1100
0000
1010
0000
1001
0000
0001
0100
,
0001
0000
1000
0100
0010
0001
0000
1000
,
0100
0000
1000
0010
0100
0001
1000
0000
,
0101
0000
0000
0000
0001
0000
1000
0000
0000
0000
0100
0000
0000
0000
1000
0100
,
1000
0000
0010
0100
0001
0010
0100
0000
,
1000
0001
0100
0001
0010
0100
1000
0001
,
0100
0000
0001
0000
1000
0000
0001
0000
1000
0001
1000
0000
0001
0000
0000
0000
,
0101
0000
0000
0000
0001
0000
1000
0000
0000
0000
0100
0000
0010
0000
0001
1000
,
0001
0000
1000
0010
1000
0001
1000
0000
,
0001
0000
1000
0000
0010
0000
0100
0001
0100
0000
0010
0000
1000
0000
0001
1000
,
0100
0000
0010
0000
0001
0000
0100
0010
0100
0000
0010
0000
1000
0000
0000
0000
,
0101
0000
1010
0000
1000
0100
0010
0001
,
0010
0000
0010
0100
1000
0010
0100
0001
,
1000
0100
1000
0001
1000
0001
1000
0001
,
1000
0001
0100
0001
1000
0000
0000
0000
1001
0000
0000
0000
0110
0000
0000
0000
,
1001
0000
0101
0000
0010
1000
0100
0010
,
0110
0000
0100
1000
0010
0100
0001
1000
,
0100
1000
0001
0100
0001
0010
0001
1000
,
0001
0100
0001
0100
0001
0100
0001
0100
0001
0000
1000
0000
1000
0000
1000
0000
,
1100
0100
0010
0001
0011
0001
0010
0100
1000
0100
1000
0100
1100
1000
0010
0100
,
0001
0010
0100
1000
1100
1000
0010
0100
0001
0010
0100
1000
1100
1000
0001
0001
,
1001
0001
0100
0010
1010
1000
0100
0010
0001
0010
0100
1000
1100
1000
0010
0100
,
0001
0010
0100
0100
0110
0100
1000
0010
0100
0001
0100
0001
1001
1000
0100
1000
,
1001
0000
0000
0000
0001
0000
0100
0000
0000
0000
0010
0000
0000
0000
1000
0100
,
1000
0100
0010
0000
0011
0000
0000
0000
,
0110
0000
0000
0000
0100
0000
1000
0000
0000
0000
0010
0000
0000
0000
1000
0001
,
1000
0001
0100
0001
1000
0000
0001
0000
,
1000
1000
1000
1000
0000
0001
0000
0101
,
0000
0101
1001
0000
1001
0000
0110
0000
,
0000
0000
1010
0000
1001
0000
1000
0100
0010
0000
0000
0000
0001
0000
0000
0000
,
0010
0100
1000
0001
0010
0000
0100
0000
0010
0001
1000
0100
0010
0001
1000
0100
,
0010
0001
0100
1000
0100
0010
0001
0010
,
1000
0010
1000
0010
0100
0010
0100
1000
,
0100
0001
0010
0100
0001
0100
1000
0100
,
0001
0100
0010
0001
0011
0000
0011
0000
,
0010
0001
0010
1000
0010
0100
1000
0100
,
0001
0100
1000
0100
1100
0000
1000
0000
,
0010
0001
0010
0100
1000
0100
0001
0100
,
0010
1000
0100
0001
0100
0010
0001
0010
,
0011
0000
00MM
0000
1000
0000
1000
0000
1000
0000
1000
0000
0001
0100
0010
1000
,
0100
0010
0001
1000
0001
0000
0100
0000
0001
0000
1000
0000
0100
0000
0010
0000
,
0001
0000
1000
0001
0100
0000
0010
0000
1000
0000
0001
0000
0100
0000
0010
0000
,
1000
0100
0010
0001
1000
0100
1000
0010
,
0100
0000
0001
0000
0100
0000
0100
0000
0010
0000
0010
0000
1000
0001
0100
0000
,
0010
0000
1010
0000
0101
0001
0100
0010
,
1000
0000
0100
0010
0001
0000
0100
0000
0010
0000
1000
0000
0100
0000
0010
0000
,
0011
0000
0000
0000
0010
0000
0100
0000
1000
0000
0010
1000
0010
0000
0100
0000
,
0001
0000
0010
0001
0010
0000
0100
0000
1000
0000
0001
0100
0001
0000
0100
0000
,
0010
0000
0010
1000
1010
0000
1000
0100
,
1100
0000
0100
0010
0110
0000
0010
0001
,
0011
0000
0001
0100
0010
1000
0100
0010
,
0001
0000
1000
0000
0001
0100
0001
1000
0001
0000
0000
0000
1001
0000
0000
0000
,
1010
0000
0001
0100
0101
0000
0001
0010
,
0110
0000
0100
1000
1100
0000
1000
0010
,
1010
0000
0010
0100
0001
0010
0100
1000
,
0001
0000
0100
0000
0001
0100
0001
0100
0001
0100
0001
0100
0001
0000
0000
0000
,
0101
0000
0000
0000
0001
1000
0100
0100
1100
0000
1000
0010
0100
0001
0010
0010
,
0011
0000
0000
0000
0010
0000
0100
0000
1000
0000
0001
0000
0100
0000
0010
0000
1000
0100
0010
0001
1000
0000
0001
0000
0101
0000
0000
0000
0001
0000
1000
0000
,
0100
0010
0001
0000
0010
0000
0100
1000
1010
0000
0010
0100
0001
0010
0100
1000
,
1100
0000
0000
0000
1000
0000
0010
0000
0100
0000
0001
0100
0001
0000
1000
0100
0010
0000
0100
1000
0001
0000
0100
0000
0010
0000
0000
0000
1000
0000
0100
0000
,
0010
0001
0010
0100
1001
0000
0000
0000
0000
0000
0000
0000
0000
0000
0000
0000
;

//---------------dance-single - Renard----------------
#NOTES:
     dance-single:
     Renard:
     Hard:
     9:
     0.669,0.818,0.262,0.000,0.000:
0000
0000
0000
0000
,
0000
0000
0000
0000
,
0000
0000
0000
0000
,
0000
0000
0000
0000
,
0001
0010
0100
1000
0001
0000
0000
0000
,
0100
0000
0100
0000
0100
0000
0000
0001
,
1000
0000
0100
0010
0001
0000
0000
0010
,
0100
0000
1000
0001
0100
0010
0000
0000
,
1000
0001
0100
0010
0000
1000
0000
0100
,
0010
0000
0001
0010
0100
1000
0001
0000
,
0100
0010
1000
0100
0010
0001
0100
0010
,
1000
0100
0010
0001
0100
0010
1000
0000
,
0001
0000
0100
0010
0000
1000
0000
0100
,
0010
0000
0001
0010
0100
1000
0001
0000
,
0100
0010
1000
0100
0010
0001
0100
0010
,
1000
0100
0010
0001
0100
0010
1000
0000
,
0001
0100
0001
1000
,
1100
1000
0001
0010
,
0100
1000
0001
0100
0010
1000
0100
0010
,
0001
1000
0001
0000
0101
0000
1001
0000
,
1100
0000
0010
0001
0010
0000
0100
0000
,
1100
0000
1000
0000
0001
0100
0010
0000
,
1000
0001
0100
0010
1000
0100
0010
0001
,
1000
0010
1000
0000
1001
0000
1000
0000
,
0100
0000
MM11
00MM
0010
0100
11MM
MM00
,
1000
0001
0100
0001
1000
0100
M11M
0MM0
,
0010
0000
1001
0000
0001
0100
M11M
0MM0
,
1M1M
M0M0
1MM1
M00M
1000
0100
0010
0001
,
1000
0000
0001
0100
0000
0010
0000
1000
,
0100
0010
0001
0000
1000
0000
0001
0000
,
0010
0000
0100
1000
0000
0010
0000
0100
,
0001
1000
0100
0010
0001
0000
1000
0000
,
0001
0000
0100
0010
0000
1000
0000
0100
,
0010
0001
1000
0000
0001
0000
0100
0000
,
0010
0000
0100
0001
0000
0010
0100
1000
,
0001
0010
0100
1000
0001
0100
0010
1000
,
0100
0000
0010
0001
0000
0010
0100
1000
,
0001
0010
0100
1000
0010
0100
0001
0010
,
0100
0000
0010
0001
1000
0010
0100
0000
,
0001
0100
0010
1000
0100
0010
0001
0000
,
1000
0000
0001
0100
0000
0010
0000
1000
,
0100
0010
0001
0010
0100
1000
0001
0100
,
0010
0000
1000
0100
0000
0010
0000
0001
,
0010
0100
1000
0001
0100
0010
1000
0001
,
MM00
MMM0
10MM
1M0M
1MM0
1M0M
10MM
1M0M
,
1MM0
0000
1000
0000
0001
0100
0000
0010
,
0000
1000
0100
0000
0010
0001
0010
0100
,
1000
0000
0001
0100
0010
1000
0100
0010
,
0001
0010
0100
1000
0001
0100
0010
1000
,
0100
0000
1000
0000
0100
0010
0000
0001
,
0000
0010
0100
0000
1000
0010
0100
0001
,
0010
0000
0100
0010
0001
0010
0100
1000
,
0001
0100
0010
1000
0100
0010
0001
0010
,
0100
0000
1000
0100
0010
0100
1000
0010
,
0100
0010
1000
0100
0010
0100
1000
0010
,
0100
0001
0010
0100
0001
0100
0010
0001
,
0100
0010
0100
0001
0010
0100
0010
0001
,
0010
0000
0001
0000
1000
0001
0000
0100
,
0000
0010
1000
0100
0010
0001
0010
0100
,
1000
0000
0001
0100
0010
0100
1000
0100
,
0010
0100
0001
0010
0100
0010
1000
0010
,
0100
0010
0001
1000
1MM1
M001
0100
0010
,
M11M
1MM0
0100
1000
1MM1
100M
0001
0010
,
MM11
10MM
0001
0100
M11M
0M10
1000
0100
,
M11M
0M10
0001
1000
1MM1
M10M
0010
1000
,
M1M1
1M1M
1MM1
0000
0000
0000
0000
0000
;

//---------------dance-single - Renard----------------
#NOTES:
     dance-single:
     Renard:
     Medium:
     7:
     0.438,0.558,0.125,0.000,0.000:
0000
0000
0000
0000
,
0000
0000
0000
0000
,
0000
0000
0000
0000
,
0000
0000
0000
0000
,
1000
1000
1000
0000
,
0001
0000
0001
0000
0001
0000
0000
0010
,
0100
0000
1000
0000
0001
0000
0000
0100
,
0010
1000
0001
0000
,
1000
0000
0001
0100
0000
0001
0000
0000
,
1000
0000
0100
0000
,
0010
0001
1000
0001
,
0100
0000
0010
0000
1000
0010
1000
0000
,
0001
0000
0100
0001
0000
1000
0000
0100
,
1000
0001
0010
0001
,
1000
0001
0100
0001
,
1000
0000
0001
0000
1000
0001
1000
0000
,
0001
0000
0100
0001
0000
1000
0000
0100
,
1000
0001
0010
0001
,
1000
0010
0100
0001
,
1000
0001
1000
0000
0001
0000
0000
0000
,
1000
0000
0100
0010
0000
0001
0000
1000
,
0001
1000
0001
0100
,
0010
1000
0100
0010
,
0001
1000
0001
0000
1000
0000
0000
0000
,
0001
1001
0000
0110
,
0000
1001
0000
0110
,
0000
0110
0000
1001
,
0000
0110
0000
1001
,
1000
0000
1000
0001
0000
0001
0000
0001
,
1000
0001
1000
0000
,
0001
0000
0001
1000
0000
1000
0000
1000
,
0001
1000
0001
0000
,
1000
0000
1000
0001
0000
0001
0000
0001
,
1000
0001
1000
0000
,
0001
0000
0001
1000
0000
1000
0001
0000
,
1000
0001
1000
0000
0001
0000
1000
0000
,
0001
0100
0010
1000
,
0100
0010
0001
0100
,
0010
1000
0010
0100
,
0001
0010
0100
1000
,
0100
0010
0001
1000
,
0010
0100
0001
0100
,
0010
1000
0001
0100
,
0010
1000
0001
1000
,
0000
0000
0001
0000
0001
0000
0001
1000
,
0001
0000
1000
0000
1000
0001
0000
0001
,
0000
0100
0010
1000
,
0100
0010
0001
1000
,
0001
0000
0100
0000
0010
0000
1000
0001
,
1000
0000
0100
0000
0100
0010
0000
0010
,
0000
0010
0001
0000
1000
0000
0001
0000
,
0100
0010
1000
0001
,
1000
0000
0100
0000
0010
0000
0001
1000
,
0001
0000
1000
0000
1000
0001
0000
0100
,
0000
0010
1000
0000
0001
0000
1000
0000
,
0100
0010
0001
1000
,
0001
0000
0100
0000
0010
0000
1000
0001
,
1000
0000
0001
0000
1000
0001
0000
1000
,
0000
0001
1000
0000
0010
0000
0100
0000
,
0010
0100
1000
0001
,
1000
0000
0001
1000
0001
0000
1000
0000
,
0100
0010
0100
0000
,
0110
0000
0010
0000
1000
0000
0001
0100
,
0010
1000
0100
0010
0001
0010
0100
1000
,
0001
0100
0010
1000
0100
0010
0001
1000
,
1001
0010
1001
0000
0000
0000
0000
0000
;

//---------------dance-single - Renard----------------
#NOTES:
     dance-single:
     Renard:
     Easy:
     5:
     0.363,0.483,0.148,0.000,0.000: // measure 1
0000
0000
0000
0000
,  // measure 2
0000
0000
0000
0000
,  // measure 3
0000
0000
0000
0000
,  // measure 4
0000
0000
0000
0000
,  // measure 5
0001
1000
0001
0000
,  // measure 6
0100
0010
0100
0000
,  // measure 7
0010
0000
0010
0000
,  // measure 8
0100
0000
0100
0000
,  // measure 9
0001
0100
0010
1000
,  // measure 10
0100
0010
0001
1000
,  // measure 11
0001
0100
0010
1000
,  // measure 12
0001
0000
1000
0000
,  // measure 13
0001
0100
0010
1000
,  // measure 14
0100
0010
0001
1000
,  // measure 15
0001
0100
0001
0010
,  // measure 16
0001
1000
0001
1000
,  // measure 17
0001
0000
1000
0010
,  // measure 18
0100
0000
0010
0000
,  // measure 19
1000
0001
0100
0001
,  // measure 20
1000
0100
0010
0000
,  // measure 21
0001
0000
1000
0010
,  // measure 22
0100
0000
0001
0000
,  // measure 23
1000
0100
0010
0001
,  // measure 24
1000
0001
0100
0000
,  // measure 25
0010
0110
0010
0110
,  // measure 26
0100
0110
0100
0110
,  // measure 27
0001
1001
0001
1001
,  // measure 28
1000
1001
1000
1001
,  // measure 29
1000
0001
1000
0001
,  // measure 30
1000
0001
1000
0000
0001
0000
0000
0000
,  // measure 31
0001
1000
0001
1000
,  // measure 32
0001
1000
0001
0000
1000
0000
0000
0000
,  // measure 33
0010
0100
0010
0100
,  // measure 34
0010
0100
0010
0000
0100
0000
0000
0000
,  // measure 35
0010
0100
0010
0100
,  // measure 36
0010
0100
0010
0000
0100
0000
0000
0000
,  // measure 37
0001
1000
0001
1000
,  // measure 38
0001
1000
0001
1000
,  // measure 39
0010
0100
0010
0100
,  // measure 40
0010
0100
0010
0100
,  // measure 41
0001
1000
0001
1000
,  // measure 42
0001
1000
0001
1000
,  // measure 43
0010
1000
0001
0100
,  // measure 44
0001
0010
0100
1000
,  // measure 45
0000
0000
0000
0000
,  // measure 46
0000
0000
0001
0000
0001
0010
0000
0010
,  // measure 47
0000
0010
0100
0000
0000
0000
1000
0000
,  // measure 48
0000
0010
0000
0100
,  // measure 49
0000
0001
0000
0100
,  // measure 50
0000
0000
0010
0000
0010
1000
0000
1000
,  // measure 51
0000
1000
0010
0000
0000
0000
0100
0000
,  // measure 52
0000
0001
0000
1000
,  // measure 53
0000
0100
0000
0010
,  // measure 54
0000
0000
0001
0000
0001
1000
0000
1000
,  // measure 55
0000
1000
0001
0000
0000
0000
1000
0000
,  // measure 56
0000
0010
0000
0100
,  // measure 57
0000
0001
0000
0010
,  // measure 58
0000
0000
0100
0000
0100
1000
0000
1000
,  // measure 59
0000
1000
0001
0000
0000
0000
0100
0000
,  // measure 60
0000
0010
0000
1000
,  // measure 61
0000
0010
0000
0100
,  // measure 62
0000
0000
0001
0000
1001
0000
1000
1000
,  // measure 63
1000
0000
0001
0000
1001
0000
1000
1000
,  // measure 64
1000
0000
1000
0000
1001
0000
0001
0001
,  // measure 65
0001
0000
1000
0000
1001
0000
1000
0001
,  // measure 66
1000
0001
1001
0000
0000
0000
0000
0000
;
