#TITLE:Disconnected (Sanxion7 Remix);
#SUBTITLE:;
#ARTIST:Inspector K remixed by Saxxonpike;
#TITLETRANSLIT:;
#SUBTITLETRANSLIT:;
#ARTISTTRANSLIT:;
#CREDIT:;
#BANNER:disco.png;
#BACKGROUND:disco-bg.png;
#LYRICSPATH:;
#CDTITLE:;
#MUSIC:disco.ogg;
#OFFSET:0.000;
#SAMPLESTART:30.720;
#SAMPLELENGTH:12.000;
#SELECTABLE:YES;
#BPMS:0.000=125.000,168.000=62.500,184.000=125.000;
#STOPS:;
#BGCHANGES:;

//---------------dance-single - Renard----------------
#NOTES:
     dance-single:
     Renard:
     Challenge:
     10:
     0.762,1.000,0.573,0.035,0.929:
0000
0000
0000
0000
,
0000
0000
0000
0000
,
0000
0000
0000
0000
,
0000
0000
1001
0000
0000
0001
0010
0100
1000
0000
1000
0000
1001
0000
0000
0000
,
0001
0010
1000
0010
0001
0010
0100
0010
0001
0100
0010
0100
0001
1000
0001
1000
,
0001
0010
1000
0010
0001
0010
0100
0010
0001
0100
0010
0100
0001
1000
0001
1000
,
0001
0010
1000
0010
0001
0010
0100
0010
0001
0100
0010
0100
0001
1000
0001
1000
,
0001
0000
1001
0000
0000
0100
0100
0100
0100
0000
0100
0000
0110
0000
0110
0000
,
1010
0000
0100
0000
0001
0000
0010
0100
0000
1000
0001
0000
1001
0000
0001
0100
,
0010
0000
1000
0000
1100
0000
1000
0001
0000
0010
0001
0000
1001
0000
0001
0100
,
0010
0000
1000
0000
1100
0000
1000
0100
0000
0010
0001
1000
0001
0000
0100
0001
,
1000
0000
0001
0000
1001
0000
1000
0100
0010
0000
0001
0000
1001
0000
0000
0000
,
0001
0000
0100
0000
0101
0000
0100
0010
0000
1000
0010
1000
0100
0000
0010
0100
,
0010
0000
0001
0000
0011
0000
0010
0100
0000
1000
0001
0100
0001
0000
1000
0100
,
1000
0000
0001
0000
1001
0000
0001
0100
0000
0010
1000
0100
1000
0000
0100
0000
,
1000
0000
1010
0000
0000
0010
0100
0001
0010
0000
0100
0000
1001
0000
0000
0000
,
0001
0100
0001
0100
0001
0000
0100
0000
0010
0000
1010
0000
0000
0000
1000
0000
,
0100
0000
0000
0000
0000
0000
0010
0000
0001
0000
0010
0000
0001
0000
0000
0000
0000
0000
0010
0000
0000
0100
0000
0000
0000
0000
0000
1000
0000
0000
0001
0000
0000
0000
0000
0000
0100
0000
0000
0000
0000
0000
0001
0000
0000
0000
0000
0000
,
1000
0000
0100
1000
0010
0000
0100
0000
0001
0000
1000
0000
0100
0000
1000
0000
,
0001
0000
1001
0000
0001
0100
0001
1000
0001
0000
1100
0000
1001
0000
0000
0000
,
1000
0000
1001
0000
0001
0000
0100
0010
1000
0000
1010
0000
0000
0000
1000
0000
,
0100
0000
0000
0000
0000
0000
0010
0000
0001
0000
0010
0000
0001
0000
0000
0000
0000
0000
0100
0000
0000
0001
0000
0000
1000
0000
0000
0010
0000
0000
1000
0000
0000
0000
0000
0000
1001
0000
0000
0000
0000
0000
1000
0000
0000
0100
0000
0000
,
1000
0000
0001
0000
1001
0000
0001
0100
0010
1000
0100
0000
0010
0000
0100
1000
,
0010
0000
1010
0000
0000
0010
1000
0001
0010
0000
0100
0000
0110
0000
0000
0000
,
1001
0000
0100
0000
1010
0000
0200
0002
0000
0000
0000
0000
0003
0000
0310
0000
,
1000
0010
0000
0100
0001
0000
0100
0000
0000
0001
0000
1000
0100
0000
0010
0000
,
0000
0001
0000
0010
0100
0000
1000
0000
0000
0001
0000
0100
0001
0000
1000
0000
,
0000
0100
0000
1000
0010
0000
0100
0000
0000
0001
0000
1000
0100
0000
1000
0000
,
0000
0001
0000
0010
0001
0000
1000
0000
0001
0000
0100
0000
0110
0000
0000
0000
,
0000
0010
0000
1000
0010
0000
1000
0000
0000
0001
0000
0010
0100
0000
1000
0000
,
0000
0001
0000
0100
0001
0000
1000
0000
0000
0100
0000
1000
0010
0000
0100
0000
,
0000
0001
0000
0010
0100
0000
1000
0000
0000
0010
0000
0100
0001
0000
1000
0000
,
0100
0000
0010
0000
0000
0001
0010
0100
1000
0000
0001
0000
1001
0000
0000
0000
,
1001
0000
0000
0110
0000
0000
1001
0000
0000
0000
0000
0000
0000
0000
0000
0000
,
1000
0000
0100
0000
1100
0000
0100
0010
0001
1000
0100
1000
0001
1000
0001
0100
,
0101
0000
0000
1001
0000
0000
1100
0000
0000
0000
0000
0000
0000
0000
0000
0000
,
1000
0000
0001
0100
0001
0000
1000
0100
0010
0001
0010
0100
1000
0000
0001
0000
,
1001
0000
0000
1010
0000
0000
1001
0000
0000
0000
0000
0000
0000
0000
0000
0000
,
1000
0000
0100
0010
0001
0000
0010
0100
1000
0001
0100
0010
1000
0001
1000
0100
,
1100
0000
0000
1100
0000
0000
1010
0000
0000
0000
0000
0000
0000
0000
0000
0000
,
1000
0000
0010
0000
0100
0001
0010
0100
1000
0000
1001
0000
0110
0000
1001
0000
,
2100
0000
0000
0000
3001
0010
0100
2000
0000
0000
0000
0000
0000
0000
3000
0000
,
0001
0000
0001
0100
0010
0000
0010
1000
0100
0000
0100
0010
0100
0000
0100
1000
0010
0000
0100
0000
0001
0000
0010
0000
0100
0000
1000
0000
0001
0000
0100
0000
,
0010
0000
0010
1000
0100
0000
0100
1000
0001
0000
0001
0010
0001
0000
0001
0100
0010
0000
1000
0000
0100
0000
0010
0000
0001
0000
0010
0000
0100
0000
1000
0000
,
0010
0000
0010
1000
0100
0000
0100
0010
0001
0000
0001
0010
0100
0000
0100
1000
0010
0000
0100
0000
0001
0000
0010
0000
0100
0000
1000
0000
0001
0000
0100
0000
,
0001
0000
0001
1000
0100
0000
0100
0010
0001
0000
0001
0010
0100
0000
1000
0010
0100
0001
0100
0001
1000
0010
1000
0010
1000
0100
1000
0100
0010
0001
0010
0001
,
0010
0001
0010
0000
0011
0000
0010
0100
1000
0010
1000
0000
1010
0000
1000
0100
,
0010
0001
1000
0000
1001
0000
0001
0100
0010
1000
0100
0000
1100
0000
0100
1000
,
0010
0100
0001
0000
0101
0000
0001
1000
0100
1000
0001
0000
1001
0000
1000
0001
,
0100
0010
1000
0100
0010
0000
0100
1000
0010
0100
0001
0000
1001
0000
1100
0000
,
1001
0000
1000
0001
0100
0000
0001
1000
0010
1000
0100
0000
1100
0000
0100
1000
,
0010
0100
0001
0000
0101
0000
0001
1000
0100
0010
0001
0000
0011
0000
0001
0010
,
0100
1000
0010
1000
1010
0000
1000
0100
0010
0001
0010
0001
0011
0000
0001
0010
,
0100
1000
0001
0000
0101
0000
0001
1000
0100
1000
1001
0000
0001
0100
1010
0000
,
1001
0000
0000
0000
;

//---------------dance-single - Renard----------------
#NOTES:
     dance-single:
     Renard:
     Hard:
     8:
     0.465,0.492,0.104,0.000,0.308:
0000
0000
0000
0000
,
0000
0000
0000
0000
,
0000
0000
0000
0000
,
0000
0001
0000
1000
0001
1000
0100
0000
,
1000
0001
1000
0001
,
0100
0010
0100
0010
,
1000
0010
1000
0010
0100
0001
0100
0001
,
1000
0000
0100
0000
0000
0010
0001
0010
0001
0000
0010
0000
0001
0000
0000
0000
,
1000
0000
0001
0000
0100
0000
0001
1000
0000
0100
1000
0000
0001
0000
0010
0000
,
0001
0000
1000
0000
0010
0000
0100
0001
0000
0100
0010
0000
1000
0000
0001
0000
,
1000
0000
0100
0000
0010
0000
0001
1000
0000
0001
0100
0000
0010
0000
1000
0000
,
0100
0000
0010
0000
0001
0000
1000
0001
1000
0000
0001
0000
0100
0000
0000
0000
,
0001
0000
1000
0000
0100
0000
0010
0001
0000
1000
0001
0000
0100
0000
0010
0000
,
1000
0000
0001
0000
0010
0000
0100
1000
0000
0001
0010
0000
0001
0000
1000
0000
,
0010
0000
0100
0000
0001
0000
1000
0100
0000
0010
0001
0000
1000
0000
0001
0000
,
0100
0000
0010
0000
0000
0100
0010
0100
0010
0000
0100
0000
0010
0000
0000
0000
,
1000
0000
0001
0000
0100
0000
0001
1000
0000
0100
1000
0000
1001
0000
0000
0000
,
1000
0000
0001
0000
0010
0000
0001
1000
0000
0000
0000
0000
1001
0000
0000
0000
,
0100
0000
0001
0000
1000
0000
0100
0010
0000
0001
1000
0000
1001
0000
0000
0000
,
1000
0010
0100
0000
0001
1000
0100
0000
,
1000
0000
0001
0000
0010
0000
0100
1000
0000
0001
0100
0000
0101
0000
0000
0000
,
0001
0000
1000
0000
0100
0000
0010
0001
0000
0000
1000
0000
0001
0000
0000
0000
,
1000
0000
0010
0000
0100
0000
0001
0010
0000
0100
1000
0000
1001
0000
0000
0000
,
1000
0000
0100
0000
0010
0000
0001
1000
0001
0000
1000
0000
0010
0000
0000
0000
,
0100
0001
0100
0001
0000
0000
0000
0000
,
0100
0000
0001
0000
1000
0000
0100
0000
0000
0010
0000
0001
0010
0000
0100
0000
,
0000
1000
0000
0001
0010
0000
0001
0000
0000
1000
0000
0001
0100
0000
0010
0000
,
1000
0000
0100
0000
0010
0000
0001
0000
0000
1000
0000
0001
0100
0000
0010
0000
,
0000
1000
0000
0100
0010
0000
0001
0000
0000
0000
0010
0000
0100
0000
0100
0000
,
1000
0000
0001
0000
0100
0000
0010
0000
0000
1000
0000
0010
1000
0000
0001
0000
,
0000
0100
0000
0001
1000
0000
0100
0000
0000
0010
0000
0001
1000
0000
0001
0000
,
0000
0100
0000
0010
1000
0000
0001
0000
0000
1000
0000
0100
0010
0000
0001
0000
,
0000
1000
0000
0001
0100
0000
0010
0000
0000
0000
1000
0000
0001
0000
0100
0000
,
0101
0000
0000
0000
,
0001
0000
0100
0000
0010
0000
1000
0001
0000
0100
0010
0000
1000
0000
0000
0000
,
1001
0000
0000
0110
0000
0000
1001
0000
0000
0000
0000
0000
0000
0000
0000
0000
,
1000
0000
0100
0000
0000
0010
0001
0010
0001
0000
0010
0000
0001
0000
0000
0000
,
1000
0000
0000
0001
0000
0000
1000
0000
0000
0000
0000
0000
0000
0000
0000
0000
,
0001
0100
0010
0000
1000
0000
0001
0000
,
0100
0000
0000
0010
0000
0000
0010
0000
0000
0000
0000
0000
0100
0000
0000
0000
,
0001
0000
1000
0000
0000
0100
0010
0100
0010
0000
0100
0000
0010
0000
0000
0000
,
0100
0000
0000
0000
,
1000
0000
1000
0000
1000
0000
1000
1000
1000
0000
1000
0000
1000
0000
1000
1000
,
1000
1000
1000
1000
1000
0000
1000
0000
,
0001
0000
0001
0000
0001
0000
0001
0001
0001
0000
0001
0000
0001
0000
0001
0001
,
0001
0000
0001
0000
0001
0000
0001
0001
0001
0000
0001
0000
1000
0001
1000
0000
,
0001
0100
0001
1000
0100
0010
0001
1000
,
0010
0100
0001
0000
0100
0000
1001
0000
,
1000
0001
0010
0100
1000
0001
0100
0010
,
1000
0000
0001
0000
1000
0000
0100
1000
0000
0001
1000
0000
0001
0000
0000
0000
,
1000
0100
0010
0001
1000
0010
0100
0001
,
1000
0000
0100
0000
1000
0000
0001
0010
0000
0001
1000
0000
0010
0000
0100
0000
,
0001
1000
0100
0010
0001
1000
0010
0100
,
0001
0000
0000
0000
1001
0000
0000
1000
0000
0100
0010
0000
0001
0000
1000
0000
,
1001
0000
0000
0000
;

//---------------dance-single - Renard----------------
#NOTES:
     dance-single:
     Renard:
     Medium:
     5:
     0.282,0.352,0.122,0.009,0.000:
0000
0000
0000
0000
,
0000
0000
0000
0000
,
0000
0000
0000
0000
,
0000
0000
0000
0000
,
1000
0000
1000
0001
,
0100
0000
0100
0001
,
0010
0000
0010
0100
,
1000
0000
0001
0000
0100
0010
0100
0000
,
0010
0000
1000
0000
0000
0001
0100
0000
,
0001
0000
0010
0000
0000
0100
1000
0000
,
0001
0000
0010
0001
,
1000
0000
0010
1000
,
0001
0000
0100
0000
0000
0010
1000
0000
,
0001
0000
0100
0000
0000
0001
0010
0000
,
0100
0000
1000
0000
0000
0001
0100
0000
,
0010
1000
0100
1001
,
0001
0000
0100
0010
0000
1000
0001
0000
,
0100
0000
0010
1000
0000
0100
0010
0000
,
0001
0000
1000
0010
0000
0100
0001
0000
,
1000
0000
0100
0010
0000
0001
1000
0000
,
0001
0100
0000
0010
0000
1000
0000
0000
,
0001
0100
0000
0010
,
1000
0100
0000
0010
,
0001
1000
0000
0001
0100
0010
1000
0000
,
0001
0000
0000
0000
,
0100
0110
0000
1001
,
1000
0100
0010
0001
,
1000
0110
0000
1001
,
0001
0000
0010
0000
0100
1000
0100
0000
,
1000
0000
0001
0000
0000
0010
0001
0000
,
1000
0000
0010
0000
0000
0100
0001
0000
,
1000
0000
0100
0000
0010
0001
0010
0000
,
0100
1000
0001
0100
0010
1000
0001
0000
,
1000
0001
1000
0000
,
0001
0110
0000
0110
,
1000
0001
1000
0000
,
1000
0110
0001
0110
,
1000
0001
1000
0000
,
0001
0110
1000
0110
,
1000
0001
1000
0000
,
0001
0110
1000
0110
,
0002
0000
0000
0000
,
1003
0000
1000
0001
0100
0000
0100
0001
,
0010
0000
0010
0010
0001
0000
0001
1000
,
0100
1000
0010
0100
0001
0000
0000
1000
,
0001
0100
0001
0010
,
0100
0000
1000
0000
0100
1000
0100
0000
,
0010
0000
0001
0000
1000
0001
1000
0000
,
0001
0100
0010
0000
1000
0010
1000
0000
,
0100
1000
0100
1000
0100
1000
0100
1000
,
0001
0000
0010
0000
0001
1000
0001
0000
,
0100
0000
0010
0000
1000
0001
1000
0000
,
0010
0100
0010
0000
1000
0001
1000
0000
,
0001
0000
0100
0000
0010
1000
0001
0000
,
0110
0000
0000
0000
;

//---------------dance-single - Renard----------------
#NOTES:
     dance-single:
     Renard:
     Easy:
     2:
     0.220,0.352,0.156,0.122,0.000: // measure 1
0000
0000
0000
0000
,  // measure 2
0000
0000
0000
0000
,  // measure 3
0000
0000
0000
0000
,  // measure 4
0000
0000
0000
0000
,  // measure 5
1000
1000
1000
1000
,  // measure 6
0001
0001
0001
0001
,  // measure 7
1000
1000
1000
1000
,  // measure 8
0001
0000
0001
0110
,  // measure 9
0010
0000
0100
0010
,  // measure 10
1000
0000
0001
1000
,  // measure 11
0001
0000
0010
0001
,  // measure 12
1000
0000
0100
1000
,  // measure 13
0001
0000
0100
0001
,  // measure 14
1000
0000
0010
0100
,  // measure 15
0001
0000
0010
0100
,  // measure 16
1000
0001
0100
0010
,  // measure 17
1000
0001
0000
0110
,  // measure 18
0000
1001
0000
0110
,  // measure 19
1000
0001
0000
0110
,  // measure 20
0000
1010
0000
0101
,  // measure 21
1000
0001
0000
0110
,  // measure 22
0000
0101
0000
1010
,  // measure 23
1000
0001
0100
0010
,  // measure 24
1000
1000
0001
0001
,  // measure 25
1000
0000
0000
0000
,  // measure 26
0001
0001
0100
0100
,  // measure 27
0010
0000
0010
0000
,  // measure 28
1000
0000
0100
0000
,  // measure 29
0010
0000
0001
0000
,  // measure 30
1000
1000
0100
0100
,  // measure 31
0010
0000
0001
0000
,  // measure 32
1000
0001
0100
0010
,  // measure 33
1000
0001
0100
0001
,  // measure 34
1000
0000
0000
0000
,  // measure 35
0001
0110
0000
0110
,  // measure 36
0001
0000
0000
0000
,  // measure 37
1000
0110
0000
0110
,  // measure 38
0001
0000
0000
0000
,  // measure 39
0010
1001
0000
1001
,  // measure 40
1000
0000
0000
0000
,  // measure 41
0100
1001
0000
1001
,  // measure 42
0020
0000
0000
0000
,  // measure 43
0230
0302
2003
0000
,  // measure 44
3200
0320
0032
0203
,  // measure 45
0320
2030
0002
3000
,  // measure 46
0203
0320
2000
3030
,  // measure 47
1000
0001
0100
0001
,  // measure 48
0010
0000
0001
1000
,  // measure 49
0100
1000
0001
1000
,  // measure 50
0010
0000
1000
0000
,  // measure 51
0001
1000
0001
0100
,  // measure 52
0001
0000
0010
0000
,  // measure 53
0001
1000
0010
1000
,  // measure 54
0100
0000
1000
0001
,  // measure 55
0100
0000
0000
0000
;
