#TITLE:Digital;
#SUBTITLE:;
#ARTIST:Jaql;
#TITLETRANSLIT:;
#SUBTITLETRANSLIT:;
#ARTISTTRANSLIT:;
#CREDIT:;
#BANNER:digital.png;
#BACKGROUND:digital-bg.png;
#LYRICSPATH:;
#CDTITLE:;
#MUSIC:digital.ogg;
#OFFSET:0.000;
#SAMPLESTART:21.923;
#SAMPLELENGTH:12.000;
#SELECTABLE:YES;
#BPMS:0.000=175.000;
#STOPS:;
#BGCHANGES:;

//---------------dance-single - Renard----------------
#NOTES:
     dance-single:
     Renard:
     Challenge:
     11:
     0.768,0.815,0.158,0.020,0.468:
0000
0000
0000
0000
,
0000
0000
0000
0000
,
0000
0000
0000
0000
,
0000
0000
0000
0000
,
1000
0000
0001
0100
0001
0000
0000
0000
0100
0000
0010
0000
1000
0000
0000
0000
,
0100
0000
0010
0000
0000
0100
1000
0000
,
0010
0000
0100
0010
0100
0000
0000
0000
0010
0000
1000
0000
0001
0000
0100
0000
,
0010
1000
0001
1000
0100
1000
0001
0010
0001
0000
0001
0000
0001
0000
0000
0000
,
1000
0000
0001
0000
0100
0000
0010
1000
0010
0100
0001
0000
0010
0000
0100
0010
,
0001
0000
0010
0000
0100
0000
1000
0001
0100
0010
1000
0000
0001
0000
0100
0010
,
1000
0000
0001
0000
0100
0000
0010
1000
0100
0010
0001
0000
0010
0000
0100
1000
,
0001
0000
0100
0000
0010
0000
1000
0001
0100
0000
0010
0000
1000
0000
0001
0100
,
0010
0000
1000
0000
0100
0000
0010
0001
0010
0100
1000
0000
0001
0000
0100
0010
,
1000
0000
0001
0000
0100
0000
0010
1000
0100
0010
0001
0000
0010
0000
0100
1000
,
0001
0000
0100
0000
0010
0000
1000
0100
0010
0100
1000
0000
0010
0000
0100
0001
,
0100
0000
0010
0000
0100
0000
0001
0010
0001
0000
0001
0000
1001
0000
0000
0000
,
M001
0000
0100
0000
0010
1000
0100
0010
,
0000
0001
0010
0100
1000
0000
1100
0000
,
0100
0000
0010
0001
0010
0000
0000
0000
0001
0000
0010
0000
0100
0000
1000
0000
,
0000
0000
0001
0100
0010
0000
1000
0000
0010
0000
0010
0000
0010
0000
0000
0000
,
0100
0000
0001
0100
0010
0000
1000
0000
0100
0000
0010
0000
0001
0000
0010
0000
,
0000
0100
1000
0001
1001
0000
1001
0000
,
1010
0000
0000
0000
0101
0000
0000
0010
1000
0000
0001
0000
0100
0000
0010
0000
,
0000
0000
0010
1000
0010
0000
1000
0000
0010
0000
0100
0000
0001
0000
0000
0000
,
0010
0000
0000
0010
0100
0000
1000
0000
0010
0000
0000
0010
0100
0000
0001
0000
,
0010
0000
0010
0001
1000
0000
1000
0001
,
0100
0010
0000
1000
0000
0010
0100
0000
,
0001
0000
0000
0000
0000
0000
0100
0000
0000
0001
0000
0000
0100
0000
0000
0000
0000
0000
0001
0000
0000
0000
0000
0000
0100
0000
0000
0000
0000
0000
0010
0000
1000
0000
0010
0000
1000
0000
0000
0000
0000
0000
0010
0000
0000
0000
0000
0000
,
0100
0000
0000
0100
0001
0000
0010
0000
0100
0000
0000
0100
1000
0000
0010
0000
,
0100
0000
0100
0001
0100
0000
0010
1000
,
0100
0010
0000
0001
0000
1000
0001
0000
,
0100
0000
0000
0000
0000
0000
0001
0000
0000
0010
0000
0000
0001
0000
0000
0000
0000
0000
0010
0000
0000
0000
0000
0000
0100
0000
0000
0000
0000
0000
1000
0000
0100
0000
1000
0000
0100
0000
0000
0000
0000
0000
1000
0000
0000
0000
0000
0000
,
M001
0000
0000
M001
0000
0100
M010
0000
1000
001M
0000
0100
,
M001
M110
M010
101M
,
100M
0000
0000
010M
0000
0010
M001
0000
0010
010M
0000
1000
,
0M01
011M
100M
M110
,
M001
0000
0000
M010
0000
0100
100M
0000
0010
M100
0000
0001
,
M100
011M
0M10
101M
,
1M00
0000
0000
010M
0000
0010
M001
0000
0010
010M
0000
1000
,
00M1
0100
0010
1M00
0001
0100
001M
1000
0100
M010
0001
0010
,
0100
0000
1000
0000
0010
0000
0100
0001
0100
0010
1000
0000
0010
0000
1000
0100
,
0010
0000
0001
0000
0010
0000
0100
1000
0001
0000
0100
0000
0010
0000
1000
0001
,
0100
0000
0010
0000
1000
0000
0100
0010
0001
0000
0010
0000
0100
0000
1000
0000
,
0001
0000
0100
0010
1000
0000
0010
0000
0100
0000
0001
0100
0010
0000
1000
0000
,
0100
0000
0010
0000
0001
0000
0010
0100
1000
0001
0100
0000
0010
0000
1000
0001
,
0100
0000
0010
0000
1000
0000
0100
0010
0001
0000
0010
0000
0100
0000
1000
0001
,
0100
0000
0010
0000
1000
0000
0100
1000
0001
0010
0100
0000
0010
0000
0001
0010
,
0100
0000
1000
0000
0010
0000
0100
0001
0100
0010
1000
0000
0010
0000
0100
0000
,
0001
0000
0001
0000
0001
0100
1000
0001
,
0000
0001
0010
1000
0100
0000
0001
0000
,
1000
0000
0010
0000
0001
1000
0100
0001
,
0000
0001
0100
1000
0010
0001
0010
0000
,
0100
0000
0000
0100
0010
0000
1000
0000
0100
0000
0010
0000
0001
0000
0010
0000
,
0000
0000
0100
0010
0100
0000
1000
0000
0010
0000
0000
0000
0100
0000
0000
0000
,
0001
0000
0000
0001
0100
0000
0010
0000
1000
0000
0100
0010
0100
0000
0010
0000
,
0000
0000
0100
1000
0100
0000
1000
0000
0001
0000
0100
0000
0001
0000
0000
0000
,
2MMM
0000
0001
0001
0001
0000
0010
0000
,
0100
0000
0100
0100
0001
0000
0001
3000
,
0001
0100
0000
0010
0000
1000
0100
0000
,
0010
0000
0000
0000
0000
0000
0001
0000
0000
0010
0000
0000
0001
0000
0000
0000
0000
0000
0010
0000
0000
0000
0000
0000
0100
0000
0000
0000
0000
0000
1000
0000
0100
0000
1000
0000
0100
0000
0000
0000
0000
0000
1000
0000
0000
0000
0000
0000
,
MMM2
0000
1000
1000
1000
0000
0100
0000
,
0010
0000
0010
0010
1000
0000
1000
0003
,
1000
0010
0000
0100
0000
0001
0010
0000
,
0100
0000
0000
0000
0000
0000
1000
0000
0000
0100
0000
0000
1000
0000
0000
0000
0000
0000
0100
0000
0000
0000
0000
0000
0010
0000
0000
0000
0000
0000
0001
0000
0010
0000
0001
0000
0010
0000
0000
0000
0000
0000
0001
0000
0000
0000
0000
0000
,
1000
0000
0010
0100
0010
0000
0100
0000
0001
0000
0010
0000
0100
0000
1000
0000
,
0010
0000
0100
0001
0100
0000
0010
0000
1000
0000
0100
0000
0010
0000
0001
0000
,
1000
0000
0100
0010
0100
0000
1000
0000
0010
0000
0100
0000
0001
0000
0100
0000
,
0010
0000
1000
0010
1000
0000
0010
0000
0100
0000
0001
0000
0010
0000
0100
0000
,
1000
0010
0100
0000
0110
0000
0010
0100
,
0001
0010
0100
0000
0110
0000
0100
1000
,
0001
1000
0001
0000
1001
0000
0001
0100
,
0010
1000
0001
0000
1001
0000
0001
0100
;

//---------------dance-single - Renard----------------
#NOTES:
     dance-single:
     Renard:
     Hard:
     8:
     0.577,0.567,0.217,0.000,0.079:
0000
0000
0000
0000
,
0000
0000
0000
0000
,
0000
0000
0000
0000
,
0000
0000
0000
0000
,
1000
0000
0001
0000
0100
0001
0010
0000
,
0001
0000
1000
0000
0100
1000
0010
0000
,
0100
0000
0001
0000
0010
0100
1000
0000
,
0001
0000
1000
0000
0001
0100
0010
0000
,
1000
0000
0010
0000
0100
0001
0010
0001
,
0000
1000
0100
0010
0001
1000
0001
0100
,
0010
1000
0001
1000
0100
0010
0001
1000
,
0000
0000
0001
0010
0100
1000
0001
0100
,
0010
0000
1010
0000
1000
0100
0010
0001
,
0000
1000
0001
0100
0010
0000
1000
0000
,
0001
0010
0100
0000
1000
0001
0100
0010
,
0000
1000
0010
0000
1000
0000
0001
0000
,
0100
0000
0001
0000
1000
0100
0010
0001
,
0000
0001
0010
0100
1000
0000
1100
0000
,
1000
0000
0001
0000
0010
0100
1000
0010
,
0000
1000
0001
0100
0010
1000
0001
0000
,
1000
0000
1100
0000
1000
0001
0010
0100
,
0000
0010
0100
0010
0001
0000
0001
0000
,
1000
0000
0010
0000
0100
0001
0100
0010
,
0000
0010
1000
0001
0100
0010
1000
0000
,
0001
0001
0100
0100
,
0010
0010
1000
1000
,
0100
0010
0000
0011
0000
0010
0100
0000
,
1000
0001
0100
0010
1000
0001
0100
0010
,
1000
1001
0000
1100
,
0011
0011
0110
0110
,
0100
1000
0000
0001
0000
0100
0010
0000
,
0010
1000
0001
0100
0010
1000
0001
1000
,
0001
0000
0000
0001
0000
0100
0010
0000
1000
0100
0000
0010
,
0001
0001
0010
0010
,
0100
0000
0000
0100
0000
1000
0100
0000
0010
0001
0000
1000
,
0001
0000
0000
0001
1000
0001
1000
0000
0000
0001
0000
0000
,
0100
0000
0000
0100
0000
0010
1000
0000
0001
0100
0000
0010
,
1000
1000
0001
0100
,
0010
0000
0000
0010
0000
1000
0001
0000
1000
0100
0000
0010
,
0001
0000
0000
0001
1000
0001
0100
0000
0000
0010
0000
0000
,
0100
0000
0001
0000
1000
0100
0000
0010
,
0000
0001
0010
0000
0100
1000
0100
0000
,
1000
0010
0100
0001
1000
0100
0010
0001
,
0000
0001
0010
0100
1000
0001
0100
0010
,
1000
0000
0001
1000
0010
0100
0001
1000
,
0000
1000
0100
0000
0010
0001
0010
0000
,
0100
1000
0000
0001
0010
0001
1000
0010
,
0000
0100
0001
0100
0010
1000
0100
0010
,
0001
0000
0001
0000
0001
0010
0100
1000
,
0000
1000
0100
0010
0001
0000
1000
0000
,
0001
0000
0001
0000
0001
0010
0100
1000
,
0000
1000
0100
0010
0001
1000
0001
0000
,
1000
0000
0001
0000
0100
0010
0100
0010
,
0000
1000
0100
0010
0001
0000
0011
0000
,
0010
0000
0100
0000
1000
0001
0100
0010
,
0000
1000
0010
0100
0001
1000
0100
0000
,
0010
0010
0001
0001
,
0011
0110
1100
1001
,
0100
0010
0000
1001
0000
1000
0100
0000
,
0010
0001
0010
0100
1000
0001
0100
0010
,
1000
1000
0010
0010
,
0110
1001
0110
1001
,
0100
0010
0000
0110
0000
0100
0010
0000
,
1000
0001
0010
0100
1000
0001
0100
0000
,
1001
0000
1000
0000
0100
0010
0001
1000
,
0000
0001
0100
0000
0010
0000
1000
0000
,
0100
0000
0010
0000
0001
1000
0001
0100
,
0000
0010
1000
0000
0100
0010
0001
0000
,
1000
0000
0001
0000
0010
0100
1000
0001
,
0000
0100
0010
0000
1000
0000
0010
0000
,
0100
0001
1000
0100
0010
0001
0010
0100
,
0000
1000
0001
0100
0010
1000
0100
0010
;

//---------------dance-single - Renard----------------
#NOTES:
     dance-single:
     Renard:
     Medium:
     5:
     0.365,0.390,0.079,0.118,0.000:
0000
0000
0000
0000
,
0000
0000
0000
0000
,
0000
0000
0000
0000
,
0000
0000
0000
0000
,
1000
0000
0001
0000
0000
1000
0001
0000
,
0100
0000
0010
0000
0000
0100
0010
0000
,
1000
0001
0010
0100
,
1000
0001
1000
0001
,
0100
0100
0001
0001
,
1000
0100
0010
0001
,
1000
1000
0100
0100
,
0010
0001
1000
0010
,
0100
0100
0001
0001
,
1000
0100
0010
0001
,
1000
1000
0001
0001
,
0100
0010
1000
0001
,
1000
0001
1000
0000
,
0001
0100
0010
1000
,
0001
0001
1000
0000
,
0001
0010
0100
1000
,
0001
0001
1000
0000
,
0100
0010
0001
1000
,
0001
0100
0001
1000
,
0100
0010
0001
1000
,
0002
0000
0000
0000
,
0203
0000
0320
0000
,
1030
0010
0000
1000
0000
0001
0100
0000
,
0001
1000
0100
0010
,
0002
0000
0000
0000
,
0023
0000
0230
0000
,
1300
0100
0000
1000
0000
0001
0010
0000
,
0001
0000
1000
0000
0010
0100
0001
0000
,
1000
1000
0001
0001
,
1000
1000
0001
0001
,
0100
0100
0010
0010
,
0100
0001
1000
0000
,
0001
0101
0000
1100
,
0000
0101
0000
1100
,
1000
1010
0000
0011
,
0000
1010
0000
0011
,
1000
0001
0100
0001
,
1000
1000
0001
0001
,
0010
0100
0000
0000
0000
0000
0000
0000
,
1000
0001
0000
0000
0000
0000
0000
0000
,
0100
0010
1000
0100
,
0010
0001
1000
0001
,
0100
0001
0000
0000
0000
0000
0000
0000
,
0010
1000
0000
0000
0000
0000
0001
0000
,
1000
0000
0001
0000
1000
0000
0000
0001
,
0000
0100
0010
1000
,
0001
0000
1000
0000
0001
0000
0000
1000
,
0000
0000
0100
0000
0010
0001
0010
0000
,
0100
0000
1000
0000
0001
0000
0000
0100
,
0000
0010
1000
0001
,
0100
0000
0001
0000
1000
0000
0000
0100
,
0000
0010
0001
1000
,
0002
0000
0000
0000
,
0203
0000
0302
0000
,
1003
0100
0000
1000
0000
0001
0010
0000
,
0001
0000
1000
0000
0010
0100
0010
0000
,
0200
0000
0000
0000
,
0302
0000
2003
0000
,
3100
0010
0000
0001
0000
0010
0100
0000
,
1000
0000
0001
0000
0100
0010
0100
0000
,
0010
0010
0100
0100
,
0001
0000
1000
0000
0100
0010
0001
0000
,
1000
1000
0001
0001
,
0100
0000
0010
0000
1000
0010
1000
0000
,
0001
0000
0001
0000
0100
0000
0001
1000
,
0000
0000
0000
0000
,
0001
0000
0001
0000
1000
0000
0100
0010
,
0000
0000
0000
0000
0001
0010
0100
1000
;

//---------------dance-single - Renard----------------
#NOTES:
     dance-single:
     Renard:
     Easy:
     2:
     0.224,0.248,0.000,0.158,0.000: // measure 1
0000
0000
0000
0000
,  // measure 2
0000
0000
0000
0000
,  // measure 3
0000
0000
0000
0000
,  // measure 4
0000
0000
0000
0000
,  // measure 5
0000
1000
0000
1000
,  // measure 6
0000
1000
0000
1000
,  // measure 7
0000
0001
0000
0001
,  // measure 8
0000
0001
0000
0001
,  // measure 9
0100
0100
0100
0000
,  // measure 10
0100
0000
0000
0000
,  // measure 11
0010
0010
0010
0000
,  // measure 12
0010
0000
0000
0000
,  // measure 13
1000
1000
1000
0000
,  // measure 14
1000
0000
0000
0000
,  // measure 15
0001
0001
0001
0000
,  // measure 16
0001
0000
0000
0000
,  // measure 17
1000
0000
0100
0000
,  // measure 18
0010
0000
0001
0000
,  // measure 19
0010
0000
0100
0000
,  // measure 20
1000
0000
0001
0000
,  // measure 21
0010
0000
0001
0000
,  // measure 22
1000
0000
0010
0000
,  // measure 23
0100
0000
0001
0000
,  // measure 24
1000
0001
1000
0001
,  // measure 25
0200
0000
0000
0000
,  // measure 26
0302
0000
2003
0000
,  // measure 27
3002
0000
0000
0000
,  // measure 28
0103
0000
0100
0000
,  // measure 29
0020
0000
0000
0000
,  // measure 30
2030
0000
3002
0000
,  // measure 31
1003
0000
0100
0000
,  // measure 32
0010
0000
0001
1000
,  // measure 33
0001
0000
0001
0000
,  // measure 34
0100
0000
0100
0000
,  // measure 35
0010
0000
0010
0000
,  // measure 36
2000
0000
0000
0000
,  // measure 37
3001
0000
0001
0000
,  // measure 38
1000
0100
0010
0000
,  // measure 39
0001
0000
0001
0000
,  // measure 40
0010
0000
0100
1000
,  // measure 41
0001
0000
0001
0000
,  // measure 42
0100
0100
0100
0100
,  // measure 43
0010
0000
0010
0000
,  // measure 44
1000
0000
0001
0000
,  // measure 45
1000
0000
1000
0000
,  // measure 46
0100
0100
0100
0000
,  // measure 47
0010
0000
0010
0000
,  // measure 48
0001
0000
1000
0000
,  // measure 49
0001
0001
0001
0000
,  // measure 50
0000
0000
0000
0000
,  // measure 51
1000
1000
1000
0000
,  // measure 52
0000
0000
0000
0001
,  // measure 53
1000
0100
0010
0000
,  // measure 54
0010
0000
0010
0000
,  // measure 55
0001
0010
0100
0000
,  // measure 56
0100
0000
0100
0000
,  // measure 57
2000
0000
0000
0000
,  // measure 58
3002
0000
2003
0000
,  // measure 59
3002
0000
0000
0000
,  // measure 60
0103
0000
0010
0000
,  // measure 61
2000
0000
0000
0000
,  // measure 62
3002
0000
2003
0000
,  // measure 63
3002
0000
0000
0000
,  // measure 64
0103
0000
0001
1000
,  // measure 65
0100
0000
0100
0000
,  // measure 66
0100
0010
0001
0000
,  // measure 67
1000
0000
1000
0000
,  // measure 68
0001
0100
0010
0000
,  // measure 69
1000
0000
1000
0000
,  // measure 70
0010
0100
0001
0000
,  // measure 71
1000
0000
0001
0000
,  // measure 72
1000
0100
1000
0001
;
