#TITLE:Diggin' Your Scene;
#SUBTITLE:;
#ARTIST:Smash Mouth;
#TITLETRANSLIT:;
#SUBTITLETRANSLIT:;
#ARTISTTRANSLIT:;
#CREDIT:;
#BANNER:;
#BACKGROUND:;
#LYRICSPATH:;
#CDTITLE:;
#MUSIC:scene.ogg;
#OFFSET:0.000;
#SAMPLESTART:23.488;
#SAMPLELENGTH:12.000;
#SELECTABLE:YES;
#BPMS:0.000=143.050;
#STOPS:;
#BGCHANGES:;

//---------------dance-single - Renard----------------
#NOTES:
     dance-single:
     Renard:
     Hard:
     8:
     0.589,0.530,0.426,0.038,0.028:
0000
0000
0000
0000
,
0000
0000
0000
0000
,
0011
0000
0011
0000
0100
1000
0010
0100
,
0101
0000
0101
0000
0100
0010
1000
0100
,
1100
0000
1100
0000
0100
0010
0001
1000
,
1001
0000
1001
0000
0001
1000
0010
0100
,
0100
0000
0001
0000
0010
0100
1000
0010
,
0001
0000
0011
0000
0010
1000
0100
0001
,
0100
0000
0101
0000
0100
1000
0010
0001
,
0010
0000
0011
0000
0010
1000
0100
0010
,
1000
0000
1010
0000
0010
0001
0100
1000
,
0100
0000
1100
0000
1000
0100
0010
0001
,
0010
0000
1010
0000
0001
0100
0001
1000
,
0100
0100
0010
0010
0001
1000
0001
1000
,
0001
0000
1001
0000
1010
0000
0001
0100
,
0010
1000
0000
1001
0000
1000
0100
0010
,
0001
0001
0010
0010
0100
1000
0001
1000
,
0010
0010
0100
0001
1000
0010
0100
0000
,
0101
0000
0100
0010
1000
0100
0010
0001
,
0010
0000
0110
0000
0100
1000
0010
0001
,
0010
0000
0011
0000
0010
1000
0100
0001
,
0100
2000
0010
3000
0010
0200
0001
0300
,
0010
0000
1000
0000
0100
0010
0001
0010
,
0100
0000
1000
0000
0010
0100
0001
0100
,
0010
0000
1000
0000
0001
0010
0100
1000
,
0001
0000
0001
1000
0010
0000
0010
0100
,
0001
0100
0010
0000
0010
1000
0100
0010
,
0001
0000
0001
0010
0100
1000
0010
0100
,
0001
0100
0010
0000
0010
1000
0100
0010
,
0001
0010
0100
1000
0000
0010
0100
0001
,
0100
0010
1000
0000
1000
0010
0100
0001
,
0000
0001
0100
0010
0000
0010
1000
0100
,
0010
0001
0010
0100
1000
0010
0100
0001
,
1000
0001
0100
0010
1000
0100
0010
0001
,
1000
1000
1000
1000
1000
1000
1001
0000
,
0001
0100
0110
0000
0010
1000
0100
0010
,
0001
0010
0110
0000
0010
0100
1000
0010
,
0100
0001
0101
0000
0001
0100
0010
1000
,
0100
1000
1100
0000
0100
1000
0010
0100
,
0001
1000
1001
0000
0001
0100
0010
1000
,
0001
0000
0000
0000
0101
0000
0000
0100
0010
0100
0010
0000
1010
0000
1000
0000
,
0100
0000
0000
0000
0100
0000
0000
0000
0010
0001
0000
0010
0001
0000
0010
0000
,
0100
1000
1010
0000
0101
0000
1000
0100
,
0010
0001
0000
0110
0000
0100
1000
0010
,
0100
0100
0001
0001
0100
0010
0000
1001
,
0000
0001
0100
0010
1000
0100
0010
0000
,
0011
0000
0110
0100
1000
0010
0100
0001
,
0100
0000
0101
0001
0100
0010
1000
0100
,
1000
0000
1100
0100
0010
0001
1000
0001
,
0100
0000
0100
0010
1000
0000
1000
0000
,
0110
0000
0100
0010
0001
0100
0010
1000
,
0001
0000
0101
0000
0100
0010
1000
0100
,
0010
0000
0110
0000
0100
1000
0010
0100
,
0001
0000
0100
0000
0001
0000
0000
0000
1000
0000
1000
0001
0000
0001
1000
0000
,
0001
0000
0110
0000
0010
1000
0100
0010
,
0001
0000
1001
0000
0001
1000
0010
0100
,
0001
0000
1001
0000
1000
0100
0010
0100
,
1000
0010
0100
0001
0100
0010
1000
0100
,
1000
0000
1100
0000
0100
0010
0001
0100
,
0010
0000
1010
0000
0010
0100
0001
0010
,
0100
0000
0110
0000
0100
1000
0010
0100
,
0002
0000
0000
0000
0000
2000
0000
0000
,
0000
3003
0000
0000
;

//---------------dance-single - Renard----------------
#NOTES:
     dance-single:
     Renard:
     Medium:
     6:
     0.389,0.442,0.265,0.057,0.000:
0000
0000
0000
0000
,
0000
0000
0000
0000
,
1000
0000
0001
0000
1000
0001
0000
1000
,
0001
0000
1000
0000
0001
1000
0000
0001
,
1000
0000
0001
0000
1000
0001
0000
1000
,
0001
0000
1000
0000
0001
1000
0000
0001
,
1000
1001
0000
1001
,
0001
1001
0000
1001
,
0010
0110
0000
0110
,
0100
0110
0000
0110
,
0010
1010
0000
1010
,
1000
1010
0000
1010
,
0001
0000
0100
0000
0000
0001
0100
0000
,
0001
1000
0001
1000
0001
0000
1000
0000
,
0001
0000
0101
0000
0101
0000
0000
0001
,
1000
0100
0000
1000
0000
0000
0000
0000
,
0001
0010
0100
1000
0001
1000
0000
0001
,
0000
0000
0000
1000
,
0001
0000
0101
0000
0001
1000
0100
1000
,
0001
0000
1001
0000
0001
1000
0001
1000
,
0001
0000
1001
0000
0001
1000
0001
1000
,
0002
0000
0000
0003
0200
0000
0000
0000
,
0310
0000
0000
0000
1000
0001
1000
0000
,
0001
0000
0000
0000
0100
0010
0100
0000
,
0010
0000
0000
0000
1000
0001
1000
0000
,
0100
0010
0001
1000
,
0001
0000
0100
0000
0100
0010
0000
0000
,
1000
0000
1000
0100
0000
0000
0010
0000
,
0001
0000
1000
0000
1000
0001
0000
0000
,
0100
0001
0100
0010
0000
1000
0010
1000
,
0000
0000
0001
0000
0001
1000
0100
1000
,
0000
0001
1000
0001
0000
0100
0001
0100
,
0000
0001
1000
0010
0000
1000
0001
1000
,
0001
0000
1000
0000
0001
1000
0001
0000
,
2000
0000
0000
0000
0000
3000
0101
0000
,
0001
0000
1000
0000
0000
0001
1000
0000
,
0010
0000
0100
0000
0000
0010
0100
0000
,
0001
0000
1000
0000
0000
0001
1000
0000
,
0100
0000
1000
0000
0000
0100
1000
0000
,
0001
0000
0010
0000
0000
0001
0010
0000
,
0001
0000
0100
0000
0000
0001
0100
0000
,
0010
0000
0010
1000
,
0001
0100
0001
0000
0001
0000
0000
1000
,
0100
1000
0001
1000
0000
0000
0000
0000
,
0001
0100
0001
1000
0001
0010
0000
0001
,
0000
1000
0001
1000
,
0001
0000
0101
0000
0001
1000
0001
1000
,
0001
0000
1001
0000
1000
0001
1000
0001
,
1000
0000
1001
0000
1000
0100
1000
0100
,
2000
0000
0000
3000
0001
0000
1000
0000
,
0001
0000
0000
0000
1000
0001
1000
0000
,
0001
0000
0000
0000
0100
0010
0100
0000
,
0010
0000
0000
0000
1000
0100
1000
0000
,
0001
0010
0001
1000
,
0001
0100
0000
0101
,
0001
1001
0000
1100
,
1000
1010
0000
1001
,
0001
0011
0000
1001
,
0001
0000
0000
0000
0100
0010
0100
0010
,
0100
0000
0000
0000
0010
1000
0010
1000
,
0010
0000
0000
0000
1000
0001
1000
0001
,
0200
0000
0000
0000
0000
0020
0000
0000
,
0000
0330
0000
0000
;

//---------------dance-single - Renard----------------
#NOTES:
     dance-single:
     Renard:
     Easy:
     2:
     0.223,0.294,0.038,0.057,0.000: // measure 1
0000
0000
0000
0000
,  // measure 2
0000
0000
0000
0000
,  // measure 3
1000
1000
1000
0000
,  // measure 4
0001
1000
0001
0000
,  // measure 5
0001
0001
0001
0000
,  // measure 6
1000
0001
1000
0000
,  // measure 7
1000
0100
0010
0001
,  // measure 8
0001
0000
0000
0000
,  // measure 9
0001
0010
0100
1000
,  // measure 10
1000
0000
0000
0000
,  // measure 11
1000
0010
0100
0001
,  // measure 12
0001
0000
0000
0000
,  // measure 13
0001
0100
0010
1000
,  // measure 14
1000
0000
1000
0000
,  // measure 15
0001
0100
0001
0000
,  // measure 16
1000
0000
0100
0000
,  // measure 17
1000
0001
0010
0100
,  // measure 18
2000
0000
0000
0000
,  // measure 19
3001
0000
0100
0001
,  // measure 20
1000
0000
0001
1000
,  // measure 21
0001
0000
1000
0100
,  // measure 22
0010
0000
0001
1000
,  // measure 23
0001
0000
0100
1001
,  // measure 24
0001
0000
1000
1100
,  // measure 25
1001
0000
0001
0100
,  // measure 26
0002
0000
2003
0000
,  // measure 27
3001
0001
0001
0000
,  // measure 28
0001
0000
0001
0000
,  // measure 29
1000
1000
1000
0000
,  // measure 30
1000
0000
1000
0000
,  // measure 31
0001
1000
0001
0000
,  // measure 32
1000
0000
0001
0000
,  // measure 33
0100
0000
0010
0000
,  // measure 34
0200
0000
0000
0000
,  // measure 35
0301
0000
0000
1001
,  // measure 36
0000
1000
0000
0001
,  // measure 37
0100
0010
0000
0010
,  // measure 38
1000
0100
0000
0100
,  // measure 39
0010
0001
0000
0001
,  // measure 40
1000
0001
0000
0001
,  // measure 41
0100
0000
0001
0000
,  // measure 42
1000
1000
1000
1000
,  // measure 43
0000
0001
0100
0000
,  // measure 44
0001
0000
1000
0000
,  // measure 45
0100
1000
0001
0000
,  // measure 46
0010
0000
0001
1000
,  // measure 47
0001
0000
0100
0000
,  // measure 48
0001
0000
1000
0000
,  // measure 49
0100
0000
0010
0001
,  // measure 50
1000
0000
0001
0000
,  // measure 51
0100
0000
0001
1000
,  // measure 52
0001
0000
1000
0100
,  // measure 53
1000
0000
0001
0000
,  // measure 54
0010
0000
0001
1000
,  // measure 55
0001
0000
1000
0000
,  // measure 56
0001
0000
0100
0000
,  // measure 57
0010
0000
1000
0001
,  // measure 58
1000
0000
0100
0010
,  // measure 59
0001
0000
1000
0000
,  // measure 60
0001
0000
0100
0001
,  // measure 61
1000
0000
0001
0000
,  // measure 62
0200
0000
0000
0000
0000
0020
0000
0000
,  // measure 63
0000
0330
0000
0000
;
