#TITLE:Definition of a BadBoy (Renmix);
#SUBTITLE:;
#ARTIST:Hardcore Authority;
#TITLETRANSLIT:;
#SUBTITLETRANSLIT:;
#ARTISTTRANSLIT:;
#CREDIT:;
#BANNER:badboy.png;
#BACKGROUND:badboy-bg.png;
#LYRICSPATH:;
#CDTITLE:;
#MUSIC:badboy.ogg;
#OFFSET:0.000;
#SAMPLESTART:16.357;
#SAMPLELENGTH:12.000;
#SELECTABLE:YES;
#BPMS:0.000=175.000;
#STOPS:;
#BGCHANGES:;

//---------------dance-single - Renard----------------
#NOTES:
     dance-single:
     Renard:
     Challenge:
     10:
     0.852,0.872,0.537,0.182,0.517:
0000
0000
0000
0000
,
0000
0000
0000
0000
,
0000
0000
0000
0000
,
0000
0000
0000
0000
,
1000
1000
1000
1000
1000
0000
1000
0000
,
0001
0000
0100
0001
0100
0001
0010
0000
,
0100
0100
0100
0100
0100
0000
0010
0001
,
1000
0010
0100
0001
0100
0000
1001
0000
,
0100
0100
0100
0100
0100
0100
0100
0100
,
0100
0100
0100
0100
0100
0100
0100
0100
,
0100
0000
0100
0000
0100
0000
0100
0000
0100
0010
0100
0010
0100
0000
0020
0000
,
2030
3200
0320
0032
1003
0000
0110
0000
,
0010
0000
1000
0000
0001
0000
0100
0001
0000
1000
0100
0000
0010
0000
0001
0000
,
0010
0000
0100
0000
1000
0000
0001
0100
0000
0010
1000
0000
0001
0000
0100
0000
,
0010
0000
1000
0000
0100
0000
0010
0001
0000
0010
0100
0000
1000
0000
0001
0000
,
0100
0000
0010
0000
1000
0000
0001
0100
0000
0010
1000
0000
0001
1000
0000
0000
,
0100
0000
0010
0000
0001
0000
0010
0100
0000
1000
0001
0000
0100
0000
0010
0000
,
1000
0000
0001
0000
0100
0000
0010
1000
0000
0001
0100
0000
0001
0000
1000
0000
,
0100
0000
0010
0000
0001
0000
0010
0100
0000
1000
0001
0000
0010
0000
0100
0000
,
1000
0000
1000
0001
0000
0001
0100
0000
0100
0000
0010
0000
1001
0000
0000
0000
,
1000
0000
0010
0000
0010
0000
0000
0101
0000
0000
0110
0000
0000
1100
0000
0000
,
0100
0000
0010
0000
0010
0000
0000
1000
0000
0000
1100
0000
0000
0011
0000
0000
,
0010
0000
0100
0000
0010
0000
0000
0110
0000
0000
0011
0000
0000
1010
0000
0000
,
0010
0000
0100
0000
0010
0000
0000
1001
0000
0000
0110
0000
0000
1001
0000
0000
,
0001
0000
0100
0000
0100
0000
0000
1010
0000
0000
0110
0000
0000
0011
0000
0000
,
0010
0000
0100
0000
0100
0000
0000
0001
0000
0000
0011
0000
0000
1100
0000
0000
,
0100
0000
0010
0000
0100
0000
0000
0110
0000
0000
1100
0000
0000
0101
0000
0000
,
0200
2300
3020
0230
0301
0000
0000
0000
,
0001
0100
0001
0100
0001
0000
0100
0000
0000
0000
0010
1000
0010
1000
0010
0000
,
1000
0100
1000
0100
1000
0000
0100
0000
0010
0000
0001
0000
1001
0000
1001
0000
,
0001
0100
0010
1000
0001
0000
0100
0000
0001
0000
1000
0100
0010
0001
1000
0000
,
0001
0010
0100
1000
0001
0000
1000
0000
0010
0000
0100
0000
1001
0000
0000
0000
,
1000
0010
1000
0010
1000
0000
0010
0000
0000
0000
0100
0001
0100
0001
0100
0000
,
0001
0010
0001
0010
0001
0000
0010
0000
0100
0000
1000
0000
1001
0000
1001
0000
,
1000
0010
0100
0001
1000
0000
0010
0000
1000
0000
0001
0010
0100
1000
0001
0000
,
1000
0100
0010
0001
1000
0000
0001
0000
0100
0000
0010
0000
1001
0000
0000
0000
,
1000
0000
0010
0100
0000
0001
0010
0000
0110
0000
0100
0000
1000
0000
0010
0000
,
0100
0000
0001
0000
0100
0010
0000
0000
1010
0000
0000
0000
0100
0000
0001
0000
,
0010
0000
0100
0000
0010
0000
0100
0000
0110
0000
0000
0100
1000
0000
0001
0100
,
0001
0000
0001
1000
0000
1000
0001
0000
0001
1000
0000
1000
0001
0100
0001
0000
,
0001
0000
0100
0010
0000
1000
0100
0000
0110
0000
0010
0000
0001
0000
0100
0000
,
0010
0000
1000
0000
0010
0100
0000
0000
0101
0000
0000
0000
0010
0000
1000
0000
,
0100
0000
0010
0000
0100
0000
0010
0000
0110
0000
0000
0010
0001
0000
1000
0010
,
1000
0000
1000
0001
0000
0001
1000
0000
1000
0001
0000
0001
1000
0000
0000
0000
,
0100
0100
0100
0100
0100
0100
0100
0100
,
0100
0100
0100
0100
0100
0100
0100
0100
,
0100
0000
0100
0000
0100
0000
0100
0000
0100
0010
0100
0010
0100
0000
0020
0000
,
0032
2003
3020
0230
0301
0000
1001
0000
,
0001
0000
0100
0000
0110
0000
0000
0010
0000
0000
1000
0000
1100
0000
0000
0000
,
1000
0000
0001
0000
0101
0000
0000
0001
0000
0000
1000
0000
1010
0000
0000
0000
,
1000
0000
0100
0000
0010
0000
0000
0001
0000
0010
0001
0000
0110
0000
0000
0000
,
0100
0000
1000
0000
1010
0000
0000
0100
0000
0001
1000
0000
1001
0000
0000
0000
,
1000
0000
0010
0000
0110
0000
0000
0100
0000
0000
0001
0000
0011
0000
0000
0000
,
0001
0000
1000
0000
1010
0000
0000
1000
0000
0000
0001
0000
0101
0000
0000
0000
,
0001
0000
0010
0000
0100
0000
0000
1000
0000
0100
1000
0000
0110
0000
0000
0000
,
0010
0000
0001
0000
0101
0000
0000
0010
0000
1000
0001
0000
1001
0000
0000
0000
,
0001
0100
0010
1000
0100
0000
0100
1000
,
0000
0000
0001
0000
0010
0000
0000
0100
0000
1000
0001
0000
0101
0000
0000
0000
,
0001
1000
0100
0010
0001
0000
0001
1000
,
0000
0000
1000
0000
0010
0000
0100
0000
0000
0001
0100
0000
1001
0000
0000
0000
,
1000
0001
0100
0010
1000
0000
1000
0001
,
0000
0000
0100
0000
0001
0000
0000
1000
0000
0100
1000
0000
1001
0000
0000
0000
,
1000
0100
0010
0001
1000
0000
0001
0100
,
0020
0230
0302
0023
1030
0000
0000
0000
,
1000
0000
1000
0010
0000
0010
0001
0000
,
0100
0000
0001
0100
0010
0000
1000
0001
0000
0100
0010
0000
1000
0000
0001
0000
,
1000
0000
1000
0001
0000
0001
0100
0000
,
0001
0000
1000
0100
1000
0000
0001
0000
0010
0000
0010
0000
0010
0000
0000
0000
,
0100
0000
1000
0001
0000
0100
0010
0000
,
1000
0000
0100
0010
0001
0000
0010
0100
0000
1000
0001
0000
0100
0000
0010
0000
,
1000
0000
0001
0100
0000
0010
1000
0000
,
0100
0010
0001
0010
0100
0000
1001
0000
;

//---------------dance-single - Renard----------------
#NOTES:
     dance-single:
     Renard:
     Hard:
     9:
     0.709,0.654,0.334,0.000,0.319:
0000
0000
0000
0000
,
0000
0000
0000
0000
,
0000
0000
0000
0000
,
0000
0000
0000
0000
,
1000
0001
0100
0010
1000
0000
1001
0000
,
0000
0000
0001
0010
0100
1000
0001
0000
,
0100
0010
0100
0010
1000
0000
0001
0100
,
0010
1000
0100
0010
0001
0000
1001
0000
,
0001
1000
0001
1000
0001
1000
0001
1000
,
0001
1000
0001
1000
0001
1000
0001
1000
,
0001
0000
1000
0000
0001
0000
1000
0000
0001
1000
0001
1000
0001
0000
0100
0000
,
1000
0100
0001
0010
0100
0000
0110
0000
,
0100
0000
1000
0000
0001
0000
0000
0100
0000
0000
0010
0000
0000
1000
0000
0000
,
0100
0000
0010
0000
0001
0000
0000
0010
0000
0000
0100
0000
0000
1000
0000
0000
,
0001
0000
0100
0000
0010
0000
0000
1000
0000
0000
0100
0000
0000
1000
0000
0000
,
0001
0000
0010
0000
0001
0000
0000
1000
0000
0000
0010
0000
0000
0100
0000
0000
,
0001
0000
1000
0000
0100
0000
0000
1000
0000
0000
0001
0000
0000
0010
0000
0000
,
0001
0000
1000
0000
0010
0000
0000
0100
0000
0000
0001
0000
0000
0100
0000
0000
,
0010
0000
1000
0000
0100
0000
0000
0010
0000
0000
0001
0000
0000
0010
0000
0000
,
0100
0000
1000
0000
0001
0000
0000
0100
0000
0000
0010
0000
1001
0000
0000
0000
,
0001
0000
0100
0000
0010
0000
0000
1010
0000
0000
1000
0000
0000
1100
0000
0000
,
0010
0000
0001
0000
0010
0000
0000
0011
0000
0000
0010
0000
0000
0110
0000
0000
,
0100
0000
1000
0000
0010
0000
0000
1010
0000
0000
0100
0000
0000
0101
0000
0000
,
0001
0000
0010
0000
0100
0000
0000
0110
0000
0000
0100
0000
0000
1100
0000
0000
,
1000
0000
0001
0000
0100
0000
0000
0110
0000
0000
0010
0000
0000
1010
0000
0000
,
1000
0000
0100
0000
0010
0000
0000
0110
0000
0000
0010
0000
0000
0011
0000
0000
,
0001
0000
0100
0000
0001
0000
0000
1001
0000
0000
0100
0000
0000
1001
0000
0000
,
1000
0100
0010
0001
1000
0000
0000
0000
,
1000
1000
1000
1000
0000
0001
0010
0100
,
1000
1000
1000
1000
0100
0100
0010
0001
,
0010
0010
0010
0010
0000
0001
0010
0100
,
0010
0010
0001
0001
1000
0001
0100
0000
,
0010
0010
0010
0010
0000
1000
0100
0010
,
0001
0001
0100
0010
1000
0100
0010
0001
,
1000
1000
1000
1000
0001
0010
0100
1000
,
0001
0100
0010
1000
0001
0100
0110
0000
,
1001
0000
0000
0110
0000
0000
0010
0000
1000
0000
0100
0000
0010
0000
0001
0000
,
0010
0000
0110
0000
0100
1000
0001
0100
,
0010
0000
0010
0000
0010
0000
0000
0000
1010
0000
0000
1000
0000
0000
0100
0000
,
0010
0000
0000
0010
0000
0000
0010
0000
0000
0010
0000
0000
0001
1000
0001
0000
,
1000
0000
0000
0010
0000
0000
0010
0000
0110
0000
0000
0000
0000
0000
0100
0000
,
0001
0010
0100
1000
0001
0000
0100
0000
,
0110
0000
1001
0000
1100
0000
1000
0100
,
0010
0000
0000
0011
0000
0000
0100
0000
0000
1100
0000
0000
1001
0000
0000
0000
,
0100
0100
0010
0010
1000
1000
0001
0001
,
0100
0100
0010
0010
1000
1000
0001
0001
,
0100
0000
0100
0000
0100
0000
0100
0000
0100
0010
0100
0010
0100
0000
0100
0000
,
0010
1000
0100
0010
0001
0000
1001
0000
,
1000
0000
0001
0000
0100
0000
0000
0001
0000
0000
1000
0000
0100
0000
0010
0000
,
0001
0000
0010
0000
0100
0000
0000
1000
0000
0000
0001
0000
0100
0000
0010
0000
,
1000
0000
0100
0000
0010
0000
0000
0001
0000
0000
0010
0000
0100
0000
1000
0000
,
0001
0000
0100
0000
0010
0000
0000
1000
0000
0000
0100
0000
0000
0010
0000
0000
,
0001
0000
0010
0000
0100
0000
0000
1000
0000
0000
0001
0000
0000
0100
0000
0000
,
0010
1000
0100
0010
0001
0010
0100
1000
,
0001
0000
0100
0000
0010
0000
0000
1000
0000
0000
0100
0000
0000
0010
0000
0000
,
0001
0010
0100
1000
0001
0100
0010
1000
,
0100
0000
0010
0000
0001
0000
0010
0100
0000
0000
1000
0000
0001
0000
0010
0000
,
0100
0000
1000
0000
0001
0000
0100
0010
0000
0000
1000
0000
0100
0000
0010
0000
,
0001
0000
1000
0000
0010
0000
0100
0010
0000
0000
0100
0000
0001
0000
0010
0000
,
0100
0000
1000
0000
0001
0000
0100
0010
0000
0000
1000
0000
0100
0000
0010
0000
,
0001
0000
0010
0000
0100
0000
1000
0001
0000
0000
0100
0000
0010
0000
1000
0000
,
0100
0000
0010
0000
0001
0000
0010
0100
0000
0000
1000
0000
0001
0000
0100
0000
,
0010
0000
1000
0000
0100
0000
0010
0001
0000
0000
1000
0000
0001
0000
0100
0000
,
0010
1000
0100
0010
0001
0000
0000
0000
,
1001
0000
0001
0100
0000
0100
0010
0000
,
1000
0000
0100
1000
0100
0000
1000
0001
0000
1000
0001
0000
0100
0000
0010
0000
,
1000
0000
0100
0010
0000
0001
1000
0000
,
0001
0100
0010
1000
0100
0000
0010
0000
,
0001
0000
0010
0100
0000
1000
0001
0000
,
0100
0000
0010
1000
0010
0000
1000
0001
0000
1000
0100
0000
1000
0000
0001
0000
,
1000
0000
0100
0010
0000
0001
0010
0000
,
0100
1000
0001
0100
0010
0000
1001
0000
;

//---------------dance-single - Renard----------------
#NOTES:
     dance-single:
     Renard:
     Medium:
     6:
     0.447,0.472,0.152,0.010,0.000:
0000
0000
0000
0000
,
0000
0000
0000
0000
,
0000
0000
0000
0000
,
0000
0000
0000
0000
,
1000
0000
0001
1000
0001
0000
1000
0000
,
0000
0000
0010
0100
0010
0100
0010
0000
,
0100
0001
1000
0100
,
0010
0001
0010
0001
0010
0000
1001
0000
,
0001
0100
0100
0100
,
0001
0100
0100
0100
,
0001
0000
0100
0001
0100
0000
0001
0100
,
0001
0000
0000
1001
,
1000
0000
0001
0000
0100
0001
0100
0000
,
0001
1000
1000
1000
,
0100
0000
0010
0100
0010
0000
0100
0000
,
1000
0001
0001
0001
,
0100
0000
0010
1000
0010
0000
0100
0000
,
0001
0001
0010
0010
,
0100
0000
1000
0100
1000
0000
0001
0000
,
0100
0001
1000
1000
,
0001
0100
0010
0100
,
0010
0000
1000
0010
1000
0000
0010
0000
,
1000
0100
0010
0001
,
1000
0001
0100
0100
,
0001
1000
0100
0010
,
0001
0000
1000
0001
1000
0001
1000
0000
,
0001
0100
0010
1000
,
0001
0100
0001
0100
0001
0000
0000
0000
,
0001
0100
0000
0100
,
0010
1000
1000
1000
,
0100
0010
0000
0010
,
0001
1000
0001
1000
,
0001
0100
0001
0000
0100
0000
0001
0000
,
0100
0010
0100
0000
0010
0000
0100
0000
,
0010
1000
0010
0000
1000
0000
0001
0000
,
1000
0001
1000
0000
0001
0000
0100
0000
,
0001
0001
1001
1000
,
0100
0010
1001
0001
,
0100
0010
1001
1000
,
0100
0010
1001
0110
,
1001
1000
0100
0010
,
0001
0010
1001
0100
,
0010
1000
1001
1000
,
0001
0100
0010
1001
,
1000
1000
0001
0001
,
1000
1000
0001
0001
,
1000
0000
0001
0000
1000
0001
1000
0001
,
1000
0001
0100
0110
,
0010
0000
1000
0000
0001
0100
0001
0000
,
1000
0100
0010
0001
,
1000
0000
0001
0000
1000
0100
1000
0000
,
0001
0010
0001
0000
1000
0000
1000
0000
,
0001
0000
0100
0000
0010
1000
0010
0000
,
0100
0001
1000
0100
,
1000
0000
0001
0010
0001
0000
1000
0000
,
0001
0100
0110
0110
,
0010
1000
0001
0100
,
0000
0000
0010
1000
0010
0000
1000
0000
,
0100
0000
0010
0001
,
0000
0010
0100
1000
,
0001
0000
0100
0001
0100
0000
0001
0000
,
0000
1000
0100
0010
,
0001
0000
1000
0100
1000
0000
0001
0000
,
0200
0000
0000
0300
,
0010
0000
0010
0100
0000
0100
0001
0000
,
1000
0100
0010
0001
,
1000
0000
1000
0100
0000
0100
0010
0000
,
0001
0010
0100
1000
,
0001
0000
0001
0100
0000
0100
0010
0000
,
1000
0001
0100
0010
,
1000
0000
1000
0001
0000
0001
0010
0000
,
0100
1000
0001
0110
;

//---------------dance-single - Renard----------------
#NOTES:
     dance-single:
     Renard:
     Easy:
     3:
     0.314,0.363,0.122,0.000,0.000: // measure 1
0000
0000
0000
0000
,  // measure 2
0000
0000
0000
0000
,  // measure 3
0000
0000
0000
0000
,  // measure 4
0000
0000
0000
0000
,  // measure 5
1000
1000
1000
1000
,  // measure 6
0000
0001
0001
0001
,  // measure 7
0100
0100
0100
0100
,  // measure 8
0010
0010
0010
1001
,  // measure 9
0100
0100
0100
0100
,  // measure 10
0100
0100
0100
0100
,  // measure 11
0100
0100
0100
0100
,  // measure 12
0100
0000
0000
1001
,  // measure 13
1000
0100
0000
0100
,  // measure 14
0010
0001
0000
0001
,  // measure 15
0100
0001
0000
0001
,  // measure 16
0100
0010
0000
0010
,  // measure 17
1000
0010
0000
0010
,  // measure 18
1000
0100
0000
0100
,  // measure 19
0010
0001
0000
0001
,  // measure 20
1000
0001
0100
0000
,  // measure 21
0001
1000
0001
1000
,  // measure 22
0010
0000
0010
0000
,  // measure 23
1000
0001
1000
0001
,  // measure 24
0100
0000
0100
0000
,  // measure 25
0001
1000
0010
0000
,  // measure 26
1000
0001
0100
0000
,  // measure 27
0001
1000
0010
0000
,  // measure 28
1001
0000
0000
0000
,  // measure 29
1000
1000
0000
0001
,  // measure 30
0100
0100
0010
0010
,  // measure 31
1000
1000
0000
0001
,  // measure 32
0010
0010
0100
0010
,  // measure 33
0100
0100
0000
1000
,  // measure 34
0001
0001
0100
0100
,  // measure 35
0010
0010
0000
1000
,  // measure 36
0001
0100
0001
1000
,  // measure 37
0001
0100
0001
0000
,  // measure 38
1000
0000
1100
0000
,  // measure 39
1000
0001
1000
0000
,  // measure 40
0100
0000
1100
0000
,  // measure 41
1000
0010
1010
0000
,  // measure 42
1000
0000
1001
0000
,  // measure 43
0001
0100
0101
0000
,  // measure 44
0001
0000
1001
0000
,  // measure 45
1000
0000
1000
0000
,  // measure 46
0001
0000
0001
0000
,  // measure 47
1000
1000
0001
1000
,  // measure 48
0001
0000
0000
0110
,  // measure 49
0010
1000
0000
1000
,  // measure 50
0001
0100
0000
0100
,  // measure 51
0001
0010
0000
0010
,  // measure 52
0100
1000
0100
1000
,  // measure 53
0001
0010
0000
0010
,  // measure 54
0001
1000
0000
1000
,  // measure 55
0010
0100
0000
0100
,  // measure 56
0001
1000
0001
1000
,  // measure 57
0001
0000
0100
0010
,  // measure 58
0000
1000
0001
0000
,  // measure 59
1000
0000
0100
0010
,  // measure 60
0000
0001
0010
0100
,  // measure 61
1000
0000
0001
0100
,  // measure 62
0000
0010
1000
0000
,  // measure 63
0001
0100
0010
1000
,  // measure 64
0001
0000
0000
0000
,  // measure 65
0100
0000
0001
0000
,  // measure 66
1000
0100
0010
0011
,  // measure 67
0010
0000
0100
0000
,  // measure 68
1000
0001
0100
0010
,  // measure 69
1000
0000
0000
0010
0000
0000
1000
0000
,  // measure 70
0010
0100
0010
0000
,  // measure 71
0100
0000
0000
0001
0000
0000
0100
0000
,  // measure 72
0001
0010
0100
1001
;
