#TITLE:Deadlocker;
#SUBTITLE:;
#ARTIST:DJ Zardonic;
#TITLETRANSLIT:;
#SUBTITLETRANSLIT:;
#ARTISTTRANSLIT:;
#CREDIT:;
#BANNER:dead.png;
#BACKGROUND:dead-bg.png;
#LYRICSPATH:;
#CDTITLE:;
#MUSIC:dead.ogg;
#OFFSET:0.000;
#SAMPLESTART:21.333;
#SAMPLELENGTH:12.000;
#SELECTABLE:YES;
#BPMS:0.000=180.000;
#STOPS:;
#BGCHANGES:;
#GENRE:Darkstep;

//---------------dance-single - Renard----------------
#NOTES:
     dance-single:
     Renard:
     Hard:
     9:
     0.652,0.622,0.576,0.018,0.000:
0000
0000
0000
0000
,
0000
0000
0000
0000
,
0000
0000
0000
0000
,
0000
0000
0000
0000
,
1000
0000
0000
0000
,
0000
0000
0000
0000
,
0000
0000
0000
0000
,
0000
0000
0000
0000
,
1000
0000
0001
0100
0010
1000
0100
0010
,
0001
0000
0110
0000
0100
1000
0010
0100
,
0001
0010
0100
0010
0001
0000
1001
0000
,
0001
0100
0010
0000
0010
1000
0010
0000
,
0010
0100
0001
0010
0100
0000
0110
0000
,
0100
1000
0010
0100
0001
0000
0110
0000
,
0010
1000
0100
0010
0001
0000
0011
0000
,
0001
0010
0100
1000
0001
0000
1001
0000
,
1000
0000
0010
0100
0001
0010
0100
0010
,
0001
1010
0101
1001
,
1000
1000
0100
0000
0010
0001
0010
0100
,
1000
0110
0101
1100
,
0101
0000
0010
1000
0100
0010
0001
0001
,
0010
0100
1000
0000
1001
0000
1010
0000
,
0101
0000
0001
0100
0010
0100
1000
0100
,
0001
0010
0100
0010
1000
0010
0001
0100
,
0010
1000
0001
0000
0101
0000
0001
0100
,
1000
1100
0101
0011
,
1010
0000
1000
0010
0001
0100
1000
0100
,
0001
0010
0100
1000
0100
0001
0100
1000
,
0100
0010
0001
0000
0011
0000
0001
0010
,
0100
0110
1100
1001
,
0001
0100
1000
0000
1100
0000
1000
0100
,
0010
0001
0010
0100
1000
0100
0001
0100
,
0001
1000
0001
0000
1001
0000
1000
0100
,
0010
0001
1000
0000
1001
0000
0001
0100
,
0010
1000
0001
0000
1001
0000
1000
0100
,
0010
0001
1000
0000
1001
0000
1001
0000
,
1000
0010
0100
0000
0110
0000
0001
0010
,
0100
0010
0100
0000
0110
0000
0100
1000
,
0010
0100
0010
0000
0110
0000
0100
0001
,
0100
1000
0100
0000
0101
0000
1001
0000
,
1000
0000
0100
0010
0001
0010
0100
0010
,
0100
0010
0100
1000
0010
0100
0001
0100
,
1000
0100
0001
0010
1000
0010
0001
0010
,
0100
1000
0100
0001
0100
1000
0100
0010
,
0001
0010
1000
0010
0001
0100
1000
0100
,
0010
0001
0010
0100
1000
0100
0001
0010
,
0100
0010
0100
0010
0100
1000
0010
0100
,
0001
0010
0100
1000
0010
0100
0001
0100
,
0010
0000
0010
1000
0000
1000
0100
0000
,
0010
0001
0010
0100
1000
0000
0110
0000
,
0001
0000
0001
1000
0000
1000
0100
0000
,
0010
0001
0010
0100
1000
0000
0110
0000
,
0001
0000
0001
1000
0000
1000
0001
0000
,
0100
0010
0100
0010
0100
0000
1001
0000
,
0110
0000
0100
1000
0000
1000
0001
0000
,
0101
0000
0100
0010
1000
0000
0000
0000
,
0001
0100
0010
1000
0100
1000
0100
1000
,
0001
0001
0100
0100
0010
0010
1000
1000
,
0100
0100
0010
0000
0011
0000
0001
0010
,
0100
1000
0001
0100
1000
0100
0001
0010
,
0100
0010
0001
0000
1001
0000
0001
0010
,
0100
0010
0001
0000
0011
0000
0110
0000
,
1000
0100
0010
0100
1000
0000
0110
0000
,
1100
0000
1010
0000
0000
0101
0000
0000
,
1001
0000
1000
0100
0010
0001
0010
0100
,
1000
1010
0101
0011
,
0001
0010
0010
0000
0100
0000
1000
0010
,
0010
0000
0100
0001
0100
1000
0100
0001
,
0010
0100
1000
0000
1100
0000
1000
0100
,
0010
0110
0011
1001
,
0001
0100
1000
0000
1100
0000
1000
0100
,
0001
0010
0001
0000
0010
0001
0000
0010
,
0100
0000
0000
0100
0000
0000
1000
0000
,
0000
0000
1000
0010
0100
0001
0100
0010
,
1000
0000
1000
0001
0000
0001
0100
0000
,
0010
1010
0001
0101
,
0100
0000
0100
0010
0000
0010
1000
0000
,
0100
0010
0001
0000
0011
0000
0001
0010
,
0100
1000
0010
0000
0110
0000
0001
0100
,
0010
0100
0010
0000
2020
0000
0000
0000
,
3030
0000
0000
0000
;

//---------------dance-single - Renard----------------
#NOTES:
     dance-single:
     Renard:
     Medium:
     7:
     0.406,0.439,0.064,0.037,0.000:
0000
0000
0000
0000
,
0000
0000
0000
0000
,
0000
0000
0000
0000
,
0000
0000
0000
0000
,
0000
0000
0000
0000
,
0000
0000
0000
0000
,
0000
0000
0000
0000
,
0000
0000
0000
0000
,
1000
1000
0001
0000
0100
0100
0010
0000
,
1000
1000
0100
0000
0010
0000
0001
0000
,
0100
0100
0001
0000
1000
1000
0100
0000
,
0010
0010
0001
0000
1000
0000
0010
0000
,
0100
0100
0001
0000
1000
1000
0100
0000
,
0010
0010
0001
0000
0000
1000
0010
0000
,
0100
0000
0001
0000
0000
1000
0001
0000
,
0100
0010
0100
1001
,
1000
0000
0100
0000
0010
0000
0001
1000
,
0001
0100
0010
1000
,
0001
1000
0001
0000
1000
0000
0010
0100
,
0000
0100
0001
0000
0001
1000
0000
0000
,
0100
0010
0100
0000
0010
0000
0001
1000
,
0001
0100
0010
1000
,
0001
0100
0001
0000
1000
0000
0100
0010
,
0000
0000
0001
0000
0000
1000
0000
0000
,
0010
0100
0010
0000
1000
0000
0001
0100
,
0001
1000
0100
0010
,
0001
1000
0001
0000
0100
0000
0010
1000
,
0000
1000
0010
0000
0010
0100
0000
0000
,
0001
0100
0001
0000
0100
0000
0010
1000
,
0010
1000
0100
0010
,
0001
1000
0001
0000
0100
0000
0010
1000
,
0000
0001
0100
0000
0001
1000
0000
0000
,
1000
0000
0100
0000
0000
1000
0100
0000
,
0010
0000
0001
0000
0000
0010
0001
0000
,
1000
0000
0010
0000
0000
1000
0010
0000
,
0100
0000
0001
0000
0000
0100
0001
0000
,
0010
0000
0001
0000
0000
0010
0001
0000
,
1000
0000
0100
0000
0000
1000
0100
0000
,
1000
0000
0001
0000
0000
1000
0001
0000
,
0100
0000
0000
0000
,
0010
0010
1000
0001
,
0100
0001
1000
1100
,
1000
0001
0010
0001
,
1000
1001
0001
1001
,
0001
0100
0010
1000
,
0100
0010
0001
1001
,
0001
0100
0010
1000
,
0100
1001
0010
1001
,
1000
0100
1000
0100
,
1000
0100
1000
1000
,
0001
0010
0001
0010
,
0001
0010
0001
0001
,
0100
0000
0100
0010
0000
0010
0200
0000
,
0000
0000
0320
0000
,
1030
0000
1000
0001
0000
0001
2000
0000
,
0000
0000
3001
0000
,
0100
0000
0010
0000
1000
0000
0001
0100
,
0001
1000
0100
0010
,
0001
0000
1000
0000
0010
0000
0100
0010
,
0000
0000
1000
0000
0000
0001
0000
0000
,
1000
0001
1000
0000
0010
0000
0100
0000
,
0001
0010
0100
1000
,
0001
0100
0001
0000
1000
0000
0001
0100
,
0000
0000
0100
0000
0000
0100
0000
0000
,
0010
1000
0010
0000
1000
0000
0001
0100
,
0001
1000
0100
0010
,
0001
1000
0001
0000
1000
0000
0001
1000
,
0000
0001
1000
0000
0001
1000
0000
0000
,
0001
0100
0001
0000
1000
0000
0100
1000
,
0100
1000
0001
0010
,
0001
1000
0001
0000
1000
0000
0001
1000
,
0000
0001
1000
0000
0001
1000
0000
0000
,
0001
0000
0000
0100
0000
0000
0010
0000
,
0000
0000
1000
1000
,
0010
0000
0000
0100
0000
0000
0001
0000
,
0000
0000
1000
0000
,
0100
0000
0000
0010
0000
0000
0001
0000
,
0000
0010
0100
1000
,
0010
0000
0000
0100
0000
0000
0001
0000
,
0000
1000
0002
0000
,
0003
0000
0000
0000
;

//---------------dance-single - Renard----------------
#NOTES:
     dance-single:
     Renard:
     Easy:
     2:
     0.315,0.476,0.210,0.009,0.000: // measure 1
0000
0000
0000
0000
,  // measure 2
0000
0000
0000
0000
,  // measure 3
0000
0000
0000
0000
,  // measure 4
0000
0000
0000
0000
,  // measure 5
0000
0000
0000
0000
,  // measure 6
0000
0000
0000
0000
,  // measure 7
0000
0000
0000
0000
,  // measure 8
0000
0000
0000
0000
,  // measure 9
1000
1000
0000
1000
,  // measure 10
0001
0001
0000
0001
,  // measure 11
0100
0100
0000
0100
,  // measure 12
0010
0010
0010
0000
,  // measure 13
1000
1000
0000
1000
,  // measure 14
0100
0100
0000
0100
,  // measure 15
0010
0010
0000
0010
,  // measure 16
0001
0001
0001
0001
,  // measure 17
1000
0001
0100
0010
,  // measure 18
1000
0000
1000
0000
,  // measure 19
0010
0100
0001
0010
,  // measure 20
0100
0000
0100
0000
,  // measure 21
1000
0010
0100
0001
,  // measure 22
1000
1000
1000
0000
,  // measure 23
0001
0010
0100
0000
,  // measure 24
1000
0000
0010
0000
,  // measure 25
0100
0001
0100
0010
,  // measure 26
0001
0001
0001
0001
,  // measure 27
0100
0010
0100
0001
,  // measure 28
0010
1000
0100
1000
,  // measure 29
0010
0001
0100
0010
,  // measure 30
1000
0000
0001
0000
,  // measure 31
0100
0001
1000
0010
,  // measure 32
0100
0001
1000
0010
,  // measure 33
0001
0000
0100
1000
,  // measure 34
0010
0000
0001
0100
,  // measure 35
1000
0000
0010
0001
,  // measure 36
0100
0000
0001
0000
,  // measure 37
1000
0100
1000
0000
,  // measure 38
0001
0100
0001
0000
,  // measure 39
0010
0001
0010
0000
,  // measure 40
1000
0100
0001
0100
,  // measure 41
1000
0000
1000
0000
,  // measure 42
0001
0000
0001
0100
,  // measure 43
0010
0000
0010
0000
,  // measure 44
1000
0100
0010
0001
,  // measure 45
1000
0000
1000
0000
,  // measure 46
0001
0100
0010
1000
,  // measure 47
0100
0000
0100
0000
,  // measure 48
0010
0001
1000
0000
,  // measure 49
0100
0000
1010
0000
,  // measure 50
0100
0000
0011
0000
,  // measure 51
0100
0000
1010
0000
,  // measure 52
0100
0000
0011
0000
,  // measure 53
0100
0000
1010
0000
,  // measure 54
0100
0000
0011
0000
,  // measure 55
0100
0000
1010
0000
,  // measure 56
0100
0000
0100
0000
,  // measure 57
0010
1000
0100
0010
,  // measure 58
0001
0010
0100
1000
,  // measure 59
0010
0100
0001
0010
,  // measure 60
0001
0000
0001
0000
,  // measure 61
1000
0010
0100
0001
,  // measure 62
0010
0100
1000
0010
,  // measure 63
0100
0001
0100
0010
,  // measure 64
1000
0000
1000
0000
,  // measure 65
0100
0011
0000
0011
,  // measure 66
0100
1010
0000
1010
,  // measure 67
0100
0011
0100
1001
,  // measure 68
0100
1010
0100
1001
,  // measure 69
0100
0011
0000
0011
,  // measure 70
0100
1010
0000
1010
,  // measure 71
0100
1001
0100
1010
,  // measure 72
0100
0011
0100
1001
,  // measure 73
0010
0000
0010
0000
,  // measure 74
0010
0000
0100
0001
,  // measure 75
1000
0000
1000
0000
,  // measure 76
0100
0000
0100
0010
,  // measure 77
0001
0000
0001
0000
,  // measure 78
1000
0000
0010
0100
,  // measure 79
0001
0000
0001
0000
,  // measure 80
1000
0001
0200
0000
,  // measure 81
0300
0000
0000
0000
;
