#TITLE:De-Humanize;
#SUBTITLE:;
#ARTIST:Arkitech;
#TITLETRANSLIT:;
#SUBTITLETRANSLIT:;
#ARTISTTRANSLIT:;
#CREDIT:;
#BANNER:de.png;
#BACKGROUND:de-bg.png;
#LYRICSPATH:;
#CDTITLE:;
#MUSIC:de.ogg;
#OFFSET:0.000;
#SAMPLESTART:60.343;
#SAMPLELENGTH:12.000;
#SELECTABLE:YES;
#BPMS:0.000=175.000;
#STOPS:;
#BGCHANGES:;

//---------------dance-single - Renard----------------
#NOTES:
     dance-single:
     Renard:
     Hard:
     9:
     0.608,0.710,0.215,0.112,0.374:
0000
0000
0000
0000
,
0000
0000
0000
0000
,
0000
0000
0000
0000
,
0000
0000
0000
0000
,
0000
0000
0000
0000
,
2000
0000
0000
0000
,
3020
0000
0000
0000
,
0230
0000
0000
0000
,
0302
0000
0000
0000
,
0203
0000
0000
0000
0000
0000
0000
0000
0000
0000
0000
0300
,
0020
0000
0000
0000
0000
0000
0000
0000
0000
0000
0000
0030
,
2000
0000
0000
0000
0000
0000
0000
0000
0000
0000
0000
3000
,
0100
0000
0000
1100
0000
0000
0000
0000
0010
0001
0000
0000
,
0100
0000
0000
0110
0000
0000
0000
0000
0010
1000
0000
0001
,
0100
0000
0000
0101
0000
0000
0000
0000
0010
1000
0000
0100
,
0010
0000
0011
0000
0000
0110
0000
0000
1100
0000
0000
0001
,
1000
0000
0000
0010
0000
0100
0001
0000
0100
0010
0000
1000
,
0001
0000
0000
0100
0000
0000
0001
0000
1000
0100
0000
1000
,
0001
0000
0000
0010
0000
0000
0001
0000
1000
0001
0000
0100
,
0010
0000
0000
1000
0000
0000
0001
0000
0100
0001
0000
0100
,
0001
0000
0000
0100
0000
0000
0010
0000
1000
0010
0000
1000
,
0100
0000
0000
0010
0000
0000
0001
0000
1000
0001
0000
1000
,
0010
0101
0010
1100
,
0010
1001
1010
0101
,
1001
0000
0000
1000
0000
0100
0010
0000
0001
0010
0000
0000
,
1100
0000
0000
0001
0000
0010
0100
0000
1000
0100
0000
0000
,
0001
0000
0001
0100
0000
0100
0010
0000
0010
1000
0000
0000
,
0001
0000
0100
0010
0000
1000
0001
0000
0000
1001
0000
0000
,
1000
0000
0100
1000
0000
0010
0100
0000
0001
0010
0000
0000
,
0011
0000
0000
0001
0000
0010
0100
0000
1000
0000
0000
1010
,
0000
0000
0001
0100
0000
0010
1000
0000
0001
0000
0000
1001
,
0000
0000
1000
0100
0000
0010
0001
0000
0010
0000
0000
0100
,
2000
0000
0000
0000
,
3010
0000
0000
0010
,
0100
0000
0000
0100
,
0001
0000
1000
0000
0100
0010
0001
0000
,
0020
0000
0000
0000
,
0230
0000
0000
0000
,
2300
0000
0000
0000
,
3020
0000
0000
0000
0100
0000
0000
0000
0100
0000
0000
0000
0100
0000
0000
0030
,
0100
0000
0000
0001
0000
0000
0100
0000
0100
0010
0000
1000
,
0100
0000
0010
0001
0000
0010
0100
0000
1000
0010
0000
0100
,
0001
0000
0000
0100
0000
0000
0010
0000
,
1000
0000
0000
0000
,
0001
0000
0001
0100
0000
0100
0010
0000
1000
0000
0100
0000
0010
0000
0001
0000
,
0010
0100
1000
0010
0100
0001
1000
0010
,
1000
0000
1000
0001
0000
0001
0100
0000
0010
0000
1000
0000
0100
0000
0010
0000
,
0001
0010
0100
1000
0001
0100
0010
1000
,
0001
0000
0001
0010
0000
0010
0100
0000
1000
0000
0010
0000
0100
0000
0001
0000
,
1000
0100
0010
0001
1000
0010
0100
0001
,
1000
0000
1000
0001
0000
0001
0100
0000
0010
0000
1000
0000
0100
0000
0010
0000
,
0001
0000
1000
0000
0001
0000
0100
0000
0001
0100
0001
0100
0001
0000
0100
0000
,
0010
0000
0010
1000
0000
1000
0100
0000
0010
0000
0001
0000
0010
0000
0100
0000
,
1000
0001
0100
0010
1000
0001
1000
0100
,
0010
0000
0010
0001
0000
0001
0100
0000
0010
0000
1000
0000
0001
0000
1000
0000
,
0010
0100
0001
0010
0100
1000
0001
0100
,
0010
0000
0010
1000
0000
1000
0001
0000
0100
0000
0010
0000
1000
0000
0100
0000
,
0010
0000
0010
0001
0000
0001
0100
0000
0010
0000
1000
0000
0001
0000
0100
0000
,
0010
0000
0010
1000
0000
1000
0010
0000
0100
0000
0001
0000
0010
0000
0100
0000
,
1000
0010
0000
0101
0000
1010
0000
1001
,
1001
0000
0000
0000
1000
0000
0010
0000
0100
0000
0001
0000
0010
0000
0001
1000
,
0001
1000
0010
0100
0001
0010
0100
0000
,
1000
0000
0001
0000
0100
0000
0010
0000
1000
0000
0001
0000
0100
0000
0001
0100
,
0001
0000
0100
0000
0010
0000
1000
0010
1000
0000
0010
0000
1000
0000
0100
0000
,
0010
0000
0001
0000
1000
0000
0001
0000
0100
0000
0010
0000
1000
0000
0001
1000
,
0001
1000
0010
0100
0001
0010
0100
1000
,
0001
0100
0001
1000
0100
0010
0001
1000
,
0001
0000
1000
0000
0010
0000
0100
0000
0001
0000
0100
0001
0100
0001
0100
0000
,
0010
0000
1000
0100
0010
0001
0010
0100
,
1000
0010
0100
0001
0100
0010
0100
0001
,
0100
0010
1000
0100
0010
0001
0010
0100
,
1000
0010
0100
0010
0100
0001
0100
0010
,
1000
0000
0010
0100
0001
0010
0100
1000
,
0010
0000
0100
0001
0010
0100
1000
0010
,
0100
0000
0000
0000
0100
0001
0100
0000
0010
0000
0000
0010
1000
0000
0100
0000
,
0010
0000
0001
0010
0100
0000
1000
0000
0000
0000
0011
0000
0000
0000
1100
0000
;

//---------------dance-single - Renard----------------
#NOTES:
     dance-single:
     Renard:
     Medium:
     6:
     0.381,0.462,0.187,0.009,0.000:
0000
0000
0000
0000
,
0000
0000
0000
0000
,
0000
0000
0000
0000
,
0000
0000
0000
0000
,
0000
0000
0000
0000
,
0000
0000
0000
0000
,
0000
0000
0000
0000
,
0000
0000
0000
0000
,
1000
0000
0000
0000
,
0001
0001
0000
0000
,
1000
1000
0000
0000
,
0010
0010
0000
0000
,
0100
0101
0000
0101
,
1000
1100
0000
1100
,
0010
0011
0000
0011
,
0000
1000
1000
1000
,
0001
0101
1000
1100
,
0001
0101
1000
1100
,
0001
0101
1000
1100
,
0001
0101
1000
1100
,
0001
0011
1000
1010
,
0001
0011
1000
1010
,
0001
0011
1000
1010
,
0001
0001
1000
0001
,
1000
0000
0010
0100
,
0001
0000
1000
0100
,
0010
0000
0001
1000
,
0001
0000
0100
0010
,
1000
0000
1000
0001
,
1000
0000
0001
1000
,
0001
1000
0001
1000
,
0010
0010
0010
0010
,
0100
0000
0000
0000
,
0000
0000
0000
0000
,
0001
0000
0001
0000
,
1000
0000
1000
0000
,
0001
0100
0001
0000
,
1000
0100
0000
0010
0000
0001
0000
0000
,
1000
0001
0100
0001
,
1000
0100
1000
0001
,
0010
0001
1000
0001
1000
0001
1000
0001
,
0100
0010
0100
0010
,
1000
0000
0000
0001
0000
0000
0100
0000
,
0020
0000
0000
0000
,
0130
0000
0001
0000
1000
0100
1000
0100
,
1000
0001
0010
0001
,
1000
0000
0010
0000
0100
0001
0100
0001
,
1000
0100
0010
0001
,
1000
0000
0010
0000
0100
0001
0100
0000
,
0001
0000
1000
0000
0100
1000
0100
0000
,
1000
0000
0001
0000
0010
0001
0010
0000
,
0001
1000
0010
0100
,
0001
0000
1000
0000
0100
1000
0100
0000
,
1000
0001
0010
0001
,
1000
0000
0010
0000
0100
0001
0100
0000
,
0001
1000
0100
0010
,
0001
0000
1000
0000
0010
1000
0010
0000
,
1000
0000
0001
0000
0100
0001
0100
0000
,
0001
0000
1000
0100
1000
0000
0001
0010
,
0001
0000
1000
0000
0001
0100
0010
1000
,
0001
0100
0001
0100
,
0010
1000
0100
0010
,
0001
1000
0100
0010
,
0100
1000
0010
0100
,
0001
0010
0001
1000
,
0010
0100
0001
1000
,
0100
1000
0001
0010
,
0001
1000
0001
0100
0010
0100
0010
0100
,
0010
1000
0001
0100
,
0010
1000
0001
0100
,
0001
1000
0100
0010
,
0001
1000
0100
0010
,
0001
0000
1000
0000
0001
0000
0100
0001
,
0100
0000
0001
0000
1000
0000
0100
1000
,
0100
1000
0001
0010
,
0001
1000
0000
0010
0000
0100
0000
0001
,
1000
0000
0000
0000
;

//---------------dance-single - Renard----------------
#NOTES:
     dance-single:
     Renard:
     Easy:
     2:
     0.281,0.391,0.178,0.075,0.000: // measure 1
0000
0000
0000
0000
,  // measure 2
0000
0000
0000
0000
,  // measure 3
0000
0000
0000
0000
,  // measure 4
0000
0000
0000
0000
,  // measure 5
0000
0000
0000
0000
,  // measure 6
0000
0000
0000
0000
,  // measure 7
0000
0000
0000
0000
,  // measure 8
0000
0000
0000
0000
,  // measure 9
0000
0000
0000
0000
,  // measure 10
0001
0000
0000
0000
,  // measure 11
1000
0000
0000
0000
,  // measure 12
0001
0000
0000
0000
,  // measure 13
0100
0100
0100
0100
,  // measure 14
0010
0010
0010
0010
,  // measure 15
0100
0100
0010
0010
,  // measure 16
0100
0000
0000
0000
,  // measure 17
0000
0101
0000
1100
,  // measure 18
0000
0101
0000
1001
,  // measure 19
0000
0011
0000
1010
,  // measure 20
0000
0011
0000
1001
,  // measure 21
0000
1100
0000
0101
,  // measure 22
0000
1100
0000
1001
,  // measure 23
0000
0011
0000
1010
,  // measure 24
0000
0011
0000
1001
,  // measure 25
1000
1000
0001
0000
,  // measure 26
0001
0000
0001
0000
,  // measure 27
0001
0001
1000
0000
,  // measure 28
1000
0000
1000
0000
,  // measure 29
0010
0100
0010
0100
,  // measure 30
0010
0100
0010
0100
,  // measure 31
0001
1000
0001
1000
,  // measure 32
0001
1000
0001
1000
,  // measure 33
0010
0000
0000
0000
,  // measure 34
0200
0000
0000
0000
,  // measure 35
0302
0000
2003
0000
,  // measure 36
3020
0000
0230
0000
,  // measure 37
0301
1000
0001
0000
,  // measure 38
0200
0000
0320
0000
,  // measure 39
2030
0000
0001
0000
,  // measure 40
0001
0000
0001
0000
,  // measure 41
0001
0001
0001
3001
,  // measure 42
0001
0101
0000
1100
,  // measure 43
0011
0000
0000
0000
,  // measure 44
0000
0000
0000
0000
,  // measure 45
0001
0001
0010
0100
,  // measure 46
1000
1000
0100
0010
,  // measure 47
0001
0001
0010
0100
,  // measure 48
1000
1000
0100
0010
,  // measure 49
0001
0001
0010
0100
,  // measure 50
1000
1000
0100
0010
,  // measure 51
0001
0001
0010
0100
,  // measure 52
1000
0000
1000
0000
,  // measure 53
1000
0000
0010
0100
,  // measure 54
0001
0000
0001
0100
,  // measure 55
0010
0000
0010
1000
,  // measure 56
0100
0000
0100
0000
,  // measure 57
1000
0000
1000
0001
,  // measure 58
0100
0000
0100
0001
,  // measure 59
1000
0001
1000
0001
,  // measure 60
0100
0010
0100
0010
,  // measure 61
1000
1000
0001
0000
,  // measure 62
0001
0001
1000
0000
,  // measure 63
0010
0010
0100
0000
,  // measure 64
0100
0000
0100
0000
,  // measure 65
0010
0100
0010
0100
,  // measure 66
0001
1000
0001
0000
,  // measure 67
1000
0001
0100
0010
,  // measure 68
1000
0001
1000
0000
,  // measure 69
1000
0000
1000
0000
,  // measure 70
0001
0000
0001
0000
,  // measure 71
1000
0000
1000
0000
,  // measure 72
0010
0100
0010
0000
,  // measure 73
0100
0000
0100
0000
,  // measure 74
0001
0000
0001
0000
,  // measure 75
1000
0001
1000
0001
,  // measure 76
0100
0010
1000
0001
,  // measure 77
0100
0000
0000
0000
;
