#TITLE:Dash Hopes;
#SUBTITLE:;
#ARTIST:Renard;
#TITLETRANSLIT:;
#SUBTITLETRANSLIT:;
#ARTISTTRANSLIT:;
#CREDIT:;
#BANNER:dash.png;
#BACKGROUND:dash-bg.png;
#LYRICSPATH:;
#CDTITLE:;
#MUSIC:dash.ogg;
#OFFSET:0.000;
#SAMPLESTART:19.100;
#SAMPLELENGTH:12.000;
#SELECTABLE:YES;
#BPMS:0.000=450.000;
#STOPS:;
#BGCHANGES:;

//---------------dance-single - Renard----------------
#NOTES:
     dance-single:
     Renard:
     Challenge:
     16:
     1.000,1.000,0.268,0.123,0.022: // measure 1
0000
0000
0000
0000
,  // measure 2
0000
0000
0000
0000
,  // measure 3
0000
0000
0000
0000
,  // measure 4
0000
0000
0000
0000
,  // measure 5
0000
0000
0000
0000
,  // measure 6
0000
0000
0000
0000
,  // measure 7
0000
0000
0000
0000
,  // measure 8
0000
0000
0000
0000
,  // measure 9
0000
0000
0000
0000
,  // measure 10
0000
0000
0000
0000
,  // measure 11
1000
1000
0001
0001
,  // measure 12
0100
0100
0110
0000
,  // measure 13
1001
1000
1001
0001
,  // measure 14
0202
0303
0220
0330
,  // measure 15
0010
1000
0001
0100
,  // measure 16
0010
0000
1000
0000
0001
0100
0001
0100
,  // measure 17
0001
0000
1000
0100
1000
0000
0001
0000
,  // measure 18
2002
0000
0010
3003
,  // measure 19
0001
0100
1100
0000
,  // measure 20
0101
0000
1001
0000
,  // measure 21
1000
0000
0000
0000
1000
0000
1000
0000
0000
0000
1000
0000
,  // measure 22
1000
0000
0000
0000
1000
0000
1000
0000
0000
0000
1000
0000
,  // measure 23
0001
1000
0001
0000
0100
0000
0010
0000
,  // measure 24
1000
0000
1000
0000
0001
0010
0001
0010
,  // measure 25
0001
0000
1000
0001
1000
0000
0001
0000
,  // measure 26
0100
0000
0010
1000
0001
0100
0010
0000
,  // measure 27
1001
0000
0000
0000
,  // measure 28
0000
0000
0000
0000
,  // measure 29
0000
0000
0000
0000
,  // measure 30
0000
0000
0000
0000
,  // measure 31
0000
0000
0000
0000
,  // measure 32
0000
0000
0000
0000
,  // measure 33
0000
0000
0000
0000
,  // measure 34
0000
0000
0000
0000
,  // measure 35
0000
0000
0000
0000
,  // measure 36
0000
0000
0000
0000
,  // measure 37
0001
0000
0000
0001
0100
0000
0000
0100
,  // measure 38
0010
0100
0010
0000
0000
0000
1000
0000
,  // measure 39
0010
0000
0000
0010
1000
0000
0000
1000
,  // measure 40
0100
1000
0100
0000
1000
0000
0001
0000
,  // measure 41
0010
0000
0000
0010
0001
0000
0000
0001
,  // measure 42
1000
0001
1000
0000
0000
0000
0001
0000
,  // measure 43
0100
0000
0000
0100
0010
0000
0000
0010
,  // measure 44
1000
0010
1000
0000
0001
0000
0100
0000
,  // measure 45
0001
0000
0000
0001
0100
0000
0000
0100
,  // measure 46
0001
1000
0001
0000
1000
0000
0001
0000
,  // measure 47
1000
0000
0000
1000
0100
0000
0000
0100
,  // measure 48
0010
0001
0010
0001
1000
0000
0001
0000
,  // measure 49
1000
0000
0000
1000
0010
0000
0000
0010
,  // measure 50
0100
0001
0100
0000
0001
0000
1000
0000
,  // measure 51
0110
0110
0110
0110
,  // measure 52
1001
1001
1001
1001
,  // measure 53
1000
0100
0010
0001
0010
0100
1000
0001
,  // measure 54
0010
0100
0010
0000
0000
0000
0001
0000
,  // measure 55
1000
0100
0010
0001
1000
0100
0010
0001
,  // measure 56
0010
0100
1000
0000
0000
0000
0001
0000
,  // measure 57
1000
0010
0100
0001
0100
0010
1000
0001
,  // measure 58
0100
0010
1000
0000
0000
0000
0001
0000
,  // measure 59
0100
0001
1000
0010
0100
0001
0100
0010
,  // measure 60
1000
0001
0100
0000
0000
0000
0001
0000
,  // measure 61
1000
0100
0010
0001
0100
0010
1000
0001
,  // measure 62
1000
0100
0010
0000
0000
0000
0001
0000
,  // measure 63
0010
0100
1000
0001
0100
0010
1000
0100
,  // measure 64
0010
0001
1000
0000
0000
0000
0001
0000
,  // measure 65
0100
0010
1000
0100
0010
0001
0100
0010
,  // measure 66
1000
0001
1000
0000
0001
0000
0010
0000
,  // measure 67
0100
0000
1000
0100
0010
0000
0001
0000
,  // measure 68
0010
0000
0100
1000
0001
0010
0100
0000
,  // measure 69
1000
0000
0001
0100
1000
0000
0100
0001
,  // measure 70
0010
0000
1000
0010
0001
0000
1000
0000
,  // measure 71
0001
0000
0001
0000
0001
0000
0100
0010
,  // measure 72
0100
0100
0100
0100
,  // measure 73
0010
0000
1000
0010
0001
0000
0010
1000
,  // measure 74
0100
0000
0001
0000
0100
1000
0100
1000
,  // measure 75
0100
0000
1100
0000
,  // measure 76
0100
0100
0100
0100
,  // measure 77
1000
0001
0100
0001
0100
0000
0001
1000
,  // measure 78
0001
0000
0010
1000
0010
1000
0010
0000
,  // measure 79
0001
0010
0001
0010
0001
0000
0010
0100
,  // measure 80
0010
0100
1000
0010
,  // measure 81
0100
0000
0001
0100
0001
0000
1000
0001
,  // measure 82
1000
0000
0100
0000
0010
0001
0010
0001
,  // measure 83
0010
0000
2002
0000
,  // measure 84
0010
0000
3003
0000
,  // measure 85
1000
0000
0100
0010
0100
0000
0001
0000
,  // measure 86
1000
0000
0010
0100
0010
0000
0001
0000
,  // measure 87
1000
0000
0100
0010
0100
0000
0001
0000
,  // measure 88
1000
0000
0010
0100
0010
0000
0001
0000
,  // measure 89
1000
0000
0100
0010
0100
0000
0001
0000
,  // measure 90
1000
0000
0010
0100
0010
0000
0001
0000
,  // measure 91
1000
0000
0100
0010
0100
0000
0001
0000
,  // measure 92
1000
0000
0010
0100
0010
0000
0001
0000
,  // measure 93
1000
1000
0001
0001
,  // measure 94
0100
0100
0010
0010
,  // measure 95
1000
0100
0010
0001
,  // measure 96
0100
0010
1000
0001
,  // measure 97
1000
0100
0010
0001
0010
0100
1000
0010
,  // measure 98
0100
0001
0100
0010
1000
0010
0100
0001
,  // measure 99
0010
0100
1000
0010
0100
0001
0010
0100
,  // measure 100
1000
0100
0010
0001
0010
0100
1000
0010
,  // measure 101
0200
0000
0000
0000
,  // measure 102
0000
0000
0000
0300
,  // measure 103
0001
0000
0100
1000
0100
0000
0001
0000
,  // measure 104
0010
0000
0100
1000
0100
0000
0010
0000
,  // measure 105
0001
0000
0100
1000
0100
0000
0001
0000
,  // measure 106
0010
0000
0100
1000
0100
0000
0010
0000
,  // measure 107
0001
0000
0100
0001
0100
0000
0001
0000
,  // measure 108
0010
0000
0100
1000
0100
0000
0010
0000
,  // measure 109
0001
0000
0100
0001
0100
0000
0010
0000
,  // measure 110
0100
0000
1000
0100
1000
0000
0010
0000
,  // measure 111
0100
0000
0001
0010
0001
0000
0010
0000
,  // measure 112
0100
0000
1000
0100
1000
0000
0100
0000
,  // measure 113
0001
0000
0100
0001
0100
0000
0001
0000
,  // measure 114
0100
0000
0010
0001
0010
0000
1000
0000
,  // measure 115
0010
0000
0100
1000
0100
0000
1000
0000
,  // measure 116
0010
0000
0100
0001
0100
0000
0001
0000
,  // measure 117
0100
0000
0010
1000
0010
0000
0100
0000
,  // measure 118
0001
0000
0010
1000
0010
0000
0001
0000
,  // measure 119
0010
0100
1000
0001
0010
0000
0001
0000
,  // measure 120
1000
0100
0010
0001
1000
0000
0100
0000
,  // measure 121
1000
0001
0010
0100
1000
0000
0100
0000
,  // measure 122
0010
0001
0010
0001
1000
0100
1000
0100
,  // measure 123
1000
0010
0100
0001
0100
0000
0010
0000
,  // measure 124
1000
0001
0100
0010
1000
0000
0001
0000
,  // measure 125
0100
0010
1000
0001
0100
0000
0010
0000
,  // measure 126
1000
0010
0100
0001
1000
0010
0100
0001
,  // measure 127
1000
0100
0010
0001
1000
0000
0001
0000
,  // measure 128
0010
0100
1000
0001
1000
0000
0010
0000
,  // measure 129
0100
0001
0100
0010
1000
0000
0100
0000
,  // measure 130
0010
0001
1000
0100
0010
0001
1000
0010
,  // measure 131
0100
0001
0100
0001
1000
0000
0010
0000
,  // measure 132
0100
0001
0010
0001
0010
0000
0100
0000
,  // measure 133
1100
0000
0110
0000
,  // measure 134
2002
0000
0010
3003
,  // measure 135
1000
0100
0010
0001
0010
0100
1000
0010
,  // measure 136
0100
0001
0010
0000
0000
0000
0100
0000
,  // measure 137
1000
0010
0100
0001
0010
0001
1000
0010
,  // measure 138
0100
0001
0010
0000
0000
0000
0001
0000
,  // measure 139
1000
0010
0100
0010
1000
0100
0010
0001
,  // measure 140
0100
0010
0100
0000
0001
0000
0010
0000
,  // measure 141
0100
1000
0010
0100
0001
0100
0010
1000
,  // measure 142
0100
0010
0001
0000
0100
0000
0010
0000
,  // measure 143
1000
0001
0100
0010
1000
0100
0010
0001
,  // measure 144
0100
0010
1000
0000
0001
0000
0010
0000
,  // measure 145
0100
1000
0001
0100
0010
1000
0100
1000
,  // measure 146
0001
0010
0001
0000
0100
0000
0010
0000
,  // measure 147
1000
0001
1000
0001
0100
0010
1000
0001
,  // measure 148
0100
0010
1000
0000
0001
0000
0100
0000
,  // measure 149
0010
0000
0100
0010
0100
0000
0010
0000
,  // measure 150
0100
0000
0010
0100
0010
0100
0010
0000
,  // measure 151
1000
0010
0100
0001
0010
1000
0010
0001
,  // measure 152
0010
0100
1000
0000
0001
0000
0100
0000
,  // measure 153
0010
1000
0010
0100
0001
0010
1000
0010
,  // measure 154
0100
1000
0010
0000
0100
0000
0001
0000
,  // measure 155
0100
0010
1000
0010
0001
0010
0100
1000
,  // measure 156
0100
0001
0100
0000
0010
0000
1000
0000
,  // measure 157
0100
0010
0001
0010
1000
0010
0100
0001
,  // measure 158
0100
1000
0010
0000
0100
0000
0001
0000
,  // measure 159
0100
0010
1000
0010
0001
0010
0100
0001
,  // measure 160
0100
0010
1000
0000
0100
0000
0010
0000
,  // measure 161
0001
0010
1000
0010
0100
1000
0100
0001
,  // measure 162
0100
1000
0010
0000
0100
0000
0001
0000
,  // measure 163
0100
0010
1000
0001
1000
0100
0010
0001
,  // measure 164
0100
0010
1000
0100
0001
0100
0010
0001
,  // measure 165
0010
1000
0010
0100
0001
0100
0010
1000
,  // measure 166
1001
0000
0000
0000
;
