#TITLE:Dar-Licks;
#SUBTITLE:;
#ARTIST:Control Z vs Screwface;
#TITLETRANSLIT:;
#SUBTITLETRANSLIT:;
#ARTISTTRANSLIT:;
#CREDIT:;
#BANNER:dar.png;
#BACKGROUND:dar-bg.png;
#LYRICSPATH:;
#CDTITLE:;
#MUSIC:dar.ogg;
#OFFSET:0.000;
#SAMPLESTART:21.253;
#SAMPLELENGTH:12.000;
#SELECTABLE:YES;
#BPMS:0.000=135.100,116.000=270.200,118.500=135.100;
#STOPS:116.000=0.333
,119.500=0.222
;
#BGCHANGES:;

//---------------dance-single - Renard----------------
#NOTES:
     dance-single:
     Renard:
     Challenge:
     10:
     0.646,0.707,0.335,0.134,0.608:
0000
0000
0000
0000
,
0000
0000
0000
0000
,
0000
0000
0000
0000
,
0000
0000
0000
0000
,
1000
0000
0100
0000
0010
0000
0100
0001
0000
0100
0010
0000
0100
0000
1000
0000
,
0010
0000
0100
0000
0010
0000
0001
0010
0000
0100
0010
0000
1000
0000
0010
0000
,
0100
0000
0001
0000
0010
0000
0100
1000
0001
0010
0100
0000
1000
0000
0001
0100
,
0010
1000
0001
0000
0100
0000
0010
1000
0001
0100
0010
0000
1001
0000
0000
0000
,
0101
0000
0000
0000
0000
0000
0010
0000
1000
0000
0000
0100
0000
0000
0010
0000
,
0001
0000
0000
0001
0010
0000
0000
0010
0100
0000
0000
0100
1000
0000
0000
1000
,
0010
0100
0001
0100
0010
1000
0100
0010
0001
0010
0100
1000
0001
0100
0010
0000
,
2002
0000
0000
3003
,
1001
0000
0100
0010
0000
0010
1000
0000
0010
0000
0000
0101
0000
0000
1010
0000
,
1000
0000
0100
0000
0010
0000
0001
0010
0100
0000
1000
0000
0001
0000
0010
0000
,
0011
0000
0000
0110
0000
0000
0100
1000
0010
0000
0000
1010
0000
0000
0101
0000
,
0001
0100
0010
0000
1000
0000
0010
0000
1000
0000
1000
0010
0000
0010
1000
0000
,
0101
0000
0000
1010
0000
0000
1000
0100
0010
0000
0000
0011
0000
0000
0110
0000
,
0100
1000
0001
0000
1000
0000
0010
0000
0100
0000
0001
1000
0000
0010
0100
0000
,
0001
0100
0010
1000
0100
0010
0001
0010
0100
1000
0001
0010
0100
1000
0010
0100
,
0002
0000
0000
0203
0000
0320
0000
0000
,
1030
0000
0000
0000
0001
0000
0100
0000
0010
0000
0000
0010
0000
0000
0010
0000
,
1000
0000
1000
0100
0000
0000
0000
0000
0000
0000
0000
0000
0000
0000
0000
0000
,
0020
0000
0000
0000
,
0032
0000
0000
0203
0000
0000
0000
0000
,
0310
0000
1000
0001
0100
0000
0010
1000
0100
0010
0001
0000
0010
0000
0100
0000
,
1000
0000
0001
0100
0010
0000
1000
0010
0100
0001
0100
0010
1000
0100
0010
0001
,
0010
0000
0100
0000
1000
0000
0001
0010
0100
0000
1000
0010
0100
0000
0001
0000
,
0100
0000
0010
0000
1000
0000
0010
0000
0110
0000
0000
0110
0000
0000
0110
0000
,
0010
0000
0000
1000
0000
0000
0100
0010
0001
0000
0010
0100
0000
1000
0001
0000
,
0010
2002
0000
0000
0000
0100
0000
3013
,
1000
0000
0010
0000
0100
0000
0001
0100
0000
0010
1000
0000
0100
0000
0010
0001
,
0000
0010
0100
0000
1000
0000
0001
0010
0000
0100
1000
0000
1001
0000
0000
0000
,
0001
0000
0100
0010
1000
0000
0010
0000
0100
0000
0100
0001
0000
0001
0100
0000
,
0010
0000
1000
0000
0100
0000
0010
0000
0001
0000
0010
0100
0000
1000
0001
0000
,
1000
0000
0010
0000
0100
0000
0001
0000
0100
0000
0000
0100
0000
0000
0100
0000
,
0010
1000
0010
0000
0100
0000
0001
1000
0010
0000
0100
0001
0000
0100
0010
0000
,
1000
0000
0010
1000
0000
0100
0010
0000
0001
0000
0010
0100
1000
0000
0001
0000
,
0010
0100
1000
0001
0100
0010
1000
0010
,
1000
0000
1000
0010
0000
0010
0100
0000
0001
0000
0010
0100
0000
0100
1000
0000
,
0010
0000
0100
0001
0000
1000
0001
0000
,
0001
0000
0100
0000
0101
0000
0000
0100
0010
0000
1000
0000
1010
0000
1000
0000
,
0100
0000
0010
0000
0011
0000
0000
0011
0000
0000
0010
0000
0100
0000
1000
0000
,
0001
0000
0100
0000
0110
0000
0000
0010
0000
1000
0010
0000
1010
0000
0000
1000
,
0100
0000
0010
0000
0011
0000
0000
0010
0000
0100
1000
0001
0010
0100
1000
0000
,
0001
0000
0100
0000
0110
0000
0000
0010
0000
1000
0010
0000
1010
0000
0000
0000
,
0100
0000
0001
0000
1001
0000
0000
0001
0000
1000
0100
0000
0010
0000
0001
0010
,
0100
0000
1000
0000
1001
0000
0000
1000
0000
0010
0100
0000
0001
0000
0100
0010
,
0000
0010
1000
0000
0010
0000
0100
0001
0000
0100
0010
0000
1000
0100
0010
0002
,
2000
0000
0000
3003
;

//---------------dance-single - Renard----------------
#NOTES:
     dance-single:
     Renard:
     Hard:
     8:
     0.477,0.509,0.145,0.022,0.318:
0000
0000
0000
0000
,
0000
0000
0000
0000
,
0000
0000
0000
0000
,
0000
0000
0000
0000
,
1000
0000
0000
0000
0001
0000
0000
0100
0000
0000
0001
0000
1000
0000
0000
0000
,
0001
0000
0000
0000
0010
0000
0000
0001
0000
0000
1000
0000
0001
0000
0000
0000
,
0100
0000
0010
0000
0100
0010
1000
0000
,
0001
1000
0001
0100
0000
0100
0010
0000
,
1000
0000
0000
0000
0000
0000
0001
0000
0100
0000
0000
0001
0000
0000
1000
0000
,
0000
0000
0001
1000
,
0001
0100
0010
1000
0100
0010
0001
1000
,
0001
0000
0000
0000
,
1000
0000
0001
0000
0100
0000
0010
0000
1000
0000
0000
0001
0000
0000
1000
0000
,
0100
0000
0010
0000
0001
0000
1000
0000
0001
0000
0100
0001
0000
0100
0001
0000
,
0100
0000
0010
0000
1000
0000
0100
0000
0010
0000
0000
0010
0000
0000
0010
0000
,
0100
1000
0100
0000
1000
0000
0001
0000
0100
0000
0000
0010
0000
0000
1000
0000
,
0100
0000
0010
0000
0001
0000
1000
0000
0001
0000
0000
0100
0000
0000
0001
0000
,
1000
0100
1000
0000
0001
0000
0010
0000
0100
0000
0000
1000
0000
0000
0001
0000
,
0100
0010
0100
0000
0010
0100
0010
0000
0100
0010
0100
0000
0010
0100
0010
0000
,
0100
0000
0000
0001
0000
0000
1000
0000
,
0001
0000
0000
0000
0000
0000
0100
0000
0010
0000
0000
0100
0000
0000
0010
0000
,
0100
0000
0001
1000
0000
0000
0000
0000
0000
0000
0000
0000
0000
0000
0000
0000
,
0001
0000
0000
0000
,
1000
0000
0000
0100
0000
0000
0010
0000
,
0001
0000
1000
0000
0001
0000
0100
0010
0000
1000
0001
0000
1000
0000
0100
0000
,
0010
0001
1000
0001
0100
0010
1000
0100
,
0010
0000
0001
0000
1000
0000
0001
0100
0000
0010
0100
0000
0010
0000
0100
0000
,
0001
0000
1000
0000
0100
0000
0010
0000
0001
0000
0000
1000
0000
0000
0001
0000
,
1000
0000
0100
0000
0010
0000
0001
1000
0000
0001
0100
0000
0010
0000
1000
0000
,
0002
2000
0000
0000
0000
0010
0000
3003
,
1000
0000
0001
0000
0100
0000
0010
1000
0000
0001
0100
0000
0010
0000
1000
0000
,
0001
1000
0001
0000
1000
0000
0100
0010
0000
0001
1000
0000
0001
0000
0000
0000
,
1000
0000
0100
0000
0010
0000
0001
1000
0000
0001
1000
0000
0010
0000
0100
0000
,
0001
0000
0010
0000
0001
0000
1000
0000
0010
0000
0000
0010
0000
0000
0010
0000
,
1000
0000
0100
0000
0010
0000
0001
0000
1000
0000
0000
1001
0000
0000
0110
0000
,
0000
0000
0010
0000
1000
0000
0001
0000
0100
0000
0000
0100
0000
0000
0100
0000
,
0010
0000
1000
0000
0100
0000
0010
0000
0011
0000
0000
0110
0000
0000
1100
0000
,
1000
0000
0100
1000
0000
0000
0001
0000
0010
0000
0001
0000
1000
0000
0000
0000
,
0010
0000
0100
0000
0001
0000
1000
0100
0000
0010
0001
0000
1000
0000
0001
0000
,
0100
0000
0010
1000
0000
0000
0001
0000
,
1000
0000
0000
0000
0011
0000
0000
0100
0000
1000
0001
0000
0100
0000
0000
0000
,
0010
0000
0000
0000
0101
0000
0000
0010
0000
1000
0100
0000
0010
0000
0000
0000
,
0100
0000
0000
0000
0011
0000
0000
0100
0000
1000
0001
0000
0100
0000
0000
0000
,
0010
0000
0000
0000
1010
0000
0000
1000
0000
0001
0100
0000
0010
0000
0000
0000
,
1001
0000
0000
0000
0100
0000
0000
0010
0000
1000
0100
0000
0010
0000
0000
0000
,
0011
0000
0000
0000
0110
0000
0000
0100
0000
1000
0001
0000
0100
0000
0010
0000
,
1000
0000
0000
0000
0101
0000
0000
0001
0000
1000
0100
0000
0010
0000
0000
0001
,
0010
0000
0100
0000
1000
0000
0001
0100
0000
0010
1000
0000
0001
0100
0010
0000
,
0010
0000
0000
0000
;

//---------------dance-single - Renard----------------
#NOTES:
     dance-single:
     Renard:
     Medium:
     4:
     0.269,0.321,0.100,0.145,0.000:
0000
0000
0000
0000
,
0000
0000
0000
0000
,
0000
0000
0000
0000
,
0000
0000
0000
0000
,
1000
0000
0001
0000
0000
0100
0010
0000
,
1000
0000
0100
0000
0000
0010
0001
0000
,
2000
0000
0000
0000
,
3002
0000
0000
0203
0000
0000
0320
0000
,
1030
0000
0001
1000
,
0001
0000
0100
0000
,
0010
1000
0100
0010
0001
1000
0001
0100
,
0001
0000
0000
0000
,
1000
0101
0000
1001
,
1000
0100
0010
0000
0001
0000
1001
0000
,
1000
1010
0000
0101
,
0001
1000
0100
0000
1000
0000
0001
0000
,
0010
0011
0000
1100
,
1000
0001
1000
0000
0001
0000
0100
0000
,
0002
0000
0000
0000
,
0203
0000
0000
0320
0000
0000
0000
0000
,
1030
0000
0000
0001
0001
0000
0000
0001
,
0000
0000
0000
0000
,
0200
0000
0000
0000
,
0320
0000
0000
2030
0000
0000
0000
0000
,
3100
1000
0000
1000
,
0001
0010
0001
0010
,
0001
0100
0000
0100
,
0001
1000
0010
0010
,
0100
0000
0001
0000
0000
1000
0100
0000
,
0010
0000
0000
0000
0000
0000
0000
1001
,
0001
0000
0000
0000
,
0100
0000
0000
0010
0000
0000
1000
0000
,
0100
1000
0100
0000
1000
0000
0001
0000
,
0010
0001
1000
1000
,
0001
0000
0100
0000
0010
1000
0010
0000
,
1000
0001
1000
0000
0001
0000
0001
0000
,
0100
0001
0010
0010
,
0100
1000
0001
0100
,
0002
0000
0000
0000
,
2003
0000
0000
3200
0000
0000
0000
0000
,
0310
0000
0010
0000
0000
0010
0001
0000
,
1000
0000
1000
0000
0000
0001
0100
0000
,
0100
0000
0100
0000
0000
0010
1000
0000
,
0100
0000
0100
0000
0000
1000
0001
0000
,
0100
0000
0100
0000
0000
0010
1000
0000
,
0001
0000
0001
0000
0000
0100
0001
0000
,
1000
0000
0100
0000
0000
0010
0001
0000
,
1000
0000
0001
0000
0000
0100
0010
0000
,
1001
0000
0000
0000
;

//---------------dance-single - Renard----------------
#NOTES:
     dance-single:
     Renard:
     Easy:
     3:
     0.210,0.268,0.011,0.100,0.000: // measure 1
0000
0000
0000
0000
,  // measure 2
0000
0000
0000
0000
,  // measure 3
0000
0000
0000
0000
,  // measure 4
0000
0000
0000
0000
,  // measure 5
1000
0000
1000
0000
,  // measure 6
0001
0000
0100
0001
,  // measure 7
1000
0000
0000
0000
,  // measure 8
0100
0000
0000
0010
0000
0000
0000
0000
,  // measure 9
0001
0000
1000
0000
,  // measure 10
0000
0000
0000
0000
,  // measure 11
0001
1000
0001
0010
,  // measure 12
0100
0000
0000
0000
,  // measure 13
1000
0000
0001
0100
,  // measure 14
0001
1000
0001
0010
,  // measure 15
0001
0000
1000
0100
,  // measure 16
1000
0000
0001
0000
,  // measure 17
1000
0000
0001
0001
,  // measure 18
0001
0000
1000
0000
,  // measure 19
0002
0000
0000
0000
,  // measure 20
2003
0000
0000
0002
0000
0000
3003
0000
,  // measure 21
1000
0001
1000
0001
,  // measure 22
1000
0000
0000
0000
,  // measure 23
0002
0000
0000
0000
,  // measure 24
0203
0000
0000
0302
0000
0000
0000
0000
,  // measure 25
0013
0001
0000
0001
,  // measure 26
1000
0100
0000
0100
,  // measure 27
1000
0010
0100
0001
,  // measure 28
0010
0001
1000
0001
,  // measure 29
0100
0000
0001
0000
0000
1000
0100
0000
,  // measure 30
1000
0000
0000
0000
,  // measure 31
0001
1000
0000
1000
,  // measure 32
0001
1000
0001
0100
,  // measure 33
0001
1000
0000
1000
,  // measure 34
0001
0010
0100
1000
,  // measure 35
0001
0100
0000
0100
,  // measure 36
0001
1000
0100
0000
1000
0000
0000
0000
,  // measure 37
0001
0000
0001
0000
,  // measure 38
1000
1000
1000
0000
,  // measure 39
0001
0002
0000
0000
0000
0000
0000
0000
,  // measure 40
2003
0000
0000
0001
0002
0000
3003
0000
,  // measure 41
1000
0000
1000
1000
,  // measure 42
0001
0100
0010
0000
,  // measure 43
0001
0000
0001
0001
,  // measure 44
1000
0010
0100
0001
,  // measure 45
1000
0000
1000
1000
,  // measure 46
0001
1000
0100
0010
,  // measure 47
0001
0100
0001
0100
,  // measure 48
1000
0010
0001
0100
,  // measure 49
1001
0000
0000
0000
;
