#TITLE:Dancing with Kadafi;
#SUBTITLE:;
#ARTIST:Infected Mushroom;
#TITLETRANSLIT:;
#SUBTITLETRANSLIT:;
#ARTISTTRANSLIT:;
#CREDIT:;
#BANNER:;
#BACKGROUND:;
#LYRICSPATH:;
#CDTITLE:;
#MUSIC:kadafi.ogg;
#OFFSET:0.000;
#SAMPLESTART:19.960;
#SAMPLELENGTH:12.000;
#SELECTABLE:YES;
#BPMS:0.000=120.000,72.000=60.000,88.000=120.000;
#STOPS:;
#BGCHANGES:;

//---------------dance-single - Renard----------------
#NOTES:
     dance-single:
     Renard:
     Challenge:
     10:
     0.682,0.731,0.203,0.110,0.975:
0000
0000
0000
0000
,
0000
0000
0000
0000
,
1000
0001
0100
0010
0000
0000
1000
0000
0010
0000
0000
1000
0001
0000
0100
0000
,
0001
0000
1000
0100
0000
1000
0001
0000
0010
0000
0000
0001
1000
0000
0001
0000
,
0100
0010
1000
0100
0000
0000
0010
0000
0001
0000
0000
1000
0001
0000
0100
0000
,
0010
0000
1000
0001
0000
0000
1000
0000
0100
0000
0000
0010
0001
0000
1000
0000
,
0001
0100
0010
1000
0000
0000
0100
0000
1000
0000
0000
0001
0010
0000
0001
0000
,
1000
0000
0010
1000
0000
0000
0001
0000
0100
0000
0000
0001
1000
0000
0100
0000
,
0010
0001
0010
0100
0000
0000
1000
0000
0010
0000
0000
0100
0001
0000
0100
0000
,
0010
0000
1000
0001
0000
0000
1000
0000
0100
0010
0001
1000
0100
0010
0000
0000
,
0001
0010
0100
1000
0001
0000
1000
0000
0001
0000
0000
0000
0101
0000
0001
0000
,
1000
0100
0010
0001
1000
0000
0010
0000
1000
0000
0001
0000
1001
0000
0000
0000
,
1000
0100
0010
0001
1000
0000
0001
0000
0100
0000
0000
0000
1001
0000
0000
0000
,
1000
0100
0010
0001
0010
0000
0100
0000
1000
0000
1001
0000
1001
0000
0000
0000
,
0001
0100
0010
1000
0001
0000
1000
0000
0100
0000
0011
0000
1100
0000
0000
0000
,
0001
0010
0100
1000
0001
0000
1000
0000
0010
0000
0101
0000
0101
0000
0000
0000
,
0001
0100
0010
1000
0001
0000
1000
0000
0100
0000
0011
0000
0011
0000
0000
0000
,
0001
0000
0010
0100
1000
0000
0010
0100
0001
0000
1001
0000
0001
1000
0000
0000
,
1M02
00M0
M000
00M0
M000
0000
00M0
0000
M200
00M0
M003
000M
M020
0000
030M
0000
,
2M30
320M
M020
000M
M000
0000
000M
0000
M000
0000
000M
M000
030M
M000
0M00
0000
,
M002
0M00
M000
0000
0M00
0000
M030
0000
02M0
M000
00M0
M000
00M0
0000
M000
0000
,
M020
0000
M000
0000
M000
M000
M000
0333
,
0101
0000
0110
0000
0000
0000
1000
0000
0001
0100
0000
0001
0000
1000
0100
1000
,
0000
0000
0001
0000
0010
0000
0001
0000
1000
0010
0000
1000
0000
0001
0100
0001
,
1000
0000
0100
0000
0010
0000
0001
0000
1000
0001
0000
0100
0000
0000
0010
1000
,
0000
1001
0000
0000
1001
0000
0001
0000
0010
0100
0000
0110
0000
1000
0001
0000
,
1000
0001
1000
0000
0001
0000
0100
0000
0010
1000
0000
0001
0000
1000
0100
0000
,
1000
0000
0001
0000
0010
0000
0001
0000
1000
0001
0000
0100
0000
0010
1000
0001
,
0010
0000
0100
0000
1000
0000
0010
0000
0100
0001
0000
0100
0000
0010
1000
0001
,
1000
0000
0000
0100
0000
0000
0010
0000
0001
0000
0001
0000
0001
0000
0010
0000
0010
0000
0010
0000
0100
0000
0100
0000
,
1000
0100
1000
0000
0001
0000
0010
0000
0001
1000
0000
0010
0000
1000
0001
1000
,
0100
0000
0010
0000
0001
0000
1000
0000
0010
0100
0000
0001
0000
1000
0100
1000
,
0001
0000
0010
0000
0001
0000
1000
0000
0010
0100
0000
0001
1000
0000
0001
0000
,
0100
0010
0000
1000
0001
0000
0100
0010
1000
0001
1000
0001
1000
0001
1000
0001
,
1000
0100
0010
0001
0010
0100
1000
0001
0100
0010
1000
0001
1000
0100
1000
0001
,
0000
1000
0010
0000
1000
0000
0001
1000
0000
0100
0010
0000
0001
0000
0010
0100
,
0000
1000
0010
0000
0100
0001
0100
0010
1000
0100
0010
0001
0010
0100
1000
0001
,
0000
0100
0010
0000
1000
0100
0010
0001
0000
0010
0100
1000
0001
0100
0010
1000
,
0001
0000
0000
0100
0000
0000
0001
0000
0000
1000
0000
0000
0001
0000
0000
0100
0000
0000
0010
0000
0000
1000
0000
0000
0001
0000
0100
0000
0001
0000
0100
0000
0000
0001
0000
0000
1000
0000
0000
0100
0000
0000
0010
0000
0000
0001
0000
0000
,
0000
0011
0000
0100
1000
0010
1000
0001
0000
1001
0000
0001
0100
0010
1000
0001
,
0000
0000
0000
1000
0000
0000
0001
0000
0000
0000
0000
0000
1000
0000
0000
0100
0000
0000
0010
0000
0000
0001
0000
0000
1000
0000
0100
0000
1000
0000
0100
0000
0000
0010
0000
0000
0001
0000
0000
1000
0000
0000
0010
0000
0000
0100
0000
0000
,
0001
0000
0100
0001
0100
0000
0001
0000
1000
0000
0100
0000
1000
0000
0001
0000
0000
0000
0001
0000
0010
0000
0100
0000
1000
0000
0001
0000
1000
0000
0001
0000
,
0010
0000
0000
0001
0000
0000
0010
0000
0000
0100
0000
0000
0010
0000
0000
0001
0000
0000
1000
0000
0000
0100
0000
0000
0010
0000
0001
0000
0010
0000
0001
0000
0000
0010
0000
0000
0100
0000
0000
1000
0000
0000
0001
0000
0000
0100
0000
0000
,
0000
0101
0000
0001
0100
1000
0100
0001
0000
0101
0000
0001
0100
1000
0100
0010
,
0000
0000
0000
0100
0000
0000
0010
0000
0000
0000
0000
0000
0100
0000
0000
0001
0000
0000
1000
0000
0000
0010
0000
0000
0100
0000
0001
0000
0100
0000
0001
0000
0000
1000
0000
0000
0010
0000
0000
0100
0000
0000
1000
0000
0000
0001
0000
0000
,
0010
0000
0001
0010
0001
0000
0010
0000
0100
0000
0001
0000
0100
0000
0010
0000
0000
0000
0010
0000
1000
0000
0001
0000
0100
0000
0010
0000
0100
0000
0010
0000
,
1000
0000
0000
0010
0000
0000
1000
0000
0000
0001
0000
0000
1000
0000
0000
0010
0000
0000
0100
0000
0000
0001
0000
0000
1000
0000
0010
0000
1000
0000
0010
0000
0000
1000
0000
0000
0001
0000
0000
0010
0000
0000
0100
0000
0000
1000
0000
0000
,
0000
0011
0000
0100
1000
0010
1000
0001
0000
1001
0000
0001
0100
0010
1000
0001
,
0000
0000
0000
1000
0000
0000
0001
0000
0000
0000
0000
0000
1000
0000
0000
0100
0000
0000
0010
0000
0000
0001
0000
0000
1000
0000
0100
0000
1000
0000
0100
0000
0000
0010
0000
0000
0001
0000
0000
1000
0000
0000
0010
0000
0000
0100
0000
0000
,
0001
0000
0100
0001
0100
0000
0001
0000
0100
0000
0001
0000
0100
0000
0010
0000
0000
0000
0010
0000
1000
0000
0001
0000
0100
0000
0010
0000
0100
0000
0010
0000
,
0200
0000
0001
0010
1000
0000
0310
0000
,
0020
0000
1000
0100
0001
0000
0130
0000
,
0002
0000
1000
0100
0010
0000
0103
0000
,
2000
0000
0100
0001
0010
0000
3001
1000
;

//---------------dance-single - Renard----------------
#NOTES:
     dance-single:
     Renard:
     Hard:
     9:
     0.527,0.618,0.170,0.093,0.381:
0000
0000
0000
0000
,
0000
0000
0000
0000
,
1000
0000
1000
0001
0000
0000
0100
0000
0010
0000
0000
1000
0001
0000
1000
0000
,
0100
0000
0100
0010
0000
0000
0010
0000
0001
0000
0000
1000
0001
0000
0100
0000
,
0010
0000
0000
1000
0000
0000
0001
0000
0000
0000
1000
0000
0100
0000
0000
0000
,
0010
0000
0000
0001
0000
0000
1000
0000
0001
0000
0000
0000
0100
0000
0010
0000
,
1000
0000
0001
1000
0000
0000
0100
0000
0010
0000
0000
0001
1000
0000
0001
0000
,
0100
0000
0010
1000
0000
0000
0001
0000
1000
0000
0100
0000
0010
0000
0001
0000
,
1000
0000
1000
0001
0000
0000
0100
0000
0010
0000
0000
1000
0001
0000
1000
0000
,
0100
0000
0010
0001
0000
0000
0010
0000
0001
0010
0001
0010
0001
0010
0000
0000
,
0100
0000
1000
0000
0010
0000
0100
0000
0001
0000
0000
1000
0001
0000
1000
0000
,
0010
0000
1000
0000
0001
0000
1000
0000
0100
0000
0000
0010
0100
0000
1000
0000
,
0010
0000
0100
0000
0001
0000
0010
0000
0001
0000
0000
1000
0001
0000
0100
0000
,
0010
0000
1000
0000
0001
0000
0010
0000
0100
0000
0000
1000
0100
0000
0010
0000
,
0001
1000
0010
0100
0001
0000
1001
0000
,
1000
0100
0010
0001
1000
0000
1001
0000
,
0001
0010
0100
1000
0010
0000
1010
0000
,
1000
0010
0100
0001
0010
0000
0011
0000
,
0002
0000
2003
3002
,
0103
0010
2000
0000
0000
0000
0000
0000
0000
0000
0000
0000
3200
0000
0000
0000
,
0320
0000
0032
0200
,
0020
0000
0000
0333
,
0101
0000
0101
0000
0000
0000
0001
0000
1000
0100
0000
1000
0000
0000
0001
0000
,
0010
0000
0001
0000
1000
0000
0010
0000
1000
0001
0000
0010
0000
0000
0001
0000
,
1000
0000
0010
0000
1000
0000
0100
0000
0010
0001
0000
0010
0000
0000
0100
0000
,
1000
0010
0100
0001
1000
0001
0100
0010
,
0110
0000
0000
0000
1010
0000
1000
0000
0100
0010
0000
0001
0000
0000
0010
0000
,
0110
0000
0000
0000
0011
0000
0001
0000
0000
0010
0000
0100
0000
1000
0000
0010
,
0100
0000
0000
0010
0100
0000
0100
0000
0001
0100
0000
0010
0000
0000
1000
0000
,
0001
0000
0000
1000
0000
0000
0100
0000
0010
0000
0001
0000
0010
0000
0100
0000
1000
0000
0001
0000
0010
0000
0100
0000
,
1000
0000
0100
0010
0001
0000
1000
0000
0001
0000
0010
0000
0100
0000
0000
0000
,
1000
0001
0010
0100
1000
0001
0100
0000
,
0001
0000
0100
0010
1000
0000
0010
0000
1000
0000
0001
0000
0100
0000
0010
0000
,
1000
0000
0000
0000
0001
0000
0100
0000
0001
1000
0001
1000
0001
1000
0001
1000
,
0001
0000
0001
0100
0000
0100
0010
0000
1000
0000
0100
0000
0010
0000
0001
0000
,
1000
0000
0100
0000
0010
0000
0001
0010
0000
0100
1000
0000
0001
0000
0010
0001
,
0000
1000
0001
0000
0100
0000
0010
0000
1000
0000
0001
0000
1000
0000
0100
0000
,
0010
0000
0001
0000
0010
0000
0100
1000
0000
0001
0100
0000
0010
0000
1000
0000
,
0001
0000
1000
0100
0000
0010
0001
0000
1000
0000
0001
0000
0100
0000
0010
1000
,
0000
0001
0000
1000
0100
0000
0010
0001
0000
0010
0100
0000
1000
0000
0001
0100
,
0000
0010
1000
0000
0001
0000
1000
0100
0000
0010
0001
0000
0010
0000
0100
0000
,
1000
0000
0001
0000
0100
0000
0010
0000
1000
0000
0001
0000
1000
0001
1000
0001
,
1000
0000
0001
0100
0000
0010
1000
0000
0001
0000
1000
0000
1100
0000
0000
0000
,
0001
0000
0010
0100
0000
1000
0001
0000
0100
0000
0001
0000
1001
0000
0000
0000
,
1000
0000
0100
0010
0000
0001
1000
0000
0010
0000
1000
0000
1001
0000
1000
0000
,
0100
0000
0010
0001
0000
0010
0100
0000
1000
0000
0001
0000
1001
0000
0001
0000
,
0101
0000
0100
0010
0000
1000
0001
0000
1000
0000
0100
0000
1100
0000
0000
0000
,
0011
0000
0010
0100
0000
1000
0010
0000
1000
0000
0001
0000
1001
0000
0000
0000
,
0101
0000
0100
0010
0000
1000
0100
0000
1000
0000
0001
0000
1001
0000
0000
0000
,
0001
0010
0100
1000
0100
0010
0001
1000
0100
0010
0001
0010
0100
1000
0001
0010
,
0100
1000
0010
0100
0001
0000
0100
0010
,
1000
0100
0010
0001
0010
0000
0100
1000
,
0010
0100
0001
1000
0001
0000
0100
0001
,
1000
0100
0010
0001
1000
0000
0002
0200
,
0303
0000
0000
0000
;

//---------------dance-single - Renard----------------
#NOTES:
     dance-single:
     Renard:
     Medium:
     6:
     0.342,0.388,0.025,0.068,0.047:
0000
0000
0000
0000
,
0000
0000
0000
0000
,
1000
1000
1000
0001
,
1000
1000
1000
0001
,
0100
0100
0100
0010
,
0100
0100
0100
0010
,
1000
0010
0100
0000
0001
0000
0010
0000
,
0100
1000
0001
0010
,
0001
0100
0010
0000
1000
0000
0010
0000
,
1000
0000
0001
0000
1000
1000
1000
0000
,
0001
0000
0100
0001
0000
0000
0100
0000
0010
0000
0000
0000
1000
0000
0000
0000
,
0100
0010
0001
1000
,
0100
0000
1000
0100
0000
0000
1000
0000
0010
0000
0000
0000
0100
0000
0000
0000
,
0001
1000
0001
0100
,
0001
0000
1000
0001
0000
0000
1000
0000
0001
0000
0000
0000
0100
0000
0000
0000
,
0001
1000
0010
1000
,
0001
0000
1000
0100
0000
0000
1000
0000
0001
0000
0000
0000
0100
0000
0000
0000
,
0001
1000
0010
1000
,
0002
0000
0203
0320
,
1030
0100
0200
0000
0000
0000
0000
0000
0000
0000
0000
0000
0000
0000
0320
0000
,
0032
0000
2000
0000
,
0020
0000
0030
3003
,
1000
0001
0000
0100
0001
0000
1000
0000
,
0100
0010
0000
0001
0010
0000
0100
0000
,
1000
0010
0000
0100
0001
0000
0100
0000
,
0001
1000
0000
0001
1000
0000
0001
1000
,
0001
0100
0001
0100
0001
0100
0001
0100
,
0010
0100
0010
0100
0010
0100
0010
0100
,
0010
1000
0010
1000
0100
1000
0100
1000
,
0001
1000
0010
1000
0100
1000
0001
1000
,
0001
1000
0001
0000
1000
0000
1001
0000
,
0010
0100
0010
0000
0100
0000
0110
0000
,
0010
1000
0001
0000
1000
0000
1001
0000
,
0001
1000
0100
1000
0001
0001
1000
1000
,
0001
0000
0001
0000
0100
0010
1000
0100
,
0010
0010
0001
0001
,
1000
0000
1000
0000
1000
0100
0010
0001
,
1000
0001
0100
0001
,
1000
0001
1000
0001
0100
0001
0100
0000
,
0001
1000
0001
1000
0100
1000
0100
0000
,
1000
0001
1000
0001
0010
0001
0010
0000
,
0001
1000
0010
1000
0001
0100
0001
1000
,
0001
0000
0000
0100
0000
0000
0010
0000
1000
0000
0000
0000
0001
0000
0000
0000
,
1000
0000
0000
0100
0000
0000
0010
0000
0001
0000
0000
0000
1000
0000
0000
0000
,
0001
0000
0000
0100
0000
0000
0010
0000
1000
0000
0000
0000
0001
0000
0000
0000
,
1000
0001
0100
0001
,
1000
0000
0000
0100
0000
0000
0010
0000
0001
0000
0000
0000
1000
0000
0000
0000
,
0010
0000
0000
0100
0000
0000
0001
0000
0100
0000
0000
0000
0010
0000
0000
0000
,
1000
0000
0000
0100
0000
0000
1000
0000
0001
0000
0000
0000
0010
0000
0000
0000
,
0001
0001
1000
1000
0001
0001
1000
1000
,
0001
0000
0100
0000
0001
0000
1000
0100
,
0010
0010
0001
0001
,
1000
0000
0010
0000
0100
0000
0001
1000
,
0001
0000
1000
0000
0100
0000
0010
0001
;

//---------------dance-single - Renard----------------
#NOTES:
     dance-single:
     Renard:
     Easy:
     2:
     0.271,0.298,0.153,0.153,0.000: // measure 1
0000
0000
0000
0000
,  // measure 2
0000
0000
0000
0000
,  // measure 3
1000
1000
0001
0000
,  // measure 4
0100
0100
0001
0000
,  // measure 5
0010
0010
0001
0000
,  // measure 6
1000
1000
0100
0000
,  // measure 7
1000
1000
0010
0100
,  // measure 8
0001
0000
0001
0000
,  // measure 9
0010
0010
0100
1000
,  // measure 10
0010
0000
1000
0000
0001
0001
0001
0000
,  // measure 11
1000
1000
0001
0001
,  // measure 12
0100
0000
0100
0000
0001
1000
0001
0000
,  // measure 13
1000
1000
0010
0010
,  // measure 14
0100
0000
0100
0000
0001
1000
0001
0000
,  // measure 15
1000
1000
0100
0100
,  // measure 16
0010
0000
0010
0000
0001
1000
0001
0000
,  // measure 17
0100
0100
0010
0010
,  // measure 18
1000
0000
1000
0000
0001
1000
0001
0000
,  // measure 19
2000
0000
3200
0320
,  // measure 20
0032
0203
0000
0000
0000
0000
0000
0320
,  // measure 21
2000
0000
0000
0030
0200
0000
0000
0000
,  // measure 22
0010
0000
0000
3300
,  // measure 23
1000
1000
0001
0001
,  // measure 24
1000
0001
1000
0001
,  // measure 25
0100
0100
0010
0010
,  // measure 26
0100
0010
0100
0010
,  // measure 27
1000
1010
0000
1010
,  // measure 28
0001
0101
0000
0101
,  // measure 29
1000
1100
0000
1100
,  // measure 30
0001
0011
0000
0011
,  // measure 31
0001
0001
0100
0010
,  // measure 32
1000
1000
0100
0010
,  // measure 33
0001
0001
0010
0100
,  // measure 34
1000
1000
0010
0010
,  // measure 35
0010
0000
0010
1000
,  // measure 36
0001
0000
0001
0100
,  // measure 37
0010
0000
0010
1000
,  // measure 38
0100
0000
0100
0010
,  // measure 39
0001
0001
1000
1000
,  // measure 40
0001
0100
0010
1000
,  // measure 41
0001
0001
1000
1000
,  // measure 42
0100
0000
0010
0000
0001
1000
0001
0000
,  // measure 43
1000
1000
0001
1001
,  // measure 44
0001
0001
1000
1001
,  // measure 45
0010
0010
0100
0110
,  // measure 46
0100
0100
0010
0110
,  // measure 47
0010
1000
1010
1010
,  // measure 48
0001
0100
0101
0101
,  // measure 49
0001
1000
1001
1001
,  // measure 50
0010
0000
0100
0000
0001
0000
1000
0001
,  // measure 51
2000
0000
3002
0000
,  // measure 52
0203
0000
0320
2030
,  // measure 53
3200
0000
0320
0000
,  // measure 54
0032
0000
2003
0002
,  // measure 55
3003
0000
0000
0000
;
