#TITLE:Dance, Dance;
#SUBTITLE:;
#ARTIST:Fall Out Boy;
#TITLETRANSLIT:;
#SUBTITLETRANSLIT:;
#ARTISTTRANSLIT:;
#CREDIT:;
#BANNER:;
#BACKGROUND:;
#LYRICSPATH:;
#CDTITLE:;
#MUSIC:dance.ogg;
#OFFSET:0.000;
#SAMPLESTART:35.613;
#SAMPLELENGTH:12.000;
#SELECTABLE:YES;
#BPMS:0.000=229.000;
#STOPS:;
#BGCHANGES:;

//---------------dance-single - Renard----------------
#NOTES:
     dance-single:
     Renard:
     Hard:
     9:
     0.759,0.800,0.520,0.180,0.000:
0000
0000
0000
0000
,
0000
0000
0000
0000
,
0000
0000
0000
0000
,
0000
0000
0000
0000
,
1000
0000
0100
0010
0000
0010
0001
0000
,
0000
0000
1000
0000
0010
0100
0001
0000
,
0100
0000
0010
1000
0000
1000
0100
0000
,
0000
0000
0010
0000
0001
0010
0100
0000
,
1000
0001
0100
0010
,
1000
0000
0010
0100
0010
0000
0100
0000
,
0001
0010
0100
1000
,
0001
0000
0100
0010
0100
0000
0010
0000
,
1000
0000
0001
0100
0010
1000
0100
0010
,
0001
0000
0001
0010
0100
0000
1000
0000
,
0010
0100
0001
0100
0000
0010
1000
0000
,
0010
1000
0100
0010
,
0001
0010
0010
0100
,
1000
0000
0010
0100
0010
0000
0100
0000
,
0001
0010
0100
1000
,
0001
0000
0100
0010
0100
0000
0010
0000
,
1000
0000
0100
0000
0010
0000
0001
0010
,
0001
0010
0100
1000
,
0001
0000
0100
0010
0100
0000
0010
1000
,
0010
0000
0100
0001
0010
0100
1000
0000
,
0001
1000
0001
1000
0001
1000
0001
1000
,
0001
1001
0110
1001
,
0010
0100
0010
0100
0010
0100
0010
0100
,
0010
0110
1001
0110
,
1000
0001
1000
0001
1000
0001
1000
0001
,
1000
1001
0110
1001
,
0100
0010
0100
0010
0100
0000
0110
0000
,
1000
0001
1000
0001
1000
0000
1001
0000
,
0200
0000
0000
0300
0000
0000
0000
0000
0000
0000
0000
0000
0000
0000
0000
0000
0000
0000
0000
0000
0000
0000
0000
0000
0000
0000
0000
0000
0000
0000
0000
0000
0000
0000
0000
0000
0000
0000
0000
0000
0000
0000
0000
0000
0000
0000
0000
0000
0200
0000
0000
0000
0300
0000
0000
0000
0000
0000
0000
0000
0000
0000
0000
0000
0000
0000
0000
0000
0000
0000
0000
0000
0000
0000
0000
0000
0000
0000
0000
0000
0000
0000
0000
0000
0000
0000
0000
0000
0000
0000
0000
0000
0000
0000
0000
0000
0200
0000
0000
0000
0000
0000
0300
0000
0000
0000
0000
0000
0000
0000
0000
0000
0000
0000
0000
0000
0000
0000
0000
0000
0000
0000
0000
0000
0000
0000
0000
0000
0000
0000
0000
0000
0000
0000
0000
0000
0000
0000
0000
0000
0000
0000
0000
0000
0200
0000
0000
0000
0000
0000
0000
0000
0300
0000
0000
0000
0000
0000
0000
0000
0000
0000
0000
0000
0000
0000
0000
0000
0000
0000
0000
0000
0000
0000
0000
0000
0000
0000
0000
0000
0000
0000
0000
0000
0000
0000
0000
0000
0000
0000
0000
0000
,
0200
0000
0000
0300
0000
0000
0000
0000
0000
0000
0000
0000
0200
0000
0000
0000
0300
0000
0000
0000
0000
0000
0000
0000
0200
0000
0000
0000
0000
0000
0300
0000
0000
0000
0000
0000
0200
0000
0000
0000
0000
0000
0000
0000
0000
0300
0000
0000
,
0010
0000
1000
0010
0100
0000
0101
0000
,
0110
0000
0010
1000
0100
0000
0010
0000
,
0011
0011
0110
0110
,
0100
1000
0010
0000
0100
0000
0100
0000
,
0110
0000
0010
1000
0100
0000
0010
0000
,
0011
0000
0010
0100
1000
0000
0001
0000
,
0100
0010
0100
0000
0010
0000
1000
0000
,
0001
0000
0100
0000
0110
0000
1000
0001
,
0000
0000
1000
0000
0100
0010
0001
0000
,
0010
0000
0100
1000
0010
0000
0100
0000
,
0001
0000
0100
0000
0010
1000
0010
0000
,
1000
0000
0100
0000
0010
0001
0010
0100
,
1000
0000
0001
0000
0100
0000
0010
1000
,
0010
0100
0001
0010
,
0000
0000
0010
0100
0010
0000
0100
0000
,
1000
0000
0010
0100
0010
0000
0100
0000
,
0001
0000
0010
0100
1000
0000
0100
0000
,
0010
0000
0001
0010
0100
0000
1000
0000
,
0100
0000
0010
0100
0010
0000
0100
0000
,
0010
0000
0001
0010
0100
0000
1000
0000
,
0100
0000
0010
0100
1000
0000
0100
0000
,
0010
0000
0001
0010
0100
0000
0010
0000
,
0001
0000
0010
0100
1000
0000
0100
0000
,
0010
0001
1000
0010
,
2002
0000
0000
0000
,
0000
0000
0000
3013
,
0001
0100
0010
0000
1000
0100
0010
0000
,
0001
0010
0100
0000
1000
0000
1000
0000
,
0010
0100
0001
0000
0100
0010
1000
0000
,
0100
0010
0001
0000
0010
0000
0010
0000
,
0100
1000
0001
0000
0010
0001
1000
0000
,
0010
0100
0001
0000
0100
0000
0100
0000
,
1001
0110
1010
0101
,
0011
0000
1100
0000
1000
0100
0010
0001
,
1000
0101
1010
1100
,
0011
0000
0110
0000
0010
0100
1000
0010
,
0100
0101
0110
1010
,
1100
0000
0110
0000
0010
0001
0010
0100
,
0000
0100
0000
1000
0000
0010
0100
0000
,
0101
0110
1010
2001
,
3020
0000
0000
0030
0000
0000
0000
0000
0000
0000
0000
0000
0000
0000
0000
0000
0000
0000
0000
0000
0000
0000
0000
0000
0000
0000
0000
0000
0000
0000
0000
0000
0000
0000
0000
0000
0000
0000
0000
0000
0000
0000
0000
0000
0000
0000
0000
0000
0020
0000
0000
0000
0030
0000
0000
0000
0000
0000
0000
0000
0000
0000
0000
0000
0000
0000
0000
0000
0000
0000
0000
0000
0000
0000
0000
0000
0000
0000
0000
0000
0000
0000
0000
0000
0000
0000
0000
0000
0000
0000
0000
0000
0000
0000
0000
0000
0020
0000
0000
0000
0000
0000
0030
0000
0000
0000
0000
0000
0000
0000
0000
0000
0000
0000
0000
0000
0000
0000
0000
0000
0000
0000
0000
0000
0000
0000
0000
0000
0000
0000
0000
0000
0000
0000
0000
0000
0000
0000
0000
0000
0000
0000
0000
0000
0020
0000
0000
0000
0000
0000
0000
0000
0030
0000
0000
0000
0000
0000
0000
0000
0000
0000
0000
0000
0000
0000
0000
0000
0000
0000
0000
0000
0000
0000
0000
0000
0000
0000
0000
0000
0000
0000
0000
0000
0000
0000
0000
0000
0000
0000
0000
0000
,
0020
0000
0000
0030
0000
0000
0000
0000
0000
0000
0000
0000
0020
0000
0000
0000
0030
0000
0000
0000
0000
0000
0000
0000
0020
0000
0000
0000
0000
0000
0030
0000
0000
0000
0000
0000
0020
0000
0000
0000
0000
0000
0000
0000
0000
0030
0000
0000
,
1000
0010
0100
0001
0010
0100
1000
0100
,
0010
0001
0100
0010
1000
0100
0010
0100
,
1000
0001
0010
0100
0010
0001
1000
0010
,
0100
0001
0100
0000
0110
0000
1010
0000
,
1001
0000
1000
0100
0010
0000
0001
0010
,
0100
0000
1000
0010
0100
0000
0101
0000
,
0110
1010
1001
1100
,
1000
0100
0010
0000
0001
0000
0010
0100
,
0000
0000
0100
0000
1000
0010
0100
0000
,
0001
0100
0010
0000
1000
0100
0010
0000
,
0011
0110
1100
1001
,
0000
0000
0001
0100
0010
0000
1010
0000
,
1001
0000
1000
0100
0010
0000
0001
0010
,
0100
0000
1000
0010
0100
0000
0001
0010
,
0100
0000
1000
0100
0010
0000
0001
0010
,
0100
1000
0100
0010
0001
0100
0010
1000
,
0100
0000
0010
0001
0000
1000
0010
0000
,
0100
0000
0001
0000
0100
0010
1000
0100
,
0010
0000
0001
0010
0000
0100
1000
0000
,
0001
0000
0100
0000
0010
1000
0100
0010
,
0001
0000
0010
0100
0000
1000
0001
0000
,
0100
0000
0010
0000
1000
0100
0010
0001
,
0010
0000
0100
1000
0000
0001
0100
0000
,
0010
1000
0100
0010
0001
1000
0000
0000
;

//---------------dance-single - Renard----------------
#NOTES:
     dance-single:
     Renard:
     Medium:
     6:
     0.463,0.518,0.113,0.000,0.000:
0000
0000
0000
0000
,
0000
0000
0000
0000
,
0000
0000
0000
0000
,
0000
0000
0000
0000
,
1000
0000
0000
0001
0000
0000
1000
0000
,
0000
0001
0100
0010
,
1000
0000
0000
0001
0000
0000
1000
0000
,
0000
0100
0010
0001
,
1000
0010
1000
0001
,
0100
0000
0001
0000
,
0000
1000
0100
0010
,
0001
0000
1000
0000
,
0001
0000
0100
0010
0100
0000
0010
0000
,
1000
0000
0001
1000
0001
0000
1000
0000
,
0100
0010
0001
0010
,
0100
0000
0100
0000
,
1000
0000
0010
0100
0010
0000
0100
0000
,
0001
0000
0001
0000
,
1000
0000
0001
1000
0001
0000
1000
0000
,
0001
0000
0100
0000
,
0001
1000
0100
0010
,
0001
0000
1000
0001
1000
0000
0001
0000
,
0100
0010
1000
0001
,
1000
0100
0010
0001
,
0010
0010
0010
0010
,
0010
0010
0000
0000
,
0100
0100
0100
0100
,
0100
0100
0000
0000
,
1000
1000
1000
1000
,
1000
1000
0000
0000
,
0001
0100
0010
1000
,
0001
1000
0001
0100
,
0010
0010
0010
0010
,
0010
0010
0010
0010
,
0100
0001
1001
0000
,
0110
0000
0000
0000
0000
0000
0010
1000
,
0010
1000
0100
0010
,
0000
0001
0010
0000
,
0011
0000
0010
0000
,
0100
0000
0000
0000
1000
0000
0001
0100
,
0001
0100
0010
1000
,
0000
0000
0100
0000
0010
0000
0001
1000
,
0000
0000
0001
0000
,
0100
0010
1000
0001
,
0000
0001
0100
0001
,
1000
0100
0010
0001
,
1000
0001
0000
0100
,
0010
1000
0010
0100
,
0000
0100
0001
1000
,
0100
0010
0001
0010
,
0100
0000
1000
0100
0000
0000
1000
0000
,
0100
0010
0001
1000
,
0001
0000
0100
0001
0000
0000
0100
0000
,
0010
1000
0100
0010
,
0001
0000
1000
0100
0000
0000
1000
0000
,
0001
0010
0100
1000
,
0001
0000
0100
0010
0000
0000
1000
0000
,
0001
0100
0010
1000
,
1001
0000
0000
0000
,
0000
0000
0000
0110
,
0010
0000
0100
0001
,
1000
0000
0100
0000
,
0010
0001
0010
0100
,
1000
0001
0100
0010
,
1000
0010
0100
0001
,
0100
0010
1000
0100
,
0010
0001
0010
0001
0010
0001
0010
0001
,
0010
0001
0000
0000
,
1000
0100
1000
0100
,
1000
0100
0000
1000
,
0010
0100
0010
0100
0010
0100
0010
0100
,
0010
0100
0000
0000
,
0001
0100
0001
1000
,
0001
0010
0001
1000
,
0001
0000
0000
0000
,
0000
0000
0000
0000
,
1000
0001
0110
0000
,
1001
0000
1000
0100
,
0010
0010
0001
0001
,
0000
1000
0010
0000
,
0110
0000
0100
0001
,
1000
0000
1000
0100
,
0010
0001
1000
0010
,
0000
0000
0100
0000
0001
0000
1000
0100
,
0000
0000
1100
0000
,
1000
0100
0010
0001
,
0000
1001
0000
0101
,
0000
0100
0010
1000
,
0000
0010
1000
0100
,
0010
0001
0010
0100
,
0000
0110
0000
0100
,
0001
1000
0100
0010
,
0001
0001
0010
0010
,
0100
0000
1000
0100
1000
0000
0100
0000
,
1000
1000
0010
0010
,
0100
0000
0001
0100
0001
0000
0100
0000
,
0010
0010
1000
1000
,
0001
0000
0010
0001
0010
0000
0100
0000
,
1000
0001
0100
0010
,
1000
0000
0001
0000
0100
0010
0000
0000
;

//---------------dance-single - Renard----------------
#NOTES:
     dance-single:
     Renard:
     Challenge:
     9:
     0.744,0.800,0.340,0.180,0.000:
0000
0000
0000
0000
,
0000
0000
0000
0000
,
0000
0000
0000
0000
,
0000
0000
0000
0000
,
0001
0000
0010
0100
0000
0100
1000
0000
,
0000
0000
0001
0000
0100
0010
1000
0000
,
0010
0000
0100
0001
0000
0001
0010
0000
,
0000
0000
0100
0000
1000
0100
0010
0000
,
0001
1000
0010
0100
,
0001
0000
0100
0010
0100
0000
0010
0000
,
1000
0100
0010
0001
,
1000
0000
0010
0100
0010
0000
0100
0000
,
0001
0000
1000
0010
0100
0001
0010
0100
,
1000
0000
1000
0100
0010
0000
0001
0000
,
0100
0010
1000
0010
0000
0100
0001
0000
,
0100
0001
0010
0100
,
1000
0100
0100
0010
,
0001
0000
0100
0010
0100
0000
0010
0000
,
1000
0100
0010
0001
,
1000
0000
0010
0100
0010
0000
0100
0000
,
0001
0000
0010
0000
0100
0000
1000
0100
,
1000
0100
0010
0001
,
1000
0000
0010
0100
0010
0000
0100
0001
,
0100
0000
0010
1000
0100
0010
0001
0000
,
0001
0001
0010
0010
0100
0100
1000
1000
,
0001
0001
1000
0000
0000
1001
0000
1001
,
0000
0100
0001
0001
0100
0100
0010
0010
,
1000
1000
0100
0000
0000
1001
0000
1001
,
0000
0001
0100
0100
0010
0010
1000
1000
,
0100
0100
0010
0000
0000
1001
0000
1001
,
0000
0100
0010
0010
1000
1000
0100
0100
,
1000
1000
0001
0001
0100
0000
0010
0000
,
0020
0000
0000
0030
0000
0000
0000
0000
0000
0000
0000
0000
0000
0000
0000
0000
0000
0000
0000
0000
0000
0000
0000
0000
0000
0000
0000
0000
0000
0000
0000
0000
0000
0000
0000
0000
0000
0000
0000
0000
0000
0000
0000
0000
0000
0000
0000
0000
0020
0000
0000
0000
0030
0000
0000
0000
0000
0000
0000
0000
0000
0000
0000
0000
0000
0000
0000
0000
0000
0000
0000
0000
0000
0000
0000
0000
0000
0000
0000
0000
0000
0000
0000
0000
0000
0000
0000
0000
0000
0000
0000
0000
0000
0000
0000
0000
0020
0000
0000
0000
0000
0000
0030
0000
0000
0000
0000
0000
0000
0000
0000
0000
0000
0000
0000
0000
0000
0000
0000
0000
0000
0000
0000
0000
0000
0000
0000
0000
0000
0000
0000
0000
0000
0000
0000
0000
0000
0000
0000
0000
0000
0000
0000
0000
0020
0000
0000
0000
0000
0000
0000
0000
0030
0000
0000
0000
0000
0000
0000
0000
0000
0000
0000
0000
0000
0000
0000
0000
0000
0000
0000
0000
0000
0000
0000
0000
0000
0000
0000
0000
0000
0000
0000
0000
0000
0000
0000
0000
0000
0000
0000
0000
,
0020
0000
0000
0030
0000
0000
0000
0000
0000
0000
0000
0000
0020
0000
0000
0000
0030
0000
0000
0000
0000
0000
0000
0000
0020
0000
0000
0000
0000
0000
0030
0000
0000
0000
0000
0000
0020
0000
0000
0000
0000
0000
0000
0000
0000
0030
0000
0000
,
0100
0000
0001
0100
0010
0000
1010
0000
,
0110
0000
0100
0001
0010
0000
0100
0000
,
1100
1100
0110
0110
,
0010
0001
0100
0000
0010
0000
0010
0000
,
0110
0000
0100
0001
0010
0000
0100
0000
,
1100
0000
0100
0010
0001
0000
1000
0000
,
0010
0100
0010
0000
0100
0000
0001
0000
,
1000
0000
0010
0000
0110
0000
0001
1000
,
0000
0000
0001
0000
0010
0100
1000
0000
,
0100
0000
0010
0001
0100
0000
0010
0000
,
1000
0000
0010
0000
0100
0001
0100
0000
,
0001
0000
0010
0000
0100
1000
0100
0010
,
0001
0000
1000
0000
0010
0000
0100
0001
,
0100
0010
1000
0100
,
0000
0000
0100
0010
0100
0000
0010
0000
,
0001
0000
0100
0010
0100
0000
0010
0000
,
1000
0000
0100
0010
0001
0000
0010
0000
,
0100
0000
1000
0100
0010
0000
0001
0000
,
0010
0000
0100
0010
0100
0000
0010
0000
,
0100
0000
1000
0100
0010
0000
0001
0000
,
0010
0000
0100
0010
0001
0000
0010
0000
,
0100
0000
1000
0100
0010
0000
0100
0000
,
1000
0000
0100
0010
0001
0000
0010
0000
,
0100
1000
0001
0100
,
2002
0000
0000
0000
,
0000
0000
0000
3103
,
1000
0010
0100
0000
0001
0010
0100
0000
,
1000
0100
0010
0000
0001
0000
0001
0000
,
0100
0010
1000
0000
0010
0100
0001
0000
,
0010
0100
1000
0000
0100
0000
0100
0000
,
0010
0001
1000
0000
0100
1000
0001
0000
,
0100
0010
1000
0000
0010
0000
0010
0000
,
1000
1000
0010
0010
0100
0100
0001
0001
,
1000
1000
0100
0000
0000
1100
0000
1001
,
0000
1000
0100
0100
0010
0010
0001
0001
,
1000
1000
0001
0000
0000
0101
0000
1001
,
0000
1000
0001
0001
0100
0100
0010
0010
,
1000
1000
0100
0000
0000
0010
0000
0011
,
0000
0010
0100
1000
0000
0010
0100
0000
,
0001
0000
0000
1002
,
0203
0000
0000
0300
0000
0000
0000
0000
0000
0000
0000
0000
0000
0000
0000
0000
0000
0000
0000
0000
0000
0000
0000
0000
0000
0000
0000
0000
0000
0000
0000
0000
0000
0000
0000
0000
0000
0000
0000
0000
0000
0000
0000
0000
0000
0000
0000
0000
0200
0000
0000
0000
0300
0000
0000
0000
0000
0000
0000
0000
0000
0000
0000
0000
0000
0000
0000
0000
0000
0000
0000
0000
0000
0000
0000
0000
0000
0000
0000
0000
0000
0000
0000
0000
0000
0000
0000
0000
0000
0000
0000
0000
0000
0000
0000
0000
0200
0000
0000
0000
0000
0000
0300
0000
0000
0000
0000
0000
0000
0000
0000
0000
0000
0000
0000
0000
0000
0000
0000
0000
0000
0000
0000
0000
0000
0000
0000
0000
0000
0000
0000
0000
0000
0000
0000
0000
0000
0000
0000
0000
0000
0000
0000
0000
0200
0000
0000
0000
0000
0000
0000
0000
0300
0000
0000
0000
0000
0000
0000
0000
0000
0000
0000
0000
0000
0000
0000
0000
0000
0000
0000
0000
0000
0000
0000
0000
0000
0000
0000
0000
0000
0000
0000
0000
0000
0000
0000
0000
0000
0000
0000
0000
,
0200
0000
0000
0300
0000
0000
0000
0000
0000
0000
0000
0000
0200
0000
0000
0000
0300
0000
0000
0000
0000
0000
0000
0000
0200
0000
0000
0000
0000
0000
0300
0000
0000
0000
0000
0000
0200
0000
0000
0000
0000
0000
0000
0000
0000
0300
0000
0000
,
0001
0100
0010
1000
0100
0010
0001
0010
,
0100
1000
0010
0100
0001
0010
0100
0010
,
0001
1000
0100
0010
0100
1000
0001
0100
,
0010
1000
0010
0000
0110
0000
0101
0000
,
1001
0000
0001
0010
0100
0000
1000
0100
,
0010
0000
0001
0100
0010
0000
1010
0000
,
0110
0101
1001
0011
,
0001
0010
0100
0000
1000
0000
0100
0010
,
0000
0000
0010
0000
0001
0100
0010
0000
,
1000
0010
0100
0000
0001
0010
0100
0000
,
1100
0110
0011
1001
,
0000
0000
1000
0010
0100
0000
0101
0000
,
1001
0000
0001
0010
0100
0000
1000
0100
,
0010
0000
0001
0100
0010
0000
1000
0100
,
0010
0000
0001
0010
0100
0000
1000
0100
,
0010
0001
0010
0100
1000
0010
0100
0001
,
0010
0000
0100
1000
0000
0001
0100
0000
,
0010
0000
1000
0000
0010
0100
0001
0010
,
0100
0000
1000
0100
0000
0010
0001
0000
,
1000
0000
0010
0000
0100
0001
0010
0100
,
1000
0000
0100
0010
0000
0001
1000
0000
,
0010
0000
0100
0000
0001
0010
0100
1000
,
0100
0000
0010
0001
0000
1000
0010
0000
,
0100
0001
0010
0100
1000
0001
0000
0000
;

//---------------dance-single - Renard----------------
#NOTES:
     dance-single:
     Renard:
     Easy:
     3:
     0.311,0.377,0.085,0.009,0.000: // measure 1
0000
0000
0000
0000
,  // measure 2
0000
0000
0000
0000
,  // measure 3
0000
0000
0000
0000
,  // measure 4
0000
0000
0000
0000
,  // measure 5
0000
0000
0000
0000
,  // measure 6
0000
0000
0000
0000
,  // measure 7
0000
0000
0000
0000
,  // measure 8
0000
0000
0000
0000
,  // measure 9
1000
0001
1000
0001
,  // measure 10
0100
0000
0110
0000
,  // measure 11
0000
0010
1000
0001
,  // measure 12
1000
0000
1001
0000
,  // measure 13
0000
1000
0100
1000
,  // measure 14
0100
1000
0100
1000
,  // measure 15
0100
1000
0100
1000
,  // measure 16
0100
0000
1000
0000
,  // measure 17
0001
0010
0001
0010
,  // measure 18
0001
0000
0011
0000
,  // measure 19
0000
0001
0100
0001
,  // measure 20
0100
0000
0101
0000
,  // measure 21
0000
0010
1000
0100
,  // measure 22
0010
0001
1000
0001
,  // measure 23
0000
1000
0100
1000
,  // measure 24
0001
0000
1000
0000
,  // measure 25
0001
0000
0001
0000
,  // measure 26
0100
0100
0000
0000
,  // measure 27
0010
0000
0010
0000
,  // measure 28
1000
1000
0000
0000
,  // measure 29
0100
0000
0100
0000
,  // measure 30
0010
0010
0000
0000
,  // measure 31
0001
0000
1000
0000
,  // measure 32
0001
0000
0100
0000
,  // measure 33
0010
0000
0000
0010
,  // measure 34
0000
0000
0010
0000
,  // measure 35
1000
0010
1010
0000
,  // measure 36
1010
0000
0000
1000
,  // measure 37
0010
0010
1000
1000
,  // measure 38
0000
0010
1000
0000
,  // measure 39
0010
0000
0101
0000
,  // measure 40
0101
0000
0000
0100
,  // measure 41
0001
0001
0100
0100
,  // measure 42
0000
0001
0100
0000
,  // measure 43
0001
0000
1000
0000
,  // measure 44
0001
1000
0001
0010
,  // measure 45
0000
0001
0000
1000
,  // measure 46
0000
0010
0000
1000
,  // measure 47
0001
0000
1000
0001
,  // measure 48
0100
0001
1000
0100
,  // measure 49
0000
1000
0000
0001
,  // measure 50
0000
0000
1000
0000
,  // measure 51
0100
0000
1000
0001
,  // measure 52
0010
0000
0001
0000
,  // measure 53
1000
0000
0010
1000
,  // measure 54
0001
0000
1000
0000
,  // measure 55
0001
0000
0010
0001
,  // measure 56
0010
0000
0001
0000
,  // measure 57
0100
0000
0001
1000
,  // measure 58
0001
0000
1000
0000
,  // measure 59
0200
0000
0000
0000
,  // measure 60
0000
0000
0000
0000
,  // measure 61
1300
0000
0100
0000
,  // measure 62
1000
0100
1000
0000
,  // measure 63
0001
0000
0010
0000
,  // measure 64
0001
0000
1000
0000
,  // measure 65
0001
0000
0100
0001
,  // measure 66
0100
0000
0001
0000
,  // measure 67
1000
0100
0010
0001
,  // measure 68
1000
1000
0000
0000
,  // measure 69
0001
0010
0100
1000
,  // measure 70
0001
0001
0000
0000
,  // measure 71
1000
0100
0010
0001
,  // measure 72
1000
1000
0000
0000
,  // measure 73
0001
0000
0010
0000
,  // measure 74
0100
0000
1000
0000
,  // measure 75
0001
0000
0000
0001
,  // measure 76
0000
0000
0001
0000
,  // measure 77
1000
0001
1000
0000
,  // measure 78
1001
0000
0000
0000
,  // measure 79
1000
0000
0001
0000
,  // measure 80
0100
0010
0100
0000
,  // measure 81
0010
0000
1000
0000
,  // measure 82
0001
0000
0000
0000
,  // measure 83
0010
0000
0000
0100
,  // measure 84
0000
1000
0001
0000
,  // measure 85
1000
0000
0001
0000
,  // measure 86
0100
0000
0001
1000
,  // measure 87
0000
0100
0000
1000
,  // measure 88
0000
0001
0010
0001
,  // measure 89
0000
0000
0010
0000
,  // measure 90
0010
0000
0100
0000
,  // measure 91
0100
0000
1000
0000
,  // measure 92
0001
0100
0001
0000
,  // measure 93
1000
0000
1000
0000
,  // measure 94
0100
0000
0100
0000
,  // measure 95
0010
0001
0010
0000
,  // measure 96
0010
0000
0001
0000
,  // measure 97
1000
0000
0001
0000
,  // measure 98
0001
0000
0100
0000
,  // measure 99
0010
1000
0010
0000
,  // measure 100
1000
0000
0000
0000
0001
1000
0000
0000
;
