#TITLE:Dance With the Wolves;
#SUBTITLE:;
#ARTIST:Angerfist;
#TITLETRANSLIT:;
#SUBTITLETRANSLIT:;
#ARTISTTRANSLIT:;
#CREDIT:;
#BANNER:wolves.png;
#BACKGROUND:wolves-bg.png;
#LYRICSPATH:;
#CDTITLE:;
#MUSIC:wolves.ogg;
#OFFSET:0.000;
#SAMPLESTART:22.157;
#SAMPLELENGTH:12.000;
#SELECTABLE:YES;
#BPMS:0.000=173.000;
#STOPS:;
#BGCHANGES:;

//---------------dance-single - Renard----------------
#NOTES:
     dance-single:
     Renard:
     Challenge:
     9:
     0.651,0.833,0.618,0.011,0.114:
0000
0000
0000
0000
,
0000
0000
0000
0000
,
0000
0000
0000
0000
,
0000
0000
0000
0000
,
1000
0000
0000
0100
0000
0000
0010
0000
0001
0000
0000
0010
0000
0000
0100
0000
,
0000
1000
0010
0100
0001
1000
0001
0000
,
0000
1000
0100
0000
0110
0000
0010
0001
,
0011
0000
0110
0100
1100
1000
1001
0000
,
0101
0100
1000
0100
0110
0010
1000
0010
,
0110
0000
0100
0000
0001
0000
1000
0000
0100
0000
0100
0010
0001
0000
1000
0000
,
1001
0001
0100
0010
1010
1000
0100
0010
,
0110
0010
0010
0010
0001
1000
1001
0000
,
0101
0000
0100
0010
1000
0100
0010
0000
,
0110
0000
0010
0001
0010
0100
1000
0100
,
1001
1000
1001
0001
1001
1000
2001
0001
,
3001
0000
0001
1000
0000
1000
0001
0000
0100
0010
0100
0000
0000
0000
0010
0100
,
0010
1000
0100
0010
0001
0000
0011
0000
,
0010
0000
0100
0000
1000
0000
0001
0000
0010
0000
0001
0010
0001
0000
0010
0001
,
0010
0000
0110
0100
1000
0010
0001
0011
,
0000
0000
0010
0000
1000
0000
0100
0000
0010
0000
0010
0000
0001
0010
0001
0010
,
0011
0110
1100
0110
,
0011
0000
0000
0000
0101
0000
0000
0000
0110
0000
0000
0010
1000
0000
0010
1000
,
0010
1010
0110
0011
,
0001
0000
0010
0000
1000
0000
0100
0000
0001
0000
0100
0000
1000
0000
0100
1000
,
0001
0000
0000
0000
,
0000
0000
0000
0000
,
0000
0000
0000
0000
,
0000
0000
0000
0000
,
1001
0000
0110
0000
,
0000
1010
0000
0000
0101
0000
0000
0000
,
0100
1000
0000
1000
0100
0000
0101
0000
,
0011
0000
1010
0000
1000
0100
0001
0010
,
1000
0000
0000
0000
1010
0000
0000
0010
1000
0000
0001
0000
0100
0000
0001
0000
,
0010
0000
0000
0000
0011
0000
0000
0001
0010
0000
0100
0000
1001
0000
0000
0000
,
0100
0000
0000
0000
1001
0000
0000
0001
1000
0000
0010
0000
0110
0000
0000
0000
,
0100
0000
0000
0000
1001
0000
0000
0001
0010
0000
0100
0000
1000
0000
0001
1000
,
0001
0000
0001
0100
1000
0000
0000
0000
,
1000
0100
0001
0010
1000
0010
0000
0010
,
0100
0000
0100
1000
0010
0100
0001
0010
,
0000
0010
0001
1000
0001
0100
0100
0100
,
0001
0100
1000
0100
0000
0100
0010
1000
,
0100
0010
0001
0010
0000
0010
0001
0010
,
0100
0001
0100
1000
0000
1000
0100
1000
,
0010
0001
0010
0100
0000
0100
1000
0100
,
0010
1000
0010
0001
0000
0001
0010
1000
,
0100
0001
0100
0010
0000
0010
1000
0010
,
0100
0001
0100
1000
0000
1000
0010
0001
,
0010
0010
1000
1000
0001
0001
1001
0000
,
1001
0101
0110
1100
,
1000
0100
0001
0010
0000
0010
0001
0010
,
0100
1000
0010
1000
0000
1010
0000
1001
,
0000
0000
0001
0000
0100
0000
0010
0000
1000
0000
0000
0010
1000
0000
0010
0000
,
1001
0000
0001
0100
0000
0110
0000
0010
,
1000
0100
0010
0001
0000
0011
0000
0010
,
0100
0000
1100
0000
1000
0010
0100
0001
,
0010
0000
0100
0000
0010
0000
0100
0000
0010
0000
0010
0100
0000
0000
0010
0000
,
0011
0000
0010
0100
1000
0000
0000
0000
,
0010
0100
0001
0100
0010
1000
0000
0100
,
0010
0000
0001
0010
0100
1000
0001
0100
,
0000
0010
1000
0100
0010
0000
0001
0000
,
0010
0000
0100
1000
0010
0000
0000
0000
,
0100
0001
0100
0010
1000
0100
0000
1000
,
0001
0000
0010
0100
1000
0001
0100
0010
,
0000
1000
0100
1000
0001
0000
0010
0000
,
1001
0000
0000
0000
;

//---------------dance-single - Renard----------------
#NOTES:
     dance-single:
     Renard:
     Hard:
     8:
     0.576,0.590,0.553,0.022,0.000:
0000
0000
0000
0000
,
0000
0000
0000
0000
,
0000
0000
0000
0000
,
0000
0000
0000
0000
,
1000
0001
0100
0001
,
1000
0100
0010
0001
0010
0000
0100
0000
,
1000
0001
0100
0000
0001
0000
1000
0100
,
0010
0000
0001
0001
0010
0010
0100
0000
,
1100
1001
0101
1001
,
1010
0000
1001
0000
1000
0001
0100
0000
,
0101
1001
0011
1001
,
0110
0000
1001
0000
1100
0000
1000
0001
,
0100
0101
0110
1100
,
0100
1000
0100
0010
0100
0001
0100
0000
,
0101
0011
1010
0110
,
0010
0100
1000
0001
0100
0010
1000
0000
,
0001
0000
1000
0010
0100
0000
0101
0000
,
0001
1000
0100
0010
0001
0000
1001
0000
,
1010
0000
1001
0000
1000
0100
0010
0001
,
0000
0010
0100
1000
0001
0100
0010
0000
,
0110
1001
1100
1000
,
0001
0010
0100
1000
0001
0000
0100
0000
,
0010
0000
1000
0001
0100
0010
1000
0001
,
0000
1000
0100
0010
0001
0000
1001
0000
,
0202
0000
0000
0000
,
0000
0000
0000
0000
0000
0000
0000
0303
,
0000
0000
0000
0000
,
0000
0000
0000
0000
,
0001
0000
1001
0000
,
0000
1000
0000
0000
1100
0000
0000
0000
,
1000
0001
0000
0100
0001
0000
1001
0000
,
1000
0000
0100
0000
0010
0000
0001
1000
,
0001
0101
1000
1100
,
0001
0101
1000
1100
,
0001
0011
1000
1010
,
0001
0010
0001
1000
0010
1000
0001
0100
,
0001
1001
1000
1001
,
0001
1001
1000
1001
,
1000
0000
0001
0100
0010
1000
0100
0010
,
0000
0001
0010
0100
1000
0000
0001
0001
,
1000
0100
0010
0001
0000
0010
0100
1000
,
0001
0100
0010
1000
0000
0001
0100
0010
,
1000
0100
0010
0001
0000
0010
0100
1000
,
0001
0100
0010
0100
0000
0100
0100
0100
,
0010
1000
0100
0010
0000
0010
0001
0010
,
0100
1000
0001
0100
0000
0010
0010
0010
,
1000
0100
0010
0001
0000
0001
1000
0010
,
0100
0001
0010
0100
1000
0001
0100
0000
,
0010
0100
0001
1000
0000
1100
0000
1001
,
0000
1000
0001
0010
0100
1000
0001
0100
,
0010
1000
0001
1000
0000
1100
0000
1001
,
0000
1000
0001
0010
0000
0100
1000
0010
,
0100
0001
1000
0100
0000
1001
0000
0101
,
0000
0001
0100
0010
1000
0100
0010
0001
,
1000
0010
0100
0001
0000
0101
0000
0110
,
0000
0010
1000
0100
0010
0001
0010
0001
,
0010
0000
0010
0100
1000
0000
0001
0000
,
0010
0001
1000
0010
1000
0001
0000
1000
,
0001
0000
0100
0010
1000
0100
0010
0001
,
0000
1000
0001
1000
0001
0000
0100
0000
,
0010
0000
0100
0001
1000
0000
0100
0000
,
0010
0001
1000
0001
0100
0010
0000
1000
,
0100
0000
0010
0001
1000
0001
0100
0001
,
0000
0100
0010
1000
0001
0000
0100
0000
,
0110
0000
0000
0000
;

//---------------dance-single - Renard----------------
#NOTES:
     dance-single:
     Renard:
     Medium:
     5:
     0.375,0.451,0.033,0.022,0.000:
0000
0000
0000
0000
,
0000
0000
0000
0000
,
0000
0000
0000
0000
,
0000
0000
0000
0000
,
1000
0000
1000
0000
,
0001
0000
0001
0000
,
0100
0010
1000
0100
,
0010
0000
0001
0000
1000
0001
1000
0000
,
0001
1000
0001
0000
1000
0001
1000
0000
,
0001
1000
0001
0000
1000
0000
0001
0000
,
0100
0010
0100
0000
0010
0100
0010
0000
,
0100
0000
0010
0000
0100
0000
0001
0100
,
0001
1000
0100
0010
,
0001
0000
0010
0000
0100
0000
1000
0001
,
1000
0001
0100
0010
,
1000
0001
1000
0001
,
1000
1000
0001
0000
,
0100
0010
1000
0100
,
0010
0000
0001
0000
1000
0001
1000
0001
,
0000
1000
0001
1000
,
0001
0100
0010
0000
,
1000
0100
0010
0001
,
1000
0000
0001
0000
1000
0001
1000
0001
,
0000
1000
0001
1000
,
2002
0000
0000
0000
,
0000
0000
0000
0000
,
0000
0000
0000
0000
,
0000
0000
0000
3003
,
1000
0000
1001
0000
,
0000
0001
0000
0000
0101
0000
0000
0000
,
0001
1000
0000
0001
1000
0000
0100
0000
,
1000
0000
0001
0000
1000
0000
0010
0100
,
0010
0100
0010
0100
,
0001
1000
0001
1000
,
0010
0100
0010
0100
,
0001
1000
0001
1000
,
0001
0000
1000
0001
1000
0000
0000
0000
,
0001
0100
0001
0100
0001
0000
0100
0000
,
0001
0000
1000
0001
1000
0001
1000
0001
,
0000
1000
0001
1000
0001
0000
1000
0000
,
0001
1000
0001
0100
,
0001
1000
0100
1000
0000
0000
0000
0000
,
0001
0010
0100
1000
,
0001
0100
0001
1000
0000
0000
0000
0000
,
0001
1000
0100
0010
,
0001
1000
0001
0100
0000
0000
0000
0000
,
0001
1000
0100
0010
,
1000
0001
1000
0001
1000
0001
1000
0000
,
0001
0001
1000
1000
,
0001
0100
0010
1000
0000
0000
0000
0000
,
0001
0001
1000
1000
,
1000
0100
0010
0001
0000
0000
0000
0000
,
1000
1000
0001
0001
,
1000
0100
0010
0001
0000
0000
0000
0000
,
1000
1000
0001
0001
,
0001
0010
0100
1000
0000
0000
0001
0000
,
1000
1000
0001
0000
,
1000
0010
0100
0001
,
0010
0000
0001
0000
1000
0000
0001
0100
,
0000
0001
1000
0100
,
0010
0001
1000
0000
,
0001
0000
0100
0000
0010
1000
0000
0000
,
0001
0000
0100
0000
0001
1000
0001
1000
,
0000
0010
0100
0001
,
1000
0000
0000
0000
;

//---------------dance-single - Renard----------------
#NOTES:
     dance-single:
     Renard:
     Easy:
     2:
     0.268,0.382,0.087,0.011,0.000: // measure 1
0000
0000
0000
0000
,  // measure 2
0000
0000
0000
0000
,  // measure 3
0000
0000
0000
0000
,  // measure 4
0000
0000
0000
0000
,  // measure 5
1000
0000
0001
0000
,  // measure 6
1000
0001
1000
0001
,  // measure 7
1000
0000
0001
0000
,  // measure 8
0100
0010
0100
0010
,  // measure 9
1000
1000
1000
1000
,  // measure 10
1000
1000
1000
0001
,  // measure 11
0100
0100
0100
0100
,  // measure 12
0100
0100
0100
0001
,  // measure 13
0010
0010
0010
0010
,  // measure 14
0010
0010
0001
0010
,  // measure 15
0001
1000
0001
1000
,  // measure 16
0010
0100
0010
0100
,  // measure 17
0010
0010
0010
0000
,  // measure 18
0100
0100
0100
0000
,  // measure 19
0001
1000
0001
1000
,  // measure 20
0001
0000
1000
0000
,  // measure 21
0010
0010
0010
0000
,  // measure 22
0100
0100
0100
0000
,  // measure 23
0001
1000
0001
1000
,  // measure 24
0001
1000
0001
1000
,  // measure 25
0002
0000
0000
0000
,  // measure 26
0000
0000
0000
0000
,  // measure 27
0000
0000
0000
0000
,  // measure 28
0000
0000
0000
0000
,  // measure 29
0103
0000
0101
0000
,  // measure 30
0000
0000
1001
0000
,  // measure 31
0000
0000
1100
0000
,  // measure 32
0011
1001
1001
1001
,  // measure 33
1000
1000
0001
1000
,  // measure 34
0001
1000
0001
1000
,  // measure 35
0001
1000
0001
1000
,  // measure 36
0001
1000
0001
1000
,  // measure 37
0010
0000
0010
0000
,  // measure 38
0100
0000
0100
0000
,  // measure 39
0010
0000
0000
0000
,  // measure 40
0000
0000
0000
0010
,  // measure 41
0010
0000
0010
0000
,  // measure 42
0010
0100
0010
0000
,  // measure 43
1000
0000
1000
0000
,  // measure 44
1000
0001
1000
0000
,  // measure 45
0001
0000
0100
0000
,  // measure 46
0010
0000
1000
0000
,  // measure 47
0010
0000
0100
0000
,  // measure 48
0001
1000
0001
1000
,  // measure 49
0100
0100
0100
0000
,  // measure 50
0010
0000
0001
0000
,  // measure 51
1000
1000
1000
0000
,  // measure 52
0010
0000
0100
0000
,  // measure 53
0001
0001
0001
0000
,  // measure 54
1000
0000
0001
0000
,  // measure 55
0010
0000
0100
0000
,  // measure 56
1000
0001
1000
0001
,  // measure 57
0100
0100
0100
0000
,  // measure 58
0010
0010
0010
0000
,  // measure 59
0100
0000
0010
0000
,  // measure 60
0100
0000
0001
0000
,  // measure 61
1000
1000
1000
0000
,  // measure 62
0001
0001
0001
0000
,  // measure 63
1000
0000
0001
0000
,  // measure 64
0010
0100
1000
0000
,  // measure 65
1001
0000
0000
0000
;
