#TITLE:Czar Zoo;
#SUBTITLE:;
#ARTIST:Cuban Boys;
#TITLETRANSLIT:;
#SUBTITLETRANSLIT:;
#ARTISTTRANSLIT:;
#CREDIT:;
#BANNER:;
#BACKGROUND:;
#LYRICSPATH:;
#CDTITLE:;
#MUSIC:zoo.ogg;
#OFFSET:0.000;
#SAMPLESTART:23.103;
#SAMPLELENGTH:12.000;
#SELECTABLE:YES;
#BPMS:0.000=135.050;
#STOPS:;
#BGCHANGES:;

//---------------dance-single - Renard----------------
#NOTES:
     dance-single:
     Renard:
     Challenge:
     9:
     0.651,0.619,0.456,0.000,0.603:
0000
0000
0000
0000
,
0000
0000
0000
0000
,
0000
0000
0000
0000
,
0000
0000
0000
0000
,
0000
0000
0000
0000
,
1000
0000
0001
0000
0100
0000
0001
1000
0000
0000
0100
0000
1000
0000
0001
0000
,
0010
0000
0001
0000
1000
0000
0010
1000
0000
0000
0001
0000
0100
0000
0000
0000
,
0001
0000
1000
0000
0100
0000
1000
0001
0000
0000
0010
0000
0001
0000
1000
0000
,
0010
0000
1000
0000
0001
0000
0100
0001
0000
0000
1000
0000
0100
0000
0010
0000
,
0001
0000
1000
0000
0001
0000
0100
0010
0000
0000
1000
0000
0010
0000
1000
0000
,
0100
0000
0010
0000
0001
0000
1000
0001
0000
0000
1000
0000
1001
0000
0000
0000
,
0001
0000
0100
0000
0010
0000
1000
0100
0000
1000
0001
0000
0010
0000
0001
0000
,
1000
0000
0010
0000
1000
0000
0001
0100
0000
0010
1000
0000
0001
0000
1000
0000
,
0100
1000
0000
0000
1100
0000
0000
0001
0010
0001
0000
0000
0011
0000
0000
0001
,
0010
0100
0000
0000
1100
0000
0000
0100
0000
1000
0010
0000
0100
0000
0001
0000
,
0100
0010
0000
0000
0110
0000
0000
0010
1000
0100
0000
0000
1100
0000
0000
0001
,
0010
0001
0000
0000
0011
0000
0000
0001
0000
0010
0100
1000
0001
0000
1000
0000
,
0010
1000
0000
0000
1010
0000
0000
0010
1000
0001
0000
0000
0101
0000
0000
0001
,
1000
0100
0000
0000
1100
0000
0000
0001
0000
1000
0010
1000
0001
0000
1000
0000
,
0100
1000
0000
0000
1100
0000
0000
0001
0010
0100
0000
0000
0110
0000
0000
0100
,
1000
0010
0000
0000
1010
0000
0000
0010
0000
1000
0001
0100
0010
0000
1000
0000
,
0001
0000
1000
0000
1001
0000
0001
0000
0100
0010
0100
0000
0110
0000
0010
0000
,
1010
1001
0000
0000
0100
0100
1000
1000
,
0010
1000
1001
0001
0100
0010
1010
1000
,
1100
1001
0000
0000
0001
0100
0001
1000
,
0100
0000
1000
0000
0001
0000
0010
0001
0000
1000
0001
0000
1000
0000
0010
0000
,
1000
0000
0100
1000
0001
0000
0010
0001
0000
1000
0001
0000
0101
0000
0000
0000
,
0001
0000
1000
0100
1000
0000
0001
0010
0000
0001
1000
0000
0010
0000
1000
0000
,
0001
0000
0100
0010
1000
0000
0010
1000
0000
0001
1000
0000
0100
0000
1000
0000
,
0001
0000
1000
0000
0100
0000
0010
0001
0000
0001
0010
0000
0100
0000
1000
0000
,
0001
0100
0010
0000
1000
0000
0010
1000
0000
0000
0010
0000
1010
0000
0000
0000
,
0010
0000
1000
0000
0001
0100
0001
0100
0000
0001
0100
0000
0001
0000
0100
0000
,
0010
1000
0010
0000
1000
0000
0010
1000
0000
0010
1000
0000
0010
0000
1000
0000
,
0001
0100
0000
0000
1000
0000
0000
0000
1000
0010
0000
0000
0001
0000
0000
0000
,
0001
0100
0000
0000
0010
0000
0000
1000
0000
0100
0010
0000
0001
0000
0010
0000
,
0001
0010
0000
0000
0010
0000
0000
0000
1000
0100
0000
0000
0100
0000
0000
0000
,
0001
0010
0000
0000
0010
0000
0000
0100
0000
1000
0010
0000
0100
0000
0001
0000
,
0100
1000
0000
0000
1000
0000
0000
0000
1000
0010
0000
0000
0010
0000
0000
0000
,
0010
0001
0000
0000
0001
0000
0000
0100
0000
0010
1000
0000
0100
0000
0010
0000
,
0001
0010
0000
0000
1000
0000
0000
0000
0100
0001
0000
0000
0010
0000
0000
0000
,
1000
0100
0000
0000
1000
0000
0000
0001
0000
0010
0100
0000
1000
0000
0001
0000
,
0100
0010
0100
0000
0010
0000
0100
0000
0010
1000
0010
0000
1000
0001
1000
0100
,
1000
0001
1000
0000
0001
0001
0100
0100
,
0010
1000
0010
1000
0010
0000
1000
0000
0100
1000
0100
1000
0001
0000
0010
0000
,
0001
1000
0001
1000
0001
0000
0000
0000
1000
0000
1000
0000
0010
0000
0010
0000
,
0100
0000
0001
0000
0100
0000
0010
1000
0000
0000
1010
0000
1001
0000
1100
0000
,
0001
0000
1000
0000
0100
0010
0001
0010
0000
0000
0000
0000
0000
0000
0000
0000
,
0001
0000
0010
0000
0100
0000
1000
0001
0000
0000
1001
0000
0101
0000
0011
0000
,
0001
0000
0001
0010
0100
1000
0001
1000
0000
0010
1000
0000
0001
0000
1000
0000
,
0100
1000
0000
0000
1100
0000
0000
0001
0010
0100
0000
0000
0110
0000
0000
0100
,
1000
0010
0000
0000
1010
0000
0000
0101
0000
0001
0010
0000
0110
0000
0100
0000
,
1000
0010
0000
0000
1010
0000
0000
0010
0100
0001
0000
0000
0011
0000
0000
0010
,
0100
1000
0000
0000
1001
0000
0000
1010
0000
0001
1000
0000
1100
0000
0000
0000
,
0001
1000
0000
0000
1010
0000
0000
0010
0100
0001
0000
0000
0101
0000
0000
0001
,
0010
0100
0000
0000
0110
0000
0000
1100
0000
0010
1000
0000
1001
0000
0010
0000
,
1000
0010
0000
0000
1010
0000
0000
0100
0010
0100
0000
0000
0101
0000
0000
0100
,
0001
0010
0000
0000
0011
0000
0000
0110
0000
0100
1000
0000
1001
0000
0010
0000
,
1001
1000
0100
0010
0001
0010
0100
1000
,
0001
0100
0001
0100
0001
0000
0000
0000
1000
0000
1000
0000
0100
0000
0100
0000
,
0010
0001
0010
0001
0010
0000
0100
0000
1000
0001
1000
0010
1000
0000
0001
0000
,
1000
0001
0101
0000
0000
0000
0000
0000
;

//---------------dance-single - Renard----------------
#NOTES:
     dance-single:
     Renard:
     Hard:
     8:
     0.550,0.538,0.322,0.000,0.340:
0000
0000
0000
0000
,
0000
0000
0000
0000
,
0000
0000
0000
0000
,
0000
0000
0000
0000
,
0000
0000
0000
0000
,
1000
0000
1000
0000
0001
0000
0100
0001
0000
0000
0100
0000
0001
0000
1000
0000
,
0100
0000
0010
0000
0001
0000
1000
0001
0000
0000
0000
0000
0000
0000
0000
0000
,
0100
0000
0001
0000
1000
0000
0100
1000
0000
0000
0001
0000
0010
0000
0100
0000
,
1000
0000
0001
0000
1000
0000
0010
1000
0000
0000
0001
0000
0100
0000
0001
0000
,
0010
0000
0100
0000
1000
0000
0001
1000
0000
0000
0010
0000
1000
0000
0010
0000
,
0100
0000
0001
0000
0100
0000
0010
1000
0000
0000
0000
0000
0000
0000
0000
0000
,
0010
0000
1000
0000
0100
0000
0010
0001
0000
0000
0010
0000
0100
0000
1000
0000
,
0001
0000
0010
0000
0100
0000
1000
0001
0000
0000
1000
0000
0010
0000
1000
0000
,
0010
1000
0000
0000
1010
0000
0000
0000
0001
0100
0000
0000
0101
0000
0000
0000
,
0001
0010
0000
0000
0011
0000
0000
0010
0000
0000
0100
0000
1000
0000
0000
0000
,
0010
1000
0000
0000
1010
0000
0000
0000
0001
0100
0000
0000
0101
0000
0000
0000
,
0001
0010
0000
0000
0011
0000
0000
0000
0010
0000
0100
0000
1000
0000
0000
0000
,
0010
1000
0000
0000
1010
0000
0000
0000
0001
0100
0000
0000
0101
0000
0000
0000
,
0001
0010
0000
0000
0011
0000
0000
0010
0000
0000
0100
0000
1000
0000
0010
0000
,
1000
0010
0000
0000
1010
0000
0000
0000
0001
0100
0000
0000
0101
0000
0000
0000
,
1000
0100
0000
0000
1100
0000
0000
0001
0000
0000
1000
0000
0010
0000
1000
0000
,
0001
1000
0100
1000
0001
0010
0001
1000
,
0010
1000
0000
0000
0001
0100
0001
0100
,
0010
1000
0100
0010
0001
0010
0100
1000
,
0001
0010
0000
0000
0001
1000
0001
1000
,
0001
0000
0100
0000
0010
0000
1000
0010
0000
0000
1000
0000
0100
0000
0010
0000
,
0001
0000
0010
0000
0100
0000
1000
0001
0000
0000
1000
0000
0001
0000
0100
0000
,
0010
0000
1000
0000
0100
0000
0010
0001
0000
0000
0010
0000
0100
0000
1000
0000
,
0001
0000
0100
0000
0010
0000
1000
0010
0000
0000
1000
0000
0100
0000
0010
0000
,
0001
0000
0010
0000
0100
0000
1000
0001
0000
0000
1000
0000
0001
0000
0100
0000
,
0010
0000
1000
0000
0010
0000
1000
0100
0000
0000
1000
0000
0001
0000
0010
0000
,
0100
0000
1000
0000
0001
0000
0100
0001
0000
0000
0100
0000
0010
0000
1000
0000
,
0100
0000
0010
0000
0001
0000
0010
0100
0000
0000
1000
0000
0010
0000
0100
0000
,
0001
0100
0000
0000
0101
0000
0000
0000
0100
0010
0000
0000
0110
0000
0000
0000
,
0010
1000
0000
0000
1010
0000
0000
1000
0000
0000
0100
0000
0010
0000
0000
0000
,
0001
0000
0010
0000
0011
0000
0000
0000
0010
0100
0000
0000
0110
0000
0000
0000
,
0100
1000
0000
0000
1100
0000
0000
1000
0000
0000
0010
0000
0100
0000
0001
0000
,
0010
0001
0000
0000
0011
0000
0000
0000
0010
0100
0000
0000
0110
0000
0000
0000
,
0100
1000
0000
0000
1100
0000
0000
1000
0000
0000
0010
0000
0100
0000
0001
0000
,
1000
0100
0000
0000
1100
0000
0000
0000
0001
0010
0000
0000
0011
0000
0000
0000
,
0001
0010
0100
1000
0010
0100
0001
0100
,
0001
0100
0010
0100
1000
0100
0010
0100
,
0001
0100
0010
0000
0100
0100
0100
0000
,
0010
0100
0010
1000
0010
0100
0010
0001
,
0010
0010
0010
0000
1000
0100
0010
0000
,
0001
0000
0010
0000
0100
0000
0000
1000
0000
0000
0010
0000
0100
0000
0001
0000
,
0100
0000
0010
0000
1000
0000
0000
0010
0000
0000
1000
0000
0100
0000
0000
0000
,
0010
0000
0001
0000
0010
0000
0000
0100
0000
0000
1000
0000
0010
0000
0100
0000
,
0001
0000
0100
0000
0010
0000
0000
1000
0000
0000
0010
0000
1000
0000
0100
0000
,
0010
0100
0000
0000
0110
0000
0000
0100
1000
0100
0000
0000
1100
0000
0000
0100
,
1000
0100
0000
0000
1010
0000
0000
0010
0000
0100
0001
0000
0100
0000
0000
0000
,
0001
0010
0000
0000
0011
0000
0000
0010
0100
0010
0000
0000
0110
0000
0000
0100
,
1000
0100
0000
0000
1100
0000
0000
1000
0000
0010
0100
0000
0001
0000
0000
0000
,
0100
0001
0000
0000
0101
0000
0000
0100
0010
0100
0000
0000
0110
0000
0000
0010
,
1000
0010
0000
0000
1010
0000
0000
1000
0000
0100
0010
0000
0001
0000
0010
0000
,
0001
0010
0000
0000
0011
0000
0000
0010
0100
0010
0000
0000
0110
0000
0000
0100
,
1000
0100
0000
0000
1100
0000
0000
1000
0000
0010
1000
0000
0010
0000
0100
0000
,
0001
0100
0010
0100
1000
0100
0010
0100
,
0001
1000
0100
0000
1000
0100
0010
0001
,
0010
0001
0010
0001
0100
0001
1000
0010
,
1000
0100
1100
0000
0000
0000
0000
0000
;

//---------------dance-single - Renard----------------
#NOTES:
     dance-single:
     Renard:
     Medium:
     6:
     0.328,0.350,0.080,0.000,0.143:
0000
0000
0000
0000
,
0000
0000
0000
0000
,
0000
0000
0000
0000
,
0000
0000
0000
0000
,
0000
0000
0000
0000
,
1000
0000
0000
0000
0001
0000
0000
0100
0000
0000
0010
0000
1000
0000
0000
0000
,
0100
0000
0000
0000
1000
0000
0000
0001
0000
0000
0000
0000
0000
0000
0000
0000
,
1000
0000
0000
0000
0001
0000
0000
0100
0000
0000
0001
0000
1000
0000
0000
0000
,
0100
0000
0000
0000
1000
0000
0000
0001
0000
0000
1000
0000
0001
0000
0000
0000
,
1000
0000
0000
0000
0001
0000
0000
1000
0000
0000
0001
0000
1000
0000
0000
0000
,
0010
0000
0000
0000
1000
0000
0000
0100
0000
0000
0000
0000
0000
0000
0000
0000
,
1000
0000
0000
0000
0001
0000
0000
1000
0000
0000
0001
0000
0010
0000
0000
0000
,
0001
0000
0000
0000
1000
0000
0000
0001
0000
0000
1000
0000
0001
0000
0000
0000
,
0100
0001
0000
0000
0001
0000
0000
0000
1000
0000
0000
0000
0100
0000
0000
0000
,
1000
0010
0100
0001
,
1000
0100
0000
0000
0100
0000
0000
0000
1000
0000
0000
0000
0010
0000
0000
0000
,
0100
0001
0010
0010
,
0100
1000
0000
0000
0000
1000
0000
0000
0010
0000
0000
0000
0100
0000
0000
0000
,
0001
0100
0010
1000
,
0100
1000
0000
0000
0100
0000
0000
0000
1000
0000
0000
0000
0001
0000
0000
0000
,
0010
0001
1000
0010
,
0100
0000
0100
0000
0001
0000
1000
0100
,
1000
0000
0001
0001
,
0100
0000
0100
0000
0001
0000
1000
0010
,
1000
0000
0001
0001
,
0100
0100
0001
0000
1000
0000
0100
0000
,
1000
1000
0010
0000
0100
0000
0001
0000
,
0100
0100
0010
0000
1000
0000
0100
0000
,
0010
0010
0001
0000
0010
0000
0100
0000
,
0010
0010
0001
0000
0100
0010
0100
0000
,
0001
0001
0100
0000
0010
0000
0000
0000
,
1000
1000
0100
0000
1000
0001
1000
0000
,
0010
1000
0001
0100
,
0001
0100
0000
0000
0001
0000
0000
0000
0001
0000
0000
0000
0001
0000
0000
0000
,
1000
0100
0000
0000
1000
0000
0000
0000
1000
0000
0000
0000
1000
0000
0000
0000
,
0001
0010
0000
0000
0001
0000
0000
0000
0001
0000
0000
0000
0001
0000
0000
0000
,
1000
0010
0000
0000
1000
0000
0000
0000
1000
0000
0000
0000
1000
0000
0000
0000
,
0100
1000
0000
0000
0100
0000
0000
0000
0010
0001
0000
0000
0010
0000
0000
0000
,
0100
1000
0010
0000
,
0100
0001
0000
0000
0100
0000
0000
0000
0010
1000
0000
0000
0010
0000
0000
0000
,
1000
0100
0000
0000
1000
0000
0000
0000
0001
0000
0000
0000
0010
0000
0000
0000
,
0001
0001
1000
1000
,
0010
0100
0010
0000
0000
0000
0000
0000
,
1000
1000
0100
0100
,
0010
0001
0010
0000
0000
0000
0000
0000
,
0001
0010
0100
1000
,
0010
0000
0000
0000
1000
0000
0010
1000
0000
0000
0000
0000
0000
0000
0000
0000
,
0001
0100
0001
0010
,
0100
0000
1000
0000
0001
0100
0001
0000
,
1000
0100
0000
0000
1100
0000
0000
0000
0000
0000
0000
0000
1100
0000
0000
0000
,
0001
0010
0000
0000
0011
0000
0000
0000
0000
0000
0000
0000
0011
0000
0000
0000
,
0001
0100
0000
0000
0101
0000
0000
0000
0000
0000
0000
0000
0101
0000
0000
0000
,
0010
1000
0000
0000
1010
0000
0000
0000
0000
0000
0000
0000
1010
0000
0000
0000
,
1000
0100
0000
0000
1000
0000
0000
0000
0100
0000
0000
0000
1000
0000
0000
0000
,
0001
0010
0000
0000
0001
0000
0000
0000
0010
0000
0000
0000
0001
0000
0000
0000
,
0100
0001
0000
0000
0100
0000
0000
0000
0010
0100
0000
0000
0010
0000
0000
0000
,
1000
0010
0000
0000
1000
0000
0000
0000
0100
0000
0000
0000
1000
0000
0000
0000
,
0001
0001
1000
1000
,
0001
0000
0100
0000
,
0010
0010
1000
0100
,
0010
1001
0000
0000
;

//---------------dance-single - Renard----------------
#NOTES:
     dance-single:
     Renard:
     Easy:
     3:
     0.230,0.242,0.000,0.000,0.080: // measure 1
0000
0000
0000
0000
,  // measure 2
0000
0000
0000
0000
,  // measure 3
0000
0000
0000
0000
,  // measure 4
0000
0000
0000
0000
,  // measure 5
0000
0000
0000
0000
,  // measure 6
1000
1000
1000
0000
,  // measure 7
0001
0001
0001
0000
,  // measure 8
0100
0100
0100
0000
,  // measure 9
0010
0010
0010
0000
,  // measure 10
1000
0000
0000
0000
1000
0000
0000
1000
0000
0000
0000
0000
0000
0000
0000
0000
,  // measure 11
0001
0000
0000
0000
0001
0000
0000
0001
0000
0000
0000
0000
0000
0000
0000
0000
,  // measure 12
0100
0000
0000
0000
0100
0000
0000
0100
0000
0000
0000
0000
0000
0000
0000
0000
,  // measure 13
0010
0000
0000
0000
0010
0000
0000
0010
0000
0000
0000
0000
0000
0000
0000
0000
,  // measure 14
1000
1000
0010
0010
,  // measure 15
0100
0100
0001
0000
,  // measure 16
0100
0100
0001
0001
,  // measure 17
0010
0010
0001
0000
,  // measure 18
1000
0000
0001
0000
,  // measure 19
0100
0000
0000
0000
0000
0000
0000
0010
0000
0000
0000
0000
0010
0000
0000
0000
,  // measure 20
0100
0000
0001
0000
,  // measure 21
1000
0000
0000
0000
0000
0000
0000
0100
0000
0000
0000
0000
1000
0000
0000
0000
,  // measure 22
0010
0010
1000
1000
,  // measure 23
0001
0000
0100
0000
,  // measure 24
0010
0010
1000
1000
,  // measure 25
0100
0000
0010
0000
,  // measure 26
0001
0001
1000
1000
,  // measure 27
0010
0000
0000
0000
0000
0000
0010
1000
0000
0000
0000
0000
0000
0000
0000
0000
,  // measure 28
0001
0001
0100
0100
,  // measure 29
0001
0001
1000
0000
,  // measure 30
0100
0100
1000
1000
,  // measure 31
0001
0000
0000
0000
0000
0000
0001
0010
0000
0000
0000
0000
0000
0000
0000
0000
,  // measure 32
0100
0100
1000
1000
,  // measure 33
0010
0010
0100
0000
,  // measure 34
0001
0001
0100
0000
,  // measure 35
0010
0010
1000
0100
,  // measure 36
1000
1000
0001
0000
,  // measure 37
0010
0010
0001
0000
,  // measure 38
0100
0100
0001
0001
,  // measure 39
1000
0000
1000
0000
0000
0100
1000
0000
,  // measure 40
1000
1000
0010
0010
,  // measure 41
0100
0000
0100
0000
0000
0001
0010
0000
,  // measure 42
0001
1000
0001
1000
,  // measure 43
0010
0000
1000
1000
,  // measure 44
0001
1000
0001
1000
,  // measure 45
0100
0100
1000
0010
,  // measure 46
1000
0000
0000
0000
0001
0000
0000
0100
0000
0000
0000
0000
0000
0000
0000
0000
,  // measure 47
0001
0000
0000
0000
1000
0000
0000
0010
0000
0000
0000
0000
0000
0000
0000
0000
,  // measure 48
1000
0000
0000
0000
0001
0000
0000
0100
0000
0000
0000
0000
0000
0000
0000
0000
,  // measure 49
0001
0000
0000
0000
1000
0000
0000
0010
0000
0000
0000
0000
0000
0000
0000
0000
,  // measure 50
1000
1000
0001
0001
,  // measure 51
1000
1000
0010
0010
,  // measure 52
1000
1000
0001
0001
,  // measure 53
1000
1000
0100
0100
,  // measure 54
1000
0100
0000
0000
0000
0000
0000
0000
1000
0100
0000
0000
0000
0000
0000
0000
,  // measure 55
1000
0100
0000
0000
0000
0000
0000
0000
0000
0000
0000
0000
0000
0000
0000
0000
,  // measure 56
1000
0100
0000
0000
0000
0000
0000
0000
1000
0100
0000
0000
0000
0000
0000
0000
,  // measure 57
1000
0100
0000
0000
0000
0000
0000
0000
0000
0000
0000
0000
0000
0000
0000
0000
,  // measure 58
1000
0000
1000
0000
,  // measure 59
0001
0000
0100
0000
,  // measure 60
0001
0000
0001
0000
,  // measure 61
0010
0001
0000
0000
;
