#TITLE:Cube Negative (MGD Edit);
#SUBTITLE:;
#ARTIST:Gammer;
#TITLETRANSLIT:;
#SUBTITLETRANSLIT:;
#ARTISTTRANSLIT:;
#CREDIT:;
#BANNER:cube.png;
#BACKGROUND:cube-bg.png;
#LYRICSPATH:;
#CDTITLE:;
#MUSIC:cube.ogg;
#OFFSET:0.000;
#SAMPLESTART:75.931;
#SAMPLELENGTH:12.000;
#SELECTABLE:YES;
#BPMS:0.000=202.235;
#STOPS:;
#BGCHANGES:;

//---------------dance-single - Renard----------------
#NOTES:
     dance-single:
     Renard:
     Challenge:
     10:
     0.876,1.000,0.197,0.041,0.280:
0000
0000
0000
0000
,
0000
0000
0000
0000
,
0000
0000
0000
0000
,
0000
0000
0000
0000
,
0001
0001
1000
1000
,
0100
0000
0100
0000
0010
0001
0010
0100
,
1000
1000
0010
0010
,
0100
0001
0100
0010
1000
0000
1000
0000
,
0100
0100
1000
1000
,
0001
0000
0001
0000
0010
0100
1000
0010
,
0100
0100
0001
0001
,
0010
0100
1000
0001
0100
0000
0010
0000
,
1000
0000
1000
0000
0100
0010
0001
0010
,
0100
0100
1000
1000
,
0010
0100
0010
0000
0100
0000
0001
0000
,
1000
1000
0001
0001
,
1000
0001
0100
0000
0001
0000
1000
0100
,
0000
1000
0001
0010
0000
0010
0100
1000
,
0010
0100
0001
0000
0100
0001
1000
0100
,
0000
1000
0001
0010
0000
0001
1000
0010
,
0100
0001
0010
0000
0100
1000
0010
0100
,
0000
0001
0010
0100
0000
1000
0010
0100
,
0001
0010
0100
0000
1000
M010
02M0
0002
,
0000
0000
0000
0303
,
0101
0M0M
0110
0MM0
1010
M0M0
1000
0100
,
0010
0001
0010
0100
1000
0001
0010
0100
,
1100
MM00
1010
M0M0
1001
M00M
1000
0100
,
0010
0001
0010
0100
1000
0001
0010
0100
,
0110
0MM0
1100
MM00
0110
0MM0
0010
0001
,
0010
0100
1000
0001
0100
0010
1000
0001
,
0101
0M0M
0101
0M0M
1010
M0M0
1000
0100
,
0010
0000
0011
00MM
0011
00MM
0000
0000
,
0010
0100
1000
0010
0100
0001
1000
0100
,
1000
0001
0010
0100
1000
0001
0100
0010
,
1000
0100
0010
0001
0100
0010
1000
0100
,
0010
0001
0100
0010
1000
0010
1000
0010
,
1000
0100
1000
0001
0010
0001
0010
0100
,
0010
0100
1000
0100
1000
0010
1000
0010
,
0100
0001
0100
0001
0010
0100
1000
0001
,
0010
0100
1000
0010
0100
0001
0010
0100
,
1000
0100
1000
0001
0010
0001
1000
0010
,
1000
0001
0100
0001
1000
0100
0010
0001
,
1000
0100
1000
0001
0010
0001
1000
0010
,
1000
0001
0100
0001
1000
0100
0010
0001
,
1000
0010
1000
0001
0100
0001
0010
0001
,
0010
0100
1000
0100
1000
0001
0010
0100
,
1000
0001
0100
0010
1000
0000
0100
1000
,
0001
0000
1010
M0M0
1001
M00M
0000
0000
,
1000
0100
1000
0100
0010
0100
0010
0100
,
0010
0001
0010
0001
0100
0001
0100
0001
,
0100
0010
0100
0010
1000
0010
1000
0010
,
1000
0100
1000
0100
0010
0001
0010
0001
,
0010
0100
0010
0100
1000
0100
1000
0100
,
1000
0010
1000
0010
0100
0010
0100
0010
,
0100
0001
0100
0001
1000
0001
1000
0001
,
1000
0100
1000
0100
1000
0001
1000
0000
,
1001
0000
0000
0000
00M1
1000
00M1
1000
0M01
1000
0M01
1000
00M1
1000
0M01
1000
,
00M1
1000
0M01
1000
00M1
1000
00M1
1000
0M01
1000
0M01
1000
00M1
1000
0M01
1000
,
00M1
1000
0M01
1000
0M01
1000
00M1
1000
00M1
1000
0M01
1000
00M1
1000
0M01
1000
,
00M1
1000
0M01
1000
0M01
1000
00M1
1000
00M1
1000
0M01
1000
00M1
1000
0M01
1000
,
00M1
1000
00M1
1000
0M01
1000
00M1
1000
0M01
1000
0M01
1000
00M1
1000
00M1
1000
,
0M01
1000
00M1
1000
0M01
1000
00M1
1000
0M01
1000
00M1
1000
00M1
1000
0M01
1000
,
00M1
1000
0M01
1000
0M01
1000
00M1
1000
0M01
1000
0M01
1000
0M01
1000
00M1
1000
,
0M01
0000
1001
M00M
1001
M00M
0000
0000
,
0001
0100
0010
1000
0100
0010
0100
1000
,
0010
0100
0001
0010
0100
1000
0010
0100
,
0001
0010
0100
0010
0001
0100
0010
1000
,
0100
0010
0100
1000
0010
0100
0001
1000
,
0100
1000
0001
0010
0001
0100
0010
1000
,
0100
0010
0001
0010
0100
1000
0001
0100
,
0010
1000
0100
0010
0100
1000
0010
0100
,
0001
0010
0100
0010
0001
0100
0010
1000
,
0100
0001
0100
1000
0010
0001
0010
0100
,
1000
0100
0001
0010
0100
1000
0100
0001
,
0100
0010
0001
0010
1000
0010
0100
1000
,
0010
0001
0010
0100
1000
0100
0001
0010
,
0100
0001
0100
1000
0100
1000
0010
0001
,
0010
0100
1000
0100
0001
0010
0100
0001
,
0100
0010
0001
0010
1000
0010
0200
2000
,
0000
0000
0000
0000
,
3300
0000
0000
0000
;

//---------------dance-single - Renard----------------
#NOTES:
     dance-single:
     Renard:
     Hard:
     9:
     0.685,0.705,0.104,0.041,0.000:
0000
0000
0000
0000
,
0000
0000
0000
0000
,
0000
0000
0000
0000
,
0000
0000
0000
0000
,
0001
0001
1000
1000
,
0010
0000
0010
0000
0100
0001
1000
0100
,
0010
0010
0001
0001
,
1000
0001
1000
0001
0100
0000
0100
0000
,
0001
0001
1000
1000
,
0001
0000
0001
0000
1000
0010
1000
0010
,
1000
1000
0001
0001
,
1000
0000
1000
0000
0001
0100
0001
0100
,
0001
0001
1000
1000
,
0001
0000
0001
0000
1000
0001
1000
0001
,
1000
1000
0010
0010
,
0100
0001
1000
0001
,
1000
0000
0100
0000
0010
0000
0001
0010
,
0000
0000
0100
1000
0000
0010
1000
0000
,
0001
0000
0100
0000
0001
0000
1000
0100
,
0000
0000
0010
0001
0000
1000
0001
0000
,
0100
0000
0010
0000
1000
0000
0100
0010
,
0000
0000
0010
0001
0000
0010
0100
0000
,
1000
0000
0010
0000
0100
0000
0002
2000
,
0000
0000
0000
3003
,
0001
0100
0001
0000
0100
0010
1000
0010
,
0000
1000
0000
0100
0000
1000
0000
0001
,
0010
0001
1000
0000
0001
0100
0001
1000
,
0000
0010
0000
1000
0000
0100
0000
1000
,
0001
1000
0001
0000
0100
0001
1000
0010
,
0000
1000
0000
0100
0000
0010
0000
0001
,
1000
0001
0010
0000
0001
0100
0001
1000
,
0100
1000
1001
0000
,
1000
0100
1000
0000
0001
0010
0001
0000
,
1000
0010
1000
0010
1000
0000
0010
0000
,
0100
0001
0100
0000
0001
0010
0001
0000
,
0010
0100
1000
0100
1000
0100
1000
0100
,
1000
0010
1000
0010
1000
0001
1000
0001
,
1000
0100
1000
0100
1000
0001
1000
0001
,
1000
0100
1000
0010
1000
0001
1000
0100
,
1000
0100
0010
0001
1000
0000
0001
0000
,
0001
0100
0001
0000
0001
0010
0001
0000
,
0010
0100
0010
0000
0100
0010
0100
0000
,
1000
0100
1000
0000
1000
0010
1000
0000
,
0010
0100
0001
0010
0100
0000
0110
0000
,
0010
0001
0010
0000
0011
0000
0110
0000
,
0100
1000
0100
0000
1100
0000
1010
0000
,
1000
0100
0010
0001
0010
0000
0100
1000
,
0001
1001
1001
0000
,
0001
1000
0001
1000
0001
1000
0001
1000
,
0010
0100
0010
0100
0010
0100
0010
0100
,
0001
0100
0001
0100
0001
0100
0001
0100
,
0010
1000
0010
1000
0010
1000
0010
1000
,
0100
1000
0100
1000
0100
1000
0100
1000
,
0001
0010
0001
0010
0001
0010
0001
0010
,
0001
0100
0001
0100
0001
0100
0001
0100
,
0010
1000
0010
1000
0010
1000
0010
1000
,
0100
1000
0100
1000
0100
1000
0100
1000
,
0100
1000
0100
1000
0100
1000
0100
1000
,
0001
0010
0001
0010
0001
0010
0001
0010
,
0001
0010
0001
0010
0001
0010
0001
0100
,
0001
0100
0001
0100
0010
1000
0010
1000
,
0100
1000
0100
0010
0001
0010
0001
0010
,
0100
1000
0100
1000
0010
0100
0001
0010
,
0100
1001
1001
0000
,
0001
0100
0001
0000
1000
0100
1000
0000
,
0001
0010
0001
0000
1000
0010
1000
0000
,
0001
0100
0001
0000
1000
0100
1000
0000
,
0001
0010
0001
0000
1000
0010
1000
0000
,
0001
0100
0010
0000
1000
0100
0010
0000
,
0001
0100
0010
0000
1000
0100
0010
0000
,
0010
0100
1000
0000
0001
0010
0100
0000
,
1000
0010
0100
0000
0001
0100
0010
0000
,
1000
0010
0100
0000
0001
0010
0100
0000
,
1000
0010
0100
0000
0001
0010
0100
0000
,
0100
0010
0001
0000
1000
0100
0010
0000
,
0010
0100
1000
0000
0001
0100
0010
0000
,
1000
0010
1000
0000
0001
0100
0001
0000
,
1000
0100
0010
0001
0010
0100
1000
0000
,
0001
1000
0001
0000
1000
0100
2000
0002
,
0000
0000
0000
0000
,
3003
0000
0000
0000
;

//---------------dance-single - Renard----------------
#NOTES:
     dance-single:
     Renard:
     Medium:
     6:
     0.446,0.705,0.062,0.124,0.000:
0000
0000
0000
0000
,
0000
0000
0000
0000
,
0000
0000
0000
0000
,
0000
0000
0000
0000
,
1000
0001
1000
0001
,
1000
0000
0001
0000
1000
0001
1000
0001
,
1000
1000
0001
0001
,
1000
0001
2000
0000
,
3001
0001
1000
0001
,
1000
0000
0001
0000
1000
0000
0001
1000
,
0001
1000
0001
1000
,
0001
0000
1000
0000
0001
0000
1000
0001
,
1000
0001
1000
0001
,
1000
0001
1000
0001
,
1000
0001
1000
0001
,
1000
0001
1000
0000
,
1000
0000
0000
0000
0001
0000
0100
0010
,
0000
0000
1000
0010
0000
0000
0000
0000
,
1000
0000
0000
0000
0001
0000
0100
0001
,
0000
0000
0010
0100
0000
0000
0000
0000
,
1000
0000
0000
0000
0001
0000
0100
0010
,
0000
0000
1000
0001
0000
0000
0000
0000
,
1000
0000
0000
0000
0001
0000
0010
0200
,
0000
0000
0000
0000
,
1300
1000
0001
0001
,
1000
0000
1000
0000
0001
1000
0001
1000
,
0001
0001
1000
1000
,
0001
0000
0001
0000
1000
0001
1000
0001
,
1000
1000
0001
0001
,
1000
0000
1000
0000
0001
1000
0001
1000
,
0001
0001
1000
0001
,
1000
0001
0110
0000
,
0010
1000
0001
0100
,
0010
1000
0001
0100
,
0010
0000
1000
0000
0001
0100
0000
0000
,
0010
1000
0001
0000
,
1000
0100
0020
0031
,
1000
0100
0010
0001
,
1000
0100
0010
0001
,
1000
0100
0010
0000
,
0100
1000
0100
1000
,
0001
0010
0001
0010
,
0001
1000
0001
1000
,
0010
0100
0010
0100
,
0001
0100
0001
1000
,
0001
0010
0001
1000
,
0100
1000
0010
1000
,
1001
1001
1001
0000
,
0002
0000
0000
0000
,
2003
0000
0000
0000
,
3200
0000
0000
0000
,
0320
0000
0000
0000
,
0032
0000
0000
0000
,
2003
0000
0000
0000
,
3001
0000
0000
0100
0000
0000
0020
0000
,
0000
0000
0000
0000
,
1030
0001
1000
0001
1000
0001
1000
0001
,
1000
0001
1000
0001
1000
0001
1000
0001
,
1000
0001
1000
0001
1000
0001
1000
0001
,
1000
0001
1000
0001
1000
0001
1000
0001
,
1000
0001
1000
0001
1000
0001
1000
0001
,
1000
0001
1000
0001
1000
0001
1000
0001
,
1000
0001
1000
0001
1000
0000
0001
1000
,
0001
1001
1001
0000
,
0001
0000
0000
0000
1000
0000
0001
1000
,
0000
0000
0001
1000
0000
0000
0000
0000
,
0010
0000
0000
0000
0100
0000
0010
0100
,
0000
0000
0010
0100
0000
0000
0000
0000
,
0010
0000
0000
0000
1000
0000
0010
1000
,
0000
0000
0010
1000
0000
0000
0000
0000
,
0001
0000
0000
0000
0100
0000
0001
0100
,
0000
0000
0001
0100
0000
0000
0000
0000
,
0001
0000
0000
0000
1000
0000
0001
1000
,
0000
0000
0001
1000
0000
0000
0000
0000
,
0001
0000
0000
0000
0010
0000
0001
0010
,
0000
0000
0001
0010
0000
0000
0000
0000
,
0100
0000
0000
0000
1000
0000
0100
1000
,
0000
0000
0001
1000
0000
0000
0000
0000
,
0010
0000
0000
0000
1000
0000
0002
0200
,
0000
0000
0000
0000
,
0303
0000
0000
0000
;

//---------------dance-single - Renard----------------
#NOTES:
     dance-single:
     Renard:
     Easy:
     3:
     0.357,0.747,0.394,0.145,0.000: // measure 1
0000
0000
0000
0000
,  // measure 2
0000
0000
0000
0000
,  // measure 3
0000
0000
0000
0000
,  // measure 4
0000
0000
0000
0000
,  // measure 5
0000
0000
0000
0000
,  // measure 6
0000
0000
0000
0000
,  // measure 7
0000
0000
0000
0000
,  // measure 8
0000
0000
0000
0000
,  // measure 9
1000
0000
1000
0000
,  // measure 10
0001
0000
1000
0001
,  // measure 11
0100
0000
0100
0000
,  // measure 12
0010
0000
0100
0010
,  // measure 13
1000
0001
1000
0001
,  // measure 14
0100
0010
0100
0010
,  // measure 15
1000
0001
0100
0010
,  // measure 16
1000
0001
1000
0000
,  // measure 17
0002
0000
0000
0000
,  // measure 18
2003
0000
0000
0000
,  // measure 19
3020
0000
0230
0000
,  // measure 20
0302
0000
2003
0000
,  // measure 21
3200
0000
0000
0000
,  // measure 22
2300
0000
0000
0000
,  // measure 23
3002
0000
0023
0000
,  // measure 24
0230
0000
0000
0000
,  // measure 25
1300
1000
0001
0001
,  // measure 26
1000
1000
0001
0000
,  // measure 27
0100
0000
0010
0000
,  // measure 28
0100
0001
1000
0100
,  // measure 29
0010
0000
0001
0000
,  // measure 30
1000
0001
0100
0010
,  // measure 31
1000
0001
0100
0010
,  // measure 32
0110
0110
0110
0000
,  // measure 33
0010
0010
0010
0010
,  // measure 34
0010
0010
0010
0010
,  // measure 35
0010
0010
0010
0010
,  // measure 36
0010
0010
0010
0010
,  // measure 37
0100
0100
0100
0100
,  // measure 38
0100
0100
0100
0100
,  // measure 39
0100
0100
0100
0100
,  // measure 40
0100
0100
0100
0100
,  // measure 41
0001
0001
0001
0001
,  // measure 42
0001
0001
0001
0000
,  // measure 43
0001
0001
0001
0001
,  // measure 44
0000
0001
0001
0001
,  // measure 45
1000
1000
1000
1000
,  // measure 46
1000
1000
1000
1000
,  // measure 47
1000
0001
1000
0001
,  // measure 48
0110
0110
0110
0000
,  // measure 49
2002
0000
0000
0000
,  // measure 50
0000
0000
0000
0000
,  // measure 51
0000
0000
0000
0000
,  // measure 52
0000
0000
0000
0000
,  // measure 53
0000
0000
0000
0000
,  // measure 54
0000
0000
0000
0000
,  // measure 55
0000
0000
0000
0000
,  // measure 56
0000
0000
0000
3003
,  // measure 57
1001
0110
1001
0110
,  // measure 58
1001
0110
1001
0110
,  // measure 59
1001
0110
1001
0110
,  // measure 60
1001
0110
1001
0110
,  // measure 61
1010
0101
1010
0101
,  // measure 62
1010
0101
1010
0101
,  // measure 63
1100
0011
1100
0011
,  // measure 64
0110
1001
0110
0000
,  // measure 65
0010
1000
0010
0000
,  // measure 66
0100
0000
0001
0000
,  // measure 67
0100
0000
0001
0000
,  // measure 68
1000
0000
0100
0000
,  // measure 69
0010
0000
0001
0000
,  // measure 70
1000
0000
0001
0000
,  // measure 71
0100
0000
0001
0000
,  // measure 72
1000
0000
0010
0000
,  // measure 73
0100
0000
0001
0000
,  // measure 74
1000
0000
0001
0000
,  // measure 75
0100
0000
0001
0000
,  // measure 76
1000
0000
0100
0000
,  // measure 77
0010
0000
0001
0000
,  // measure 78
1000
0000
0001
0000
,  // measure 79
0100
0001
1000
0010
,  // measure 80
0200
0000
0000
0000
,  // measure 81
0300
0000
0000
0000
;
