#TITLE:Crushed;
#SUBTITLE:;
#ARTIST:Lord of Hardcore;
#TITLETRANSLIT:;
#SUBTITLETRANSLIT:;
#ARTISTTRANSLIT:;
#CREDIT:;
#BANNER:crushed.png;
#BACKGROUND:crushed-bg.png;
#LYRICSPATH:;
#CDTITLE:;
#MUSIC:crushed.ogg;
#OFFSET:0.000;
#SAMPLESTART:54.123;
#SAMPLELENGTH:12.000;
#SELECTABLE:YES;
#BPMS:0.000=177.375;
#STOPS:;
#BGCHANGES:;

//---------------dance-single - Renard----------------
#NOTES:
     dance-single:
     Renard:
     Hard:
     8:
     0.687,0.628,0.750,0.000,0.010:
0000
0000
0000
0000
,
0000
0000
0000
0000
,
0000
0000
0000
0000
,
0000
0000
0000
0000
,
1000
0001
0000
1001
0000
1010
0000
0001
,
0100
0010
0000
1010
0000
0001
0001
0001
,
0100
0010
0000
1010
0000
1001
0000
1000
,
0100
0010
0000
0011
0000
1000
0001
1000
,
1001
0000
0110
0000
1000
0010
0100
0001
,
0010
0100
1000
0100
0010
0001
1000
0000
,
0110
0000
1001
0000
0001
0010
0100
1000
,
0010
0100
0001
0100
0010
1000
0001
0000
,
1010
0000
0101
0000
0001
0100
0010
1000
,
0010
0100
0001
0010
0100
1000
0001
0000
,
1100
0000
0011
0000
1000
0010
1000
0001
,
0100
0001
0010
0100
1000
0001
1000
0000
,
0101
0000
0110
0000
1100
0000
1000
0100
,
0001
0100
0010
1000
0100
0001
0100
0000
,
0101
0000
0110
0000
1100
0000
1000
0100
,
0001
0100
0010
0001
0010
0100
1000
0000
,
1010
0000
1100
0000
1001
0000
1000
0100
,
0010
0001
0010
0100
1000
0010
0100
0000
,
0101
0000
0011
0000
1001
0000
0001
0100
,
0001
1000
0100
0010
0100
1000
0001
0000
,
1000
0000
1000
0001
0000
0001
0100
0010
,
1000
0000
1010
0000
1001
0000
0001
0100
,
0000
0100
0010
1000
0001
0100
0001
1000
,
0001
1000
0100
0010
0001
0000
1001
0000
,
0001
0000
0001
1000
0000
1000
0010
0100
,
0001
0000
0101
0000
1001
0000
1000
0010
,
0000
0010
0100
0001
1000
0010
1000
0001
,
1000
0001
0010
0100
1000
0000
1001
0000
,
1000
0000
0000
1000
0000
0000
1000
0000
0000
0000
0001
0000
0100
0000
0010
0000
,
1000
0100
0010
0000
0010
0100
1000
0000
,
0010
0100
0001
0010
0100
1000
0001
0010
,
0100
0010
0001
0000
1000
0100
0010
0000
,
0001
0000
0000
0001
0000
0000
0001
0000
0000
0000
1000
0000
0010
0000
0100
0000
,
0001
0010
0100
0000
0100
0010
0001
0000
,
0100
0010
1000
0100
0010
0001
1000
0100
,
0010
0100
1000
0001
0100
0000
1001
0000
,
0001
0000
0001
0100
0000
0100
1000
0000
,
0010
0000
0010
0001
0000
0001
0100
0010
,
1000
0000
1000
0100
0000
0100
0001
0000
,
0010
0000
0010
1000
0000
1000
0100
0010
,
0001
0000
0001
0100
0000
0100
1000
0000
,
0010
0000
0010
0001
0000
0001
0100
0010
,
1000
0000
1000
0100
0000
0100
0001
0000
,
0010
0000
0010
1000
0000
1000
0100
0010
,
0001
0010
0100
1000
0000
1000
0010
0001
,
0010
1000
0000
1000
0100
0010
0001
0000
,
0001
0010
0100
1000
0000
1000
0100
0001
,
0100
1000
0000
1000
0010
0000
1001
0000
,
1000
0100
0010
0001
0000
0001
0100
1000
,
0100
0001
0000
0001
0010
0100
1000
0000
,
1000
0100
0010
0001
0000
0001
0010
1000
,
0010
0000
0010
0001
0000
0001
0100
0000
,
0101
0000
0110
0000
1010
0000
1000
0100
,
0000
0110
0000
0011
0000
0001
1000
0000
,
1001
0000
1010
0000
0101
0000
1000
0100
,
0000
0011
0000
1001
0000
0001
0100
0010
,
0110
0000
1010
0000
1001
0000
1000
0100
,
0000
1100
0000
0011
0000
0001
0100
0010
,
1000
0000
1001
0000
0101
0000
0001
1000
,
0000
1100
0000
0011
0000
0001
1000
1000
,
0101
0000
1010
0000
1001
0000
1000
0100
,
0000
0110
0000
0011
0000
0001
1000
1000
,
0110
0000
1001
0000
1100
0000
0001
0010
,
0000
1100
0000
0011
0000
0100
1000
1000
,
0110
0000
0101
0000
0110
0000
0010
1000
,
0000
1100
0000
0110
0000
0010
0001
0001
,
0101
0000
0110
0000
0101
0000
0001
1000
,
0000
1100
0000
0011
0000
0001
1000
0001
;

//---------------dance-single - Renard----------------
#NOTES:
     dance-single:
     Renard:
     Medium:
     6:
     0.436,0.443,0.062,0.010,0.000:
0000
0000
0000
0000
,
0000
0000
0000
0000
,
0000
0000
0000
0000
,
0000
0000
0000
0000
,
0000
1000
0000
0001
0000
1000
0000
0001
,
0000
0100
0000
0010
0000
0100
0010
0100
,
0000
0001
0000
1000
0000
0100
0000
0010
,
0000
0001
0000
1000
0000
0001
1000
0001
,
1000
1000
0001
0001
,
1000
1000
0001
0000
,
0100
0100
0010
1000
,
0001
0010
0100
0000
,
1000
1000
0001
0100
,
0010
0000
1000
0000
0001
0000
0100
0010
,
0100
0010
1000
0001
,
0100
0000
0001
0000
1000
0100
0010
0001
,
1000
1000
0001
0010
,
0100
0000
1000
0000
0001
0000
0100
0010
,
0100
0010
1000
0001
,
0100
0000
0010
0000
1000
0100
0010
0001
,
0010
0001
0010
0100
,
1000
0000
0001
0000
0100
0000
0010
0100
,
0010
0100
0010
1000
,
0001
0100
0001
0000
,
1000
0000
1000
0100
0000
0100
1000
0000
,
0001
1000
0001
0000
,
0010
0000
0010
0001
0000
0001
0010
0000
,
0001
1000
0001
0000
,
1000
0000
1000
0100
0000
0100
1000
0000
,
0001
0010
0001
1000
,
0001
0000
0001
0100
0000
0100
0001
0000
,
1000
0100
0010
0001
,
1000
0000
1000
0001
0000
0001
1000
0000
,
0010
0100
0010
0100
,
0010
0000
0010
0100
0000
0100
0010
0000
,
1000
0001
1000
0001
,
1000
0100
0010
0001
,
0010
0001
0010
0001
,
1000
0100
1000
0001
,
1000
0001
0200
0000
,
0310
0000
0010
0100
0000
0100
0010
0000
,
1000
0001
1000
0001
,
0100
0000
0100
0001
0000
0001
1000
0000
,
0100
0010
0001
0010
,
0100
0000
0100
1000
0000
1000
0001
0000
,
1000
0001
1000
0001
,
0100
0000
0100
0010
0000
0010
0100
0000
,
0001
1000
0100
1000
,
0001
1000
0001
1000
,
0010
0100
0010
0000
0100
0000
0000
0000
,
0001
0000
1000
0000
0001
0000
1000
0001
,
1000
0001
1000
0001
,
0100
0001
1000
0100
,
0110
1001
0110
0000
,
0110
0000
1001
0000
,
1000
0001
1001
0000
,
1000
0000
1000
0000
0001
0000
0001
1000
,
0000
0001
0000
1000
0000
0001
1000
0000
,
0001
0000
0100
0000
0001
0000
1000
0001
,
0000
1000
0000
0001
0000
1000
0001
0000
,
1000
0000
0100
0000
0010
0000
0001
1000
,
0000
0001
0000
1000
0000
0001
1000
0000
,
0001
0000
0100
0000
0010
0000
1000
0001
,
0000
1000
0000
0001
0000
1000
0001
0000
,
0100
0000
0010
0000
1000
0000
0100
0010
,
0000
0001
0000
1000
0000
0001
1000
0000
,
0001
0000
0100
0000
0010
0000
1000
0100
,
0000
0010
0000
0001
0000
1000
0001
0000
,
1000
0000
0001
0000
0100
0000
0001
1000
,
0000
0100
0000
1000
0000
0001
0000
0010
,
0001
1000
0001
0100
,
0010
0000
1000
0000
0100
0000
0010
0001
;

//---------------dance-single - Renard----------------
#NOTES:
     dance-single:
     Renard:
     Easy:
     3:
     0.286,0.332,0.000,0.257,0.000: // measure 1
0000
0000
0000
0000
,  // measure 2
0000
0000
0000
0000
,  // measure 3
0000
0000
0000
0000
,  // measure 4
0000
0000
0000
0000
,  // measure 5
1000
0000
1000
0000
,  // measure 6
0001
0001
0001
0000
,  // measure 7
0001
0000
0001
0000
,  // measure 8
1000
1000
1000
0000
,  // measure 9
0001
0000
0100
0000
,  // measure 10
0010
0000
1000
0000
,  // measure 11
1000
0000
0100
0000
,  // measure 12
0010
0000
0001
0000
,  // measure 13
0001
0000
0010
0000
,  // measure 14
0100
0000
1000
0000
,  // measure 15
1000
0000
0010
0000
,  // measure 16
0100
0000
0001
1000
,  // measure 17
0001
1000
0001
0000
,  // measure 18
0100
0000
0010
0000
,  // measure 19
1000
0001
1000
0000
,  // measure 20
0100
0000
0010
0000
,  // measure 21
0001
1000
0001
0000
,  // measure 22
0010
0000
0100
0000
,  // measure 23
1000
0001
1000
0000
,  // measure 24
0010
0000
0100
0000
,  // measure 25
0002
0000
0000
0000
,  // measure 26
2003
0000
3002
0000
,  // measure 27
0203
0000
0000
0000
,  // measure 28
0320
0000
0230
0000
,  // measure 29
0302
0000
0000
0000
,  // measure 30
2003
0000
3002
0000
,  // measure 31
2003
0000
3200
0000
,  // measure 32
0320
0000
0032
0000
,  // measure 33
2003
0000
0000
0000
,  // measure 34
3020
0000
2030
0000
,  // measure 35
3002
0000
0000
0000
,  // measure 36
0203
0000
0302
0000
,  // measure 37
2003
0000
0000
0000
,  // measure 38
3200
0000
0320
0000
,  // measure 39
0032
0000
2003
0000
,  // measure 40
3002
0000
0000
0000
,  // measure 41
0103
0100
0100
0100
,  // measure 42
0100
0100
0100
0100
,  // measure 43
0010
0010
0010
0010
,  // measure 44
0100
0010
0100
0010
,  // measure 45
1000
1000
1000
1000
,  // measure 46
1000
1000
1000
1000
,  // measure 47
0001
0001
0001
0001
,  // measure 48
1000
0001
1000
0001
,  // measure 49
1000
1000
1000
1000
,  // measure 50
0010
0010
0010
0000
,  // measure 51
0100
0100
0100
0100
,  // measure 52
0001
0001
0001
0000
,  // measure 53
0010
0010
0010
0010
,  // measure 54
0100
0100
0100
0000
,  // measure 55
1000
0000
0001
0000
,  // measure 56
0100
0010
0100
0000
,  // measure 57
0010
0000
0010
0000
,  // measure 58
0010
0010
0010
0000
,  // measure 59
0100
0000
0100
0000
,  // measure 60
0100
0100
0100
0000
,  // measure 61
0001
0000
0001
0000
,  // measure 62
1000
1000
1000
0000
,  // measure 63
0001
0000
1000
0000
,  // measure 64
0001
0000
1000
0000
,  // measure 65
0010
0100
0010
0000
,  // measure 66
0100
0000
0010
0000
,  // measure 67
1000
0001
1000
0000
,  // measure 68
0001
0000
1000
0000
,  // measure 69
0001
0100
0001
0000
,  // measure 70
1000
0000
0010
0000
,  // measure 71
1000
0000
0100
0000
,  // measure 72
0010
0001
1000
0001
;
