#TITLE:Crew Christmas;
#SUBTITLE:;
#ARTIST:MDG-Crew and Ryvard;
#TITLETRANSLIT:;
#SUBTITLETRANSLIT:;
#ARTISTTRANSLIT:;
#CREDIT:;
#BANNER:crew.png;
#BACKGROUND:crew-bg.png;
#LYRICSPATH:;
#CDTITLE:;
#MUSIC:crew.ogg;
#OFFSET:0.000;
#SAMPLESTART:61.333;
#SAMPLELENGTH:12.000;
#SELECTABLE:YES;
#BPMS:0.000=90.000,36.000=180.000;
#STOPS:;
#BGCHANGES:;

//---------------dance-single - Renard----------------
#NOTES:
     dance-single:
     Renard:
     Hard:
     9:
     0.657,0.605,0.408,0.000,0.051:
0000
0000
0000
0000
,
0000
0000
0000
0000
,
0000
0000
0000
0000
0000
0000
0000
0001
,
1000
0010
0100
0001
1000
0100
0010
0001
,
0010
0100
1000
0010
0100
0000
0101
0100
,
0010
1000
1010
1000
0100
0010
0110
0010
,
0001
0100
0101
0100
0010
0000
1000
0100
,
1100
0000
0100
0010
0110
0000
0010
0001
,
0011
0000
0000
0000
0001
0000
1000
0000
0001
0000
0100
0000
0010
1000
0001
1000
,
0001
1000
0100
0010
0001
0010
0100
1000
,
0001
0010
0100
1000
0100
1000
0001
0010
,
0001
0010
0100
1000
0001
1000
0100
1000
,
0100
0010
0001
0010
0100
1000
0000
0000
,
0001
0100
0010
0100
0001
0100
0010
1000
,
0100
0010
0100
1000
0010
0100
0010
0100
,
0001
0010
0100
1000
0001
0010
0100
1000
,
0001
1000
0010
1000
0001
1000
1100
0000
,
1000
0010
0100
0001
0010
0100
0010
0001
,
0010
0100
1000
0010
0100
0001
0100
0010
,
0110
1010
1100
0011
,
0110
1001
1010
1001
,
1000
0001
0100
0010
1000
0000
1000
0010
,
0100
0001
0010
0100
1000
0000
1000
0001
,
0010
0100
1000
0001
0100
0000
0100
0010
,
1000
1000
0010
0010
0100
0001
0010
0100
,
1000
1000
0001
0100
0010
0000
0010
1000
,
0100
0010
0001
0010
0100
0000
0100
1000
,
0010
0010
0100
0001
0100
0100
0010
1000
,
0100
0100
0010
0001
0010
0000
0011
0000
,
0001
0010
0100
1000
0100
0000
1000
0000
,
0010
0100
0001
1000
0010
0000
1000
0000
,
0010
0100
0001
1000
0100
0000
0010
0000
,
0001
0010
0100
1000
0001
0100
0010
1000
,
0010
1000
0001
1000
0100
0000
1100
0000
,
0100
1000
0001
0010
0100
0000
0110
0000
,
0100
1000
0001
0100
0010
0100
0010
1000
,
0100
0010
0001
0010
0100
0000
0110
0000
,
0100
1000
0010
0000
0100
0001
0100
0000
,
0010
0000
1000
0000
0100
0000
0000
0010
0001
0000
0010
0000
0100
0000
1000
0000
,
0001
0100
0010
1000
0010
0100
0001
1000
,
0100
0010
0001
1000
0001
0000
1001
0000
,
0001
0100
0010
0000
0010
1000
0100
0000
,
1000
0000
0001
0000
0010
0000
0000
0100
1000
0000
0001
0000
0100
0000
0000
0000
,
0010
1000
0010
0100
0001
0100
0010
1000
,
0100
0010
0001
0010
0100
0000
0110
0000
,
0100
1000
0001
0000
0100
0010
1000
0000
,
0100
0000
0010
0000
0001
0000
0000
0010
0100
0000
0000
0000
1000
0000
0000
0000
,
0001
0000
0100
0000
0010
0000
0000
1000
0010
0000
0100
0000
0010
0000
0100
0000
,
0001
0010
0100
1000
0001
0000
1001
0000
,
0001
0100
0010
0000
1000
0010
0100
0000
,
0001
0000
0100
0000
0010
0000
0000
1000
0100
0000
0000
0000
0000
0000
0000
0000
,
0010
0001
0010
0100
1000
0001
0100
0010
,
1000
0010
1000
0001
0100
0000
0101
0000
,
0001
1000
1100
0000
0100
1000
1001
0000
,
0001
0000
0100
0000
0101
0000
0000
0001
0100
0000
0010
0000
1000
0000
0000
0000
,
0100
0010
0011
0000
0010
0100
0110
0000
,
0100
1000
0001
1000
0001
0000
1001
0000
,
0001
1000
1010
0000
1000
0001
0011
0000
,
0001
0000
0010
0000
0110
0000
0000
0100
1000
0000
0001
0000
1000
0000
0000
0000
,
0010
1000
0010
1000
0001
0100
0001
0100
,
0001
1000
0100
0010
0100
0000
0110
0000
,
0100
1000
1100
0000
1000
0001
1001
0000
,
0001
0000
0100
0000
0101
0000
0000
0001
0100
0000
0010
0000
1000
0000
0100
0000
,
0010
0001
0011
0000
0010
0100
0110
0000
,
0100
1000
1100
0000
0001
1000
0001
0000
,
1000
0001
0101
0000
0100
0010
0110
0000
,
0010
0000
1000
0000
1010
0000
0000
1000
0100
0000
0010
0000
0001
0000
0010
0000
,
0100
0010
0001
0010
0100
1000
0100
1000
,
0010
0001
0010
1000
0010
0000
1010
0000
;

//---------------dance-single - Renard----------------
#NOTES:
     dance-single:
     Renard:
     Medium:
     6:
     0.420,0.478,0.009,0.009,0.000:
0000
0000
0000
0000
,
0000
0000
0000
0000
,
0000
0000
0000
0000
,
0000
0000
0000
0000
,
0000
0000
0000
0000
,
0001
1000
0100
0010
0001
0010
0001
0010
,
0001
1000
0001
0100
0020
0000
1030
0001
,
0100
0000
0001
1000
0100
0000
1000
0001
,
0010
0000
0001
0000
1000
0000
0001
0001
,
1000
0000
0001
0000
,
1000
0000
0001
0000
,
0100
0010
1000
0001
,
1000
0001
0100
0010
1000
0001
0000
0000
,
1000
1000
0001
0001
,
0100
0000
0100
0000
0010
0100
0010
0000
,
1000
0100
0010
0001
,
1000
0000
0001
0000
0100
0001
0100
0000
,
0001
1000
0100
0010
,
0001
1000
0000
0001
,
0100
0001
1000
0100
,
1000
0001
0100
0001
,
1000
0000
0100
1000
0100
0000
0000
0000
,
1000
0000
0001
1000
0001
0000
0000
0000
,
0010
0000
0001
0010
0001
0000
0000
0000
,
0100
0000
0010
0100
0010
0000
0000
0000
,
1000
0000
0001
1000
0001
0000
0000
0000
,
1000
0000
0100
1000
0100
0000
0000
0000
,
1000
0000
0001
0010
0001
0000
1000
0001
,
1000
0001
0100
0010
,
1000
0010
1000
0000
0010
0000
0000
0000
,
0100
0001
0100
0000
0001
0000
0000
0000
,
1000
0001
1000
0000
0001
0000
0000
0000
,
0100
0010
0100
0000
0010
1000
0010
1000
,
0010
1000
0010
1000
0010
0000
0000
0000
,
1000
0001
1000
0001
1000
0000
0000
0000
,
0001
0100
0001
0100
0001
0100
0001
0100
,
0001
0100
0001
0100
0001
0000
0000
0000
,
1000
0001
1000
0000
0010
0100
0010
0000
,
1000
0001
1000
0000
0001
0000
0000
0000
,
1000
0100
1000
0000
0001
0010
0001
0000
,
1000
0001
1000
0000
0001
0000
0000
0000
,
0100
0001
0100
0000
0001
1000
0001
0000
,
0010
0001
0010
0000
0001
0000
0000
0000
,
1000
0010
1000
0000
0100
1000
0100
0000
,
1000
0000
0001
0100
0001
0000
0000
0000
,
1000
1000
0001
0001
,
0100
0000
0010
0100
0010
0000
0000
0000
,
1000
1000
0001
0001
,
0010
0100
0010
0100
1000
0000
0001
0000
,
0100
0001
0100
0000
0001
1000
0001
0000
,
1000
0100
1000
0000
0001
0000
0000
0000
,
0010
0001
0010
0000
0100
1000
0100
0000
,
1000
0001
1000
0001
1000
0000
0000
0000
,
0001
0001
1000
1000
,
0001
1000
0001
0000
1000
0000
0000
0000
,
0010
0100
0010
0100
,
0001
1000
0010
1000
0001
0000
1000
0000
,
0001
1000
0001
0000
1000
0001
1000
0000
,
0001
1000
0001
0000
1000
0000
0000
0000
,
0010
0100
0010
0000
0100
0010
0100
0000
,
0001
0100
0001
0100
0001
0000
0100
0000
,
0001
1000
0001
0000
1000
0001
1000
0000
,
0001
1000
0001
1000
0001
0000
1000
0000
,
0010
0100
0010
0000
0100
0010
0100
0000
,
0001
1000
0001
1000
0001
0000
1000
0000
,
0010
0100
0010
0000
1000
0001
1000
0000
,
0001
0100
0010
0000
1000
0000
0001
0000
,
1000
0100
1000
0000
0001
0010
0001
0000
,
1000
0001
1000
0010
1000
0000
1001
0000
;

//---------------dance-single - Renard----------------
#NOTES:
     dance-single:
     Renard:
     Easy:
     3:
     0.277,0.382,0.083,0.093,0.000: // measure 1
0000
0000
0000
0000
,  // measure 2
0000
0000
0000
0000
,  // measure 3
0000
0000
0000
0000
,  // measure 4
0000
0000
0000
0000
,  // measure 5
0000
0000
0000
0000
,  // measure 6
2000
0000
3002
0203
,  // measure 7
0320
0000
2030
0000
,  // measure 8
3002
2003
3002
2003
,  // measure 9
0002
0000
0000
3003
,  // measure 10
1000
1000
0001
0001
,  // measure 11
1000
1000
0001
0001
,  // measure 12
1000
0001
1000
0001
,  // measure 13
1000
0001
1000
0000
,  // measure 14
0010
0100
0010
0100
,  // measure 15
0001
0100
0001
0100
,  // measure 16
0001
1000
0001
1000
,  // measure 17
0100
1000
0100
0000
,  // measure 18
1000
0010
1000
0010
,  // measure 19
1000
0001
1000
0001
,  // measure 20
0010
0001
0010
0001
,  // measure 21
0100
0001
1000
0010
,  // measure 22
1000
1000
1000
0000
,  // measure 23
0001
0001
0001
0000
,  // measure 24
1000
1000
1000
0000
,  // measure 25
0001
0001
0001
0000
,  // measure 26
0100
0100
0100
0000
,  // measure 27
0010
0010
0010
0000
,  // measure 28
0100
0100
0010
0010
,  // measure 29
0100
0010
0100
0000
,  // measure 30
0010
0010
0010
0000
,  // measure 31
1000
1000
1000
0000
,  // measure 32
0010
0010
0010
0000
,  // measure 33
1000
1000
1000
0000
,  // measure 34
0001
0001
0001
0000
,  // measure 35
0100
0100
0100
0000
,  // measure 36
0001
0100
0001
0100
,  // measure 37
0001
0100
0001
0000
,  // measure 38
1000
0000
1000
0000
,  // measure 39
1000
0100
0010
0000
,  // measure 40
0001
0000
0001
0000
,  // measure 41
0001
0010
0100
0000
,  // measure 42
1000
0000
1000
0000
,  // measure 43
1000
0010
0100
0000
,  // measure 44
0001
0000
0001
0000
,  // measure 45
0001
0100
0010
0000
,  // measure 46
0010
0000
0010
0000
,  // measure 47
0010
0010
0010
0000
,  // measure 48
0100
0000
0100
0000
,  // measure 49
0001
1000
0001
0000
,  // measure 50
1000
0000
1000
0000
,  // measure 51
1000
0100
0010
0000
,  // measure 52
0001
0000
0010
0000
,  // measure 53
0100
1000
0001
0000
,  // measure 54
0100
0001
0100
0001
,  // measure 55
1000
0001
1000
0000
,  // measure 56
0001
0000
1000
0000
,  // measure 57
0001
0000
1000
0000
,  // measure 58
0010
1000
0010
1000
,  // measure 59
0001
1000
0100
0000
,  // measure 60
1000
0000
0001
0000
,  // measure 61
0010
0100
1000
0000
,  // measure 62
0001
0000
0100
0000
,  // measure 63
0001
0100
0101
0000
,  // measure 64
0100
0000
0001
0000
,  // measure 65
0100
0001
0101
0000
,  // measure 66
1000
0000
0100
0000
,  // measure 67
1000
0100
1100
0000
,  // measure 68
1001
0000
0110
0000
,  // measure 69
1001
0110
1001
0110
;
