#TITLE:Countdown to Insanity;
#SUBTITLE:;
#ARTIST:Hecate and Kitsune²;
#TITLETRANSLIT:;
#SUBTITLETRANSLIT:;
#ARTISTTRANSLIT:;
#CREDIT:;
#BANNER:insanity.png;
#BACKGROUND:insanity-bg.png;
#LYRICSPATH:;
#CDTITLE:;
#MUSIC:insanity.ogg;
#OFFSET:0.000;
#SAMPLESTART:15.653;
#SAMPLELENGTH:12.000;
#SELECTABLE:YES;
#BPMS:0.000=143.125;
#STOPS:107.750=0.419
,138.000=0.210
,138.500=0.210
,139.000=0.210
,139.500=2.096
,140.000=0.210
,171.000=0.210
,171.500=0.210
;
#BGCHANGES:;

//---------------dance-single - Renard----------------
#NOTES:
     dance-single:
     Renard:
     Challenge:
     10:
     0.834,0.757,0.319,0.044,1.000:
0000
0000
0000
0000
,
0000
0000
0000
0000
,
1001
0000
0001
0100
0001
0000
1000
0100
0000
1000
0000
0001
0010
0001
1000
0010
,
1000
0000
0001
1000
0100
1000
0001
0010
0000
0001
0000
1000
0010
1000
0001
1000
,
0100
0000
1000
0000
0001
0010
0001
1000
0000
0010
0000
1000
0001
0100
0001
1000
,
0100
0000
1000
0001
0010
0000
0001
1000
0000
0010
0000
1000
0001
1000
0100
1000
,
0001
0000
0010
0000
0001
0000
1000
0010
0000
1000
0000
0001
1000
0100
1000
0001
,
0010
0000
0001
0010
0001
0000
1000
0010
0000
1000
0000
0001
1000
0100
1000
0001
,
0010
0000
0001
0010
0001
1000
0001
1000
0000
0010
0000
1000
0010
0100
0001
1000
,
0100
0000
0000
0000
0000
1100
0110
0011
,
0100
0000
1000
0000
0010
0000
0100
0000
0001
0100
0000
0010
0000
1000
0100
0000
,
0010
0000
0001
0000
0010
0000
0100
1000
0000
0001
0000
0010
0000
0100
1000
0010
,
0100
0000
0001
0000
1000
0000
0100
0000
1000
0001
0000
0010
0000
0001
0010
0000
,
0100
0000
1000
0000
0010
0000
0100
0001
0000
0100
0000
0010
0000
1000
0100
0010
,
0001
0000
0010
0000
0100
0000
1000
0000
0010
1000
0000
0001
0000
0100
0001
0000
,
1000
0000
0100
0000
0010
0000
0001
0010
0000
0100
0000
1000
0000
0010
0100
0001
,
0100
0000
0010
0000
1000
0000
0100
0000
0010
0001
0000
0010
0000
0100
1000
0000
,
1001
0010
1001
0100
2002
0000
0010
3003
,
0001
0000
0000
0100
0001
0100
0001
0000
0000
0100
0010
0100
0010
0000
0000
1000
,
0010
1000
0010
1000
0010
0000
1000
0100
1000
0100
1000
0000
0001
0010
0001
0010
,
0001
0000
0000
0001
1000
0010
1000
0000
0000
0010
1000
0001
1000
0000
0100
0000
,
1000
0000
0000
1000
0001
0100
0001
0000
1000
0000
0000
0001
0100
0001
1000
0000
,
0001
0000
0000
0100
0001
0100
0001
0000
0000
1000
0100
1000
0100
0000
1000
0000
,
0001
0010
0001
0010
0001
0000
1000
0010
1000
0010
1000
0000
0001
0100
0001
0100
,
0001
0000
0000
1000
0100
1000
0001
0000
0000
0010
0001
1000
0001
0000
1000
0000
,
0010
0000
0000
0010
1000
0001
0100
0000
0010
0000
0000
0010
1000
0001
0100
0000
,
0001
1000
0001
1000
0001
0000
0100
0010
0100
0010
0100
0000
0010
1000
0010
0000
,
0000
0000
1000
0100
0010
0001
0010
0000
0100
1000
0000
0001
1000
0000
0010
0000
,
1000
0000
0100
0000
0110
0000
0010
0000
0001
0010
0000
0100
1000
0000
0010
0000
,
0100
0000
0001
0000
0100
0010
0000
0010
1000
0100
0000
1000
0001
0000
1000
0000
,
0010
0000
1000
0000
1001
0000
0000
0000
1000
0100
0000
0010
0001
0000
0010
0100
,
0000
1000
0010
0000
0100
0001
0000
0100
0010
0000
1000
0000
1100
0000
1000
0000
,
0001
0000
0010
0001
1000
0000
0001
0000
0100
0000
0010
0000
0110
0000
0010
0000
,
1000
0100
1000
0000
0001
0010
0000
0000
0001
0000
0010
0000
0110
0000
0010
0000
,
0100
1000
1010
1000
1100
0011
0101
2020
,
0000
3030
MMMM
0000
0001
0000
1000
0100
1000
0000
0001
0010
0000
0001
1000
0000
,
0010
0000
1000
0000
0001
0000
0100
0010
1000
0000
0100
1000
0001
1000
0010
1000
,
0001
0000
1000
0000
0001
0000
0100
0000
0010
0000
1000
0000
0100
0010
0000
0001
,
0010
0000
0100
1000
0000
0001
0100
0000
0010
0000
1000
0000
0100
1000
0100
1000
,
0100
0000
1000
0000
0001
0100
0001
0100
0001
0000
0100
0000
0001
1000
0001
1000
,
0001
0000
1000
0000
0010
1000
0100
1000
0001
1000
0010
0000
1000
0100
0000
1000
,
0001
0000
0010
0000
0001
1000
0000
0001
0100
0010
0000
1000
0100
0000
0011
0000
,
0011
0000
0100
0000
1000
0001
1000
0001
0100
0010
0100
0000
0110
0000
1001
0000
,
0101
0000
0001
1000
0100
0000
1000
0001
0000
0010
0000
0001
1000
0000
0000
0000
,
1010
0000
1000
0100
0010
0000
0001
0010
0000
0100
0000
1000
0001
0000
0000
0000
,
0101
0000
1000
0100
0010
0000
0001
0010
0000
0100
0000
1000
0010
0000
0000
0000
,
1010
0000
0010
0100
0000
0100
0001
0000
0101
0000
0001
0010
0000
0100
0010
0000
,
0110
0000
0100
1000
0100
0000
1000
0010
0000
0100
0000
0010
0100
0000
0000
0000
,
0101
0000
0001
0010
0001
0000
0010
0100
0000
1000
0000
0010
0100
0000
0000
0000
,
0110
0000
0010
1000
0010
0000
0100
0001
0000
0100
0000
0001
1000
0000
0100
0000
,
1000
0000
0001
0001
0100
0000
0010
0010
1000
0000
0100
0100
1000
0000
0010
0010
,
0100
0000
0000
0000
;

//---------------dance-single - Renard----------------
#NOTES:
     dance-single:
     Renard:
     Hard:
     9:
     0.597,0.533,0.242,0.022,0.335:
0000
0000
0000
0000
,
0000
0000
0000
0000
,
1001
0000
0110
0000
0000
0010
1000
0000
,
0001
0000
0100
0000
0001
1000
0100
0010
0000
0001
0000
0000
0010
0000
0100
0000
,
1000
0101
0000
1001
,
1000
0000
0001
0000
0100
0001
0100
0001
0000
0100
0000
0000
0010
0000
1000
0000
,
0100
0000
1100
0000
1000
0000
0001
0010
,
0001
0000
0010
0000
0100
1000
0001
1000
0000
0001
0000
0000
1000
0000
0001
0000
,
0100
0000
0110
0000
0010
1000
0001
0100
,
0110
0000
0000
0000
0000
0110
0110
0110
,
0010
0000
1000
0000
0001
0000
0100
0000
0001
1000
0000
0100
0000
0010
0001
0000
,
0010
0000
0100
0000
1000
0000
0001
1000
0000
0001
0000
1000
0000
0001
1000
0000
,
0001
0000
0100
0000
0010
0000
1000
0000
0100
1000
0000
0001
0000
0010
0001
0000
,
1000
0000
0001
0000
0100
0000
0010
0100
0000
0010
0000
1000
0000
0001
0000
0000
,
1000
0000
0100
0000
0010
0000
0001
0000
0010
0100
0000
1000
0000
0001
0010
0000
,
0100
0000
1000
0000
0001
0000
0100
0001
0000
1000
0000
0100
0000
0010
0001
0000
,
0010
0000
0100
0000
1000
0000
0001
0000
0100
0010
0000
1000
0000
0001
0100
0000
,
0010
0100
0001
0100
0010
0000
0110
0000
,
0010
1000
0100
1000
0001
1000
0010
0000
,
1000
0000
0000
1000
0001
0000
0100
0000
0000
0100
0010
0000
1000
0000
0100
0000
,
0010
0000
0001
0010
0100
1000
0001
0000
,
0100
0010
0100
0010
0100
0010
0100
0010
,
0100
0000
0000
0100
0001
0000
1000
0000
0000
0000
0100
0000
0010
0000
0001
0000
,
1000
0000
0000
1000
0001
0000
0100
0000
0000
0100
0010
0000
1000
0000
0000
1000
,
0100
0010
0001
0010
0100
1000
0001
0100
,
0001
1000
0100
0010
0001
1000
0001
1000
,
0001
0000
0000
0001
0100
0000
0001
0000
0000
0001
1000
0000
0100
0000
1000
0000
,
0000
0000
0000
0000
1000
0001
0100
0001
,
1000
0100
0010
0001
0010
0100
1000
0001
,
0100
0010
0000
0100
0000
0010
0100
0000
0010
0000
1000
0000
0100
0000
0010
0000
,
0001
0010
0100
1000
0001
0100
0010
1000
,
0001
1000
0001
1000
0001
0100
0010
1000
,
0100
0010
0001
0010
0100
1000
0001
1000
,
0001
1000
0000
0001
0000
1000
0001
0000
1000
0000
0001
0000
0100
0000
0010
0000
,
1000
0100
0010
0001
0010
0110
1001
0220
,
0000
0330
0000
0000
0000
0000
0000
0000
0001
0000
0100
0000
0001
1000
0000
0100
,
0000
0010
0001
0000
0010
0000
0100
0000
1000
0000
0001
0000
0100
0000
0010
0000
,
1000
0000
0000
0000
0001
0000
0100
0000
0001
0000
1000
0000
0100
1000
0000
0001
,
1000
0001
0100
0010
1000
0100
0010
0001
,
1000
0000
0000
0000
0001
0100
0001
0000
0100
0000
0000
0000
0001
1000
0001
0000
,
1000
0000
0100
0010
0001
1000
0010
0100
,
0001
0000
1000
0000
0100
0000
0000
0010
0000
0001
0000
0000
0010
0000
0100
0000
,
1000
0001
0100
0000
0110
0000
1001
0110
,
0010
1000
0001
0100
0001
1000
0100
0000
,
0010
0001
1000
0010
0100
0000
0101
0000
,
0001
1000
0100
0010
0001
1000
0010
0000
,
1000
1001
0100
0110
,
0010
0000
1000
0000
0001
0000
0100
0001
0000
1000
0000
0000
0100
0000
0000
0000
,
1000
0000
0001
0000
0010
0000
0001
1000
0000
0000
0001
0000
0100
0000
0000
0000
,
0010
0000
1000
0000
0100
0000
0010
0001
0000
0010
0000
0000
0100
0000
0000
0000
,
1000
0001
0100
0010
1000
0000
1001
0000
,
0110
0000
0000
0000
;

//---------------dance-single - Renard----------------
#NOTES:
     dance-single:
     Renard:
     Medium:
     5:
     0.364,0.477,0.154,0.000,0.000:
0000
0000
0000
0000
,
0000
0000
0000
0000
,
1000
1000
0001
0000
,
1000
0000
0001
0000
,
1000
1000
0001
0000
,
0100
0000
0010
0000
,
0100
0000
0001
0000
1000
0000
0001
1000
,
0001
0001
0100
0000
,
0010
0000
1000
0000
0100
0000
1000
0001
,
1000
0000
0000
0000
,
1000
0001
0100
0010
1000
0001
0100
0000
,
0001
0001
1000
0000
,
0001
0100
0010
1000
0001
0100
0001
0000
,
1000
0000
0100
0000
,
1000
0100
0010
0001
1000
0100
0010
0000
,
0001
0000
1000
0000
,
0001
0100
0010
1000
0001
1000
0100
0000
,
1000
0101
1010
1001
,
0101
0001
0100
0010
,
1000
0000
0000
0001
0000
0000
0100
0000
,
0010
1000
0001
1000
,
0100
1000
0000
0001
0000
0100
0000
0001
,
1000
0001
0100
0010
,
1000
0000
0000
0001
0000
0000
0100
0000
,
0001
1000
0100
0010
,
0001
1000
0000
0001
0000
1000
0000
0010
,
0100
0000
0000
0001
0000
0000
1000
0000
,
0000
0000
1000
0001
,
0100
0001
1000
0100
,
0010
0000
0001
1000
0001
0000
1000
0000
,
0010
0100
0001
1000
,
0100
0000
0010
0100
0010
0000
0100
0000
,
1000
0001
0100
0010
,
1000
0000
0001
1000
0001
0000
0100
0000
,
0010
0000
1000
0000
1001
0110
1001
0110
,
0000
0000
1000
0000
0001
0000
1000
0001
,
1000
0000
0001
0000
1000
0000
0001
1000
,
0001
0000
0100
0010
0100
0010
0100
0000
,
0010
0000
0100
0000
0001
0000
1000
0100
,
1000
0000
0001
0010
0001
0010
0001
1000
,
0001
1000
0100
1000
0001
1000
0010
1000
,
0001
0100
0010
0100
0001
1000
0100
0010
,
0001
0010
0100
0000
0100
0000
0100
1001
,
0001
0100
0001
0000
0100
0000
0010
0000
,
1000
0100
0010
0000
,
0100
1000
0100
0000
1000
0000
0001
0000
,
0010
0001
1000
0010
,
0100
0001
0100
0000
0001
0000
1000
0000
,
0100
1000
0001
0010
,
0001
1000
0001
0000
0100
0000
0010
0000
,
1010
1001
1100
1001
,
0110
0000
0000
0000
;

//---------------dance-single - Renard----------------
#NOTES:
     dance-single:
     Renard:
     Easy:
     2:
     0.228,0.393,0.077,0.000,0.000: // measure 1
0000
0000
0000
0000
,  // measure 2
0000
0000
0000
0000
,  // measure 3
1000
0000
1000
0000
,  // measure 4
0001
0001
0001
0000
,  // measure 5
0001
0000
0001
0000
,  // measure 6
1000
1000
1000
0000
,  // measure 7
0010
0000
0010
0000
,  // measure 8
0100
0100
0100
0000
,  // measure 9
0100
0000
0100
0000
,  // measure 10
0010
0000
0000
0000
,  // measure 11
1000
0001
1000
0001
,  // measure 12
0100
0010
0100
0000
,  // measure 13
0001
1000
0001
1000
,  // measure 14
0010
0100
0010
0000
,  // measure 15
1000
0001
1000
0001
,  // measure 16
0100
0010
0100
0000
,  // measure 17
0001
1000
0001
1000
,  // measure 18
0110
1001
0110
1001
,  // measure 19
0110
0000
0000
0000
,  // measure 20
0010
0000
0000
0010
0000
0000
0010
0000
,  // measure 21
0000
0000
0000
0000
,  // measure 22
0100
0100
0100
0100
,  // measure 23
1001
0000
0000
0000
,  // measure 24
0100
0000
0000
0100
0000
0000
0100
0000
,  // measure 25
0100
0000
0000
0000
,  // measure 26
0010
1000
0001
0100
,  // measure 27
0001
0000
0000
1000
0000
0000
0001
0000
,  // measure 28
0000
0000
1000
1000
,  // measure 29
0000
0000
0001
0001
,  // measure 30
0000
0000
0100
0100
,  // measure 31
0000
0000
0000
0000
0010
0000
0000
0010
,  // measure 32
0000
0010
0100
0000
,  // measure 33
0000
0000
0001
0001
,  // measure 34
0000
0000
1000
0000
,  // measure 35
0000
0000
0000
0000
0100
0100
0100
0100
,  // measure 36
0000
0100
0100
1000
,  // measure 37
0000
0001
0000
0100
,  // measure 38
0000
0001
0001
0010
,  // measure 39
0000
0001
0000
1000
,  // measure 40
0000
0001
0000
1000
,  // measure 41
0000
0010
0000
0100
,  // measure 42
0000
0001
1000
0010
,  // measure 43
0100
0000
0001
0000
1000
0000
0001
1000
,  // measure 44
0001
1000
0001
1000
,  // measure 45
0010
0100
0010
0100
,  // measure 46
0001
1000
0001
1000
,  // measure 47
0010
0100
0010
0100
,  // measure 48
0001
1000
0001
1000
,  // measure 49
0010
0100
0010
0100
,  // measure 50
0010
1000
0001
0100
,  // measure 51
0001
1000
0001
0000
,  // measure 52
0110
0000
0000
0000
;
