#TITLE:Count of 3;
#SUBTITLE:;
#ARTIST:Ham;
#TITLETRANSLIT:;
#SUBTITLETRANSLIT:;
#ARTISTTRANSLIT:;
#CREDIT:;
#BANNER:count.png;
#BACKGROUND:count-bg.png;
#LYRICSPATH:;
#CDTITLE:;
#MUSIC:count.ogg;
#OFFSET:0.000;
#SAMPLESTART:24.324;
#SAMPLELENGTH:12.000;
#SELECTABLE:YES;
#BPMS:0.000=177.600,72.000=178.500,200.000=177.600,216.000=178.500;
#STOPS:;
#BGCHANGES:;

//---------------dance-single - Renard----------------
#NOTES:
     dance-single:
     Renard:
     Hard:
     9:
     0.586,0.633,0.305,0.029,0.205:
0000
0000
0000
0000
,
0000
0000
0000
0000
,
0000
0000
0000
0000
,
0000
0000
0000
0000
,
1000
1000
0001
0001
,
0010
0000
0010
0000
0000
0010
0100
1000
,
0001
0001
1000
1000
,
0001
0000
0001
0000
0000
1000
0010
0100
,
0001
0001
1000
1000
,
0001
0000
0001
0000
0000
0001
0010
0100
,
1000
1000
0001
0001
,
1000
0000
0010
0000
0000
1000
0010
0100
,
0001
0001
1000
1000
,
0001
0000
0001
0000
0000
0100
0010
0100
,
0010
0010
1000
1000
,
0001
0000
0001
0000
0000
1000
0001
0010
,
0200
0000
0000
0000
,
0300
0000
0000
0000
0000
1000
1000
1000
,
0001
0000
0010
0000
0001
0000
1000
0001
0000
0000
0100
0000
0010
0000
1000
0000
,
0100
0000
0010
0000
0001
0000
1000
0001
0000
0000
0100
0000
0010
0000
1000
0000
,
0100
0000
1000
0000
0001
0000
0010
0001
0000
0000
0010
0000
0100
0000
1000
0000
,
0001
0000
0100
0000
0010
0000
1000
0001
0000
0000
1000
0000
0010
0000
0100
0000
,
0001
0000
0010
0000
0100
0000
1000
0001
0000
0000
0100
0000
0001
0000
1000
0000
,
0010
0000
1000
0000
0100
0000
1000
0001
0000
0000
1000
0000
0001
0000
0010
0000
,
0100
0000
1000
0000
0010
0000
0100
0010
0000
0000
0100
0000
0010
0000
0100
0000
,
0001
0000
0010
0000
0100
0000
1000
0001
0000
0000
1000
0000
0001
0000
0100
0000
,
0010
0000
1000
0000
0010
0000
1000
0001
0000
1000
0001
0000
1000
0000
0100
0000
,
0010
0000
0001
0000
0010
0000
0100
1000
0000
0100
1000
0000
0001
0000
0010
0000
,
0100
0000
1000
0000
0001
0000
1000
0001
0000
1000
0001
0000
1000
0000
0001
0000
,
0100
0000
0010
0000
1000
0000
0001
1000
0000
0001
1000
0000
0001
0000
0010
0000
,
0100
0000
1000
0000
0001
0000
0100
0010
0000
0100
0010
0000
0100
0000
0010
0000
,
1000
0000
0100
0000
0010
0000
0001
0010
0000
0001
0010
0000
0100
0000
0010
0000
,
0001
0000
1000
0000
0001
0000
1000
0001
0000
1000
0001
0000
0100
0000
0010
0000
,
1000
0000
0100
0000
0010
0000
0001
0000
1000
0001
0000
1000
0001
0000
1000
0000
,
0001
0110
1000
0110
,
1001
0000
1001
0000
0000
0001
0010
0100
,
1000
0110
0001
0110
,
1001
0000
0110
0000
0000
0010
1000
0001
,
0100
0110
1000
0110
,
0001
0000
0110
0000
1000
0001
0010
0100
,
1000
1001
0110
1001
,
1100
0000
0011
0000
1000
1000
0001
0001
,
0100
0110
1001
0110
,
0010
0100
1000
0000
0001
0010
0100
1000
,
0001
0110
1001
1100
,
0011
0000
1100
0000
0001
0010
0100
1000
,
0001
0101
1100
0110
,
0010
0100
0001
0000
0001
1000
0100
0010
,
0001
0011
0110
1100
,
1000
0000
0001
0000
0000
0100
0010
0100
,
2002
0000
0000
0000
,
0000
0000
0000
0000
,
0000
0000
0000
0000
,
3003
0000
0000
0000
0000
0001
1000
0001
,
1000
0000
0000
0000
0001
0000
0000
0100
0000
0000
0010
0000
0100
0000
0010
0000
,
1000
0000
0000
0000
0100
0000
0000
0010
0000
0000
0001
0000
0010
0000
0100
0000
,
1000
0000
0000
0000
0001
0000
0000
0100
0000
0000
0001
0000
1000
0000
0100
0000
,
0010
0000
0000
0000
0001
0000
0000
0010
0000
0000
0100
0000
1000
0000
0010
0000
,
0100
0000
0000
0000
0001
0000
0000
0100
0000
0000
0001
0000
1000
0000
0100
0000
,
0010
0000
0000
0000
0001
0000
0000
0010
0000
0000
0100
0000
1000
0000
0010
0000
,
0100
0000
0000
0000
0001
0000
0000
0100
0000
0000
0010
0000
1000
0000
0100
0000
,
0010
0001
1000
0001
0100
0010
1000
0001
,
0100
0000
0010
0000
1000
0000
0001
1000
0000
0000
0100
0000
0010
0000
0001
0000
,
0010
0000
0100
0000
1000
0000
0001
1000
0000
0001
1000
0000
0001
0000
0100
0000
,
0010
0000
1000
0000
0100
0000
0010
0001
0000
0000
0010
0000
0100
0000
1000
0000
,
0001
0000
0010
0000
0100
0000
1000
0001
0000
1000
0001
0000
0100
0000
0010
0000
,
1000
0000
0100
0000
0010
0000
0001
1000
0000
0000
0001
0000
0100
0000
0010
0000
,
1000
0000
0100
0000
0010
0000
0100
0010
0000
0100
0010
0000
0100
0000
1000
0000
,
0010
0000
0100
0000
0001
0000
0100
0001
0000
0000
1000
0000
0100
0000
0010
0000
,
0001
0000
0001
0000
1000
0000
1000
0000
0001
1000
0000
0001
1000
0000
0001
0000
,
0110
0000
0000
0000
;

//---------------dance-single - Renard----------------
#NOTES:
     dance-single:
     Renard:
     Medium:
     5:
     0.379,0.433,0.019,0.029,0.000:
0000
0000
0000
0000
,
0000
0000
0000
0000
,
0000
0000
0000
0000
,
0000
0000
0000
0000
,
1000
1000
0001
0001
,
0010
0000
0010
0000
0000
0000
0100
1000
,
0001
0001
0100
0100
,
0001
0000
0001
0000
0000
0000
1000
0010
,
0100
0100
0001
0001
,
1000
0000
1000
0000
0000
0000
0001
1000
,
0001
0001
0100
0100
,
0001
0000
0001
0000
0000
0000
1000
0010
,
1000
1000
0001
0001
,
0010
0000
0010
0000
0000
0000
0100
1000
,
0001
0001
0100
0100
,
0001
0000
0001
0000
0000
0000
1000
0001
,
2000
0000
0000
0000
,
3001
0000
0000
0000
0000
0000
1000
0001
,
1000
1000
0001
0001
,
0100
0000
0100
0000
0010
0100
0010
0100
,
0010
0010
1000
1000
,
0001
0000
0001
0000
1000
0100
1000
0100
,
1000
1000
0001
0001
,
0010
0000
0010
0000
0001
1000
0001
1000
,
0001
0100
0001
1000
,
0100
0000
1000
0000
0001
0010
0001
0010
,
0001
0001
1000
1000
,
0001
0100
0010
1000
,
0001
0001
1000
1000
,
0100
0000
0010
0000
0001
0000
1000
0001
,
1000
0001
0100
0010
,
1000
0001
0100
0001
,
1000
0100
0010
0001
,
1000
0001
1000
0000
0001
0100
0001
0000
,
0100
0001
0100
0010
,
1000
0000
1000
0000
0000
0000
0001
1000
,
0001
1000
0100
0010
,
0001
0000
1000
0000
0000
0000
0001
0100
,
0010
1000
0001
1000
,
0100
0000
1000
0000
0000
0000
0001
0010
,
0100
0100
1000
0001
,
0010
0000
0010
0000
0000
0000
0001
1000
,
0001
0100
0001
1000
,
0010
0000
1000
0000
0000
0000
0001
1000
,
0001
0100
0010
1000
,
0001
0000
0100
0000
0000
0000
0001
1000
,
0001
0000
1000
0001
1000
0000
0001
1000
,
0001
0000
1000
0001
1000
0000
0001
1000
,
0001
0000
1000
0001
1000
0000
0001
1000
,
0001
1000
0001
1000
,
2002
0000
0000
0000
,
0000
0000
0000
0000
,
0000
0000
0000
0000
,
3003
0000
0000
0000
0000
0000
1000
0001
,
1000
0000
1000
0000
0001
1000
0001
1000
,
0001
0000
0001
0000
1000
0001
1000
0001
,
1000
0000
1000
0000
0001
1000
0001
1000
,
0001
1000
0001
0000
,
0100
0000
0010
0000
0100
0010
0100
0010
,
0100
0000
0010
0000
0100
0010
0100
0010
,
0100
0000
0010
0000
0100
0010
0100
0010
,
0100
0010
0100
0000
,
0001
1000
0001
1000
,
0010
0100
0000
0000
0010
0000
0000
0000
,
1000
0001
1000
0100
,
1000
0001
0000
0000
0010
0000
0000
0000
,
0001
1000
0010
0100
,
0001
1000
0000
0000
0001
0000
1000
0000
,
0001
0100
0010
1000
,
0001
0000
1000
0000
0010
0100
0001
0000
,
1001
0000
0000
0000
;

//---------------dance-single - Renard----------------
#NOTES:
     dance-single:
     Renard:
     Easy:
     2:
     0.224,0.333,0.019,0.019,0.000: // measure 1
0000
0000
0000
0000
,  // measure 2
0000
0000
0000
0000
,  // measure 3
0000
0000
0000
0000
,  // measure 4
0000
0000
0000
0000
,  // measure 5
0001
1000
0001
1000
,  // measure 6
0001
1000
0000
0000
,  // measure 7
0010
0100
0010
0100
,  // measure 8
0010
0100
0000
0000
,  // measure 9
0001
0100
0001
0100
,  // measure 10
0001
0100
0000
0000
,  // measure 11
0010
1000
0010
1000
,  // measure 12
0010
1000
0000
0000
,  // measure 13
0001
0000
0000
0000
,  // measure 14
1000
0000
0000
0000
,  // measure 15
0020
0000
0000
0000
,  // measure 16
0000
0000
0000
0000
,  // measure 17
0200
0000
0000
0000
,  // measure 18
0330
0000
0000
0000
,  // measure 19
0010
0000
0010
0010
,  // measure 20
0100
0000
0100
0100
,  // measure 21
0001
0000
0001
0001
,  // measure 22
1000
0000
0001
0000
,  // measure 23
1000
0000
1000
1000
,  // measure 24
0001
0000
0001
0001
,  // measure 25
1000
0000
0001
0000
,  // measure 26
1000
0000
0001
0000
,  // measure 27
0100
0000
0010
0000
,  // measure 28
0100
0000
0010
0100
,  // measure 29
0001
0000
1000
0000
,  // measure 30
0001
0000
1000
0000
,  // measure 31
0001
0000
1000
0000
,  // measure 32
0010
0000
0100
0000
,  // measure 33
0001
0000
1000
0000
,  // measure 34
0010
0100
0010
0100
,  // measure 35
0010
0010
0100
0100
,  // measure 36
0010
0010
0000
0000
,  // measure 37
1000
1000
0001
0001
,  // measure 38
1000
1000
0000
0000
,  // measure 39
0001
0001
0100
0100
,  // measure 40
0001
0001
0000
0000
,  // measure 41
1000
1000
0010
0010
,  // measure 42
1000
1000
0000
0000
,  // measure 43
0001
1000
0001
1000
,  // measure 44
0001
1000
0000
0000
,  // measure 45
0010
0100
0010
0100
,  // measure 46
0010
0100
0000
0000
,  // measure 47
0001
1000
0001
1000
,  // measure 48
0001
1000
0000
0000
,  // measure 49
0010
0100
0010
0100
,  // measure 50
0010
0100
0001
1000
,  // measure 51
1001
0000
0000
0000
,  // measure 52
0000
0000
0000
0000
,  // measure 53
0000
0000
0000
0000
,  // measure 54
0000
0000
0000
1000
,  // measure 55
0001
0000
0001
0000
,  // measure 56
0001
0000
0001
0001
,  // measure 57
1000
0000
1000
0000
,  // measure 58
1000
0000
1000
1000
,  // measure 59
0010
0000
0010
0000
,  // measure 60
0010
0000
0010
0010
,  // measure 61
0100
0000
0100
0000
,  // measure 62
0100
0000
0100
0100
,  // measure 63
0001
0000
1000
0000
,  // measure 64
0001
1000
0001
0000
,  // measure 65
0100
0000
0010
0000
,  // measure 66
0100
0000
0010
0100
,  // measure 67
0001
0000
1000
0000
,  // measure 68
0001
0000
1000
0001
,  // measure 69
1000
0000
0001
0000
,  // measure 70
0100
0000
0010
1000
,  // measure 71
1001
0000
0000
0000
;
