#TITLE:Control Factor;
#SUBTITLE:;
#ARTIST:Tsu Ryu;
#TITLETRANSLIT:;
#SUBTITLETRANSLIT:;
#ARTISTTRANSLIT:;
#CREDIT:;
#BANNER:factor.png;
#BACKGROUND:factor-bg.png;
#LYRICSPATH:;
#CDTITLE:;
#MUSIC:factor.ogg;
#OFFSET:0.000;
#SAMPLESTART:3.051;
#SAMPLELENGTH:12.000;
#SELECTABLE:YES;
#BPMS:0.000=155.275;
#STOPS:;
#BGCHANGES:;

//---------------dance-single - Renard----------------
#NOTES:
     dance-single:
     Renard:
     Challenge:
     10:
     0.868,0.873,0.227,0.000,1.000:
0000
0000
0000
0000
,
0000
0000
0000
0000
,
0001
1000
0100
0000
1000
0001
0000
0100
0000
0001
1000
0100
0010
0001
0010
0100
,
1000
0001
0100
0000
0001
1000
0000
0100
0000
1000
0001
0010
0100
1000
0001
0100
,
0010
1000
0001
0000
1000
0100
0000
1000
0000
0001
0010
0100
1000
0001
0100
0010
,
1000
0100
1000
0000
0001
0010
0000
0001
0000
1000
0010
1000
0001
1000
0100
1000
,
0001
0000
1000
0000
0100
0000
1000
0000
0001
0000
0010
0001
0000
1000
0010
0000
,
1000
0000
0001
0000
0100
0000
0010
0000
1000
0000
0100
1000
0000
0001
0010
0000
,
0001
1000
0001
0000
0100
0000
0010
0000
1000
0000
0100
0000
1000
0000
0001
0000
,
0100
0000
0001
0000
1000
0000
0100
0000
1100
0000
0000
1001
0000
0000
1010
0000
,
1000
0100
0010
0001
1000
0001
0100
0001
,
1000
0000
0100
0000
1000
0000
0001
0000
0100
0000
0100
0001
0000
0000
1000
0000
,
0100
1000
0001
0000
1000
0000
0010
0000
1000
0000
0100
0000
1000
0000
0001
0000
,
0010
0001
0010
0000
0001
0000
1000
0000
0010
0000
1000
0000
0001
0000
0100
0000
,
0001
0000
0000
1000
0000
0000
0100
0000
0010
0000
0000
0000
0110
0000
0000
0000
,
0100
0000
0000
1000
0000
0000
0010
0000
0100
0000
0000
0000
0110
0000
0000
0000
,
0010
0000
0000
1000
0000
0000
0100
0000
0010
0000
0000
0000
0110
0000
0000
0000
,
0010
0001
0010
0100
1000
0001
0100
0001
,
1000
0000
0000
0100
0000
0000
1000
0000
1100
0000
0000
0000
1001
0000
0000
0000
,
1000
0000
0000
0001
0000
0000
0100
0000
0101
0000
0000
0000
1001
0000
0000
0000
,
1000
0000
0000
0100
0000
0000
0010
0000
0001
0000
0000
0000
0011
0000
0000
0000
,
0100
0000
1000
0000
0010
0000
0100
0000
0001
1000
0000
0001
0000
0100
0001
0100
,
0001
0000
1000
0000
0100
1000
0000
0001
0000
0010
0100
1000
0001
0100
0010
1000
,
0100
0000
1000
0000
0001
0010
0000
0001
0000
1000
0010
0100
0001
1000
0100
0010
,
0001
0000
0010
0000
0100
1000
0000
0001
0000
0100
0010
1000
0100
0010
0001
0010
,
0100
0000
0000
1000
0000
0000
0010
0000
0100
0000
0001
0000
0100
0001
0000
0000
,
1000
0000
0100
0000
0010
0001
0000
0010
0000
0100
1000
0001
0100
0010
1000
0100
,
0010
0000
0001
0000
0010
0100
0000
1000
0000
0001
0100
0010
1000
0100
1000
0001
,
0010
0000
0001
0000
1000
0010
0000
1000
0000
0001
0100
0001
1000
0100
1000
0001
,
1000
0000
0000
0001
0000
0000
0100
0000
0010
0000
1000
0000
1000
0001
0000
0000
,
1000
0001
0010
0000
0001
1000
0000
0010
0000
1000
0001
0010
0100
1000
0100
0010
,
0001
1000
0010
0000
1000
0001
0000
0010
0000
0001
1000
0100
0010
0001
1000
0010
,
0100
0001
1000
0000
0001
0010
0000
0001
0000
1000
0100
0010
0001
1000
0010
0100
,
0001
0010
0001
0000
1000
0100
0000
1000
0000
0001
0100
0001
1000
0001
0010
0001
,
1000
0000
0001
0000
0010
0000
0001
0000
1000
0000
0100
1000
0000
0001
0100
0000
,
0001
0000
1000
0000
0010
0000
0100
0000
0001
0000
0010
0001
0000
1000
0100
0000
,
1000
0001
1000
0000
0010
0000
0100
0000
0001
0000
0010
0000
0001
0000
1000
0000
,
0010
0000
1000
0000
0001
0000
0010
0000
0011
0000
0000
1001
0000
0000
0101
0000
,
0001
0010
0100
1000
0001
1000
0010
1000
,
0001
0000
0010
0000
0001
0000
1000
0000
0010
0000
0010
1000
0000
0000
0001
0000
,
0010
0001
1000
0000
0001
0000
0100
0000
0001
0000
0010
0000
0001
0000
1000
0000
,
0100
1000
0100
0000
1000
0000
0001
0000
0100
0000
0001
0000
1000
0000
0010
0000
,
1000
0000
0000
0001
0000
0000
0010
0000
0100
0000
0000
0000
0110
0000
0000
0000
,
0010
0000
0000
0001
0000
0000
0100
0000
0010
0000
0000
0000
0110
0000
0000
0000
,
0100
0000
0000
0001
0000
0000
0010
0000
0100
0000
0000
0000
0110
0000
0000
0000
,
0100
1000
0100
0010
0001
1000
0010
1000
,
0001
0000
0000
0010
0000
0000
0001
0000
0011
0000
0000
0000
1001
0000
0000
0000
,
0001
0000
0000
1000
0000
0000
0010
0000
1010
0000
0000
0000
1001
0000
0000
0000
,
0001
0000
0000
0010
0000
0000
0100
0000
1000
0000
0000
0000
1100
0000
0000
0000
,
0010
0000
0001
0000
0100
0000
0010
0000
1000
0001
0000
1000
0000
0010
1000
0010
,
1000
0000
0001
0000
0010
0001
0000
1000
0000
0100
0010
0001
1000
0010
0100
0001
,
0010
0000
0001
0000
1000
0100
0000
1000
0000
0001
0100
0010
1000
0001
0010
0100
,
1000
0000
0100
0000
0010
0001
0000
1000
0000
0010
0100
0001
0010
0100
1000
0100
,
0010
0000
0000
0001
0000
0000
0100
0000
0010
0000
1000
0000
0010
1000
0000
0000
,
0001
0000
0010
0000
0100
1000
0000
0100
0000
0010
0001
1000
0010
0100
0001
0010
,
0100
0000
1000
0000
0100
0010
0000
0001
0000
1000
0010
0100
0001
0010
0001
1000
,
0100
0000
1000
0000
0001
0100
0000
0001
0000
1000
0010
1000
0001
0010
0001
1000
,
0001
0000
0000
1000
0000
0000
0010
0000
0100
0000
0001
0000
1000
0001
0000
0000
,
1000
0100
0010
0000
0001
0010
0000
0100
0000
1000
0001
0100
0010
1000
0100
1000
,
0001
0010
0001
0000
1000
0010
0000
1000
0000
0001
0100
0010
1000
0100
1000
0001
,
0010
0001
1000
0000
0010
1000
0000
0001
0000
1000
0001
1000
0100
1000
0001
0010
,
0001
1000
0001
0000
1000
0010
0000
1000
0000
0001
0100
0001
1000
0100
1000
0000
,
0001
0010
0001
0000
1000
0100
0000
1000
0000
0010
0000
0100
0001
0000
0000
0000
;

//---------------dance-single - Renard----------------
#NOTES:
     dance-single:
     Renard:
     Hard:
     8:
     0.580,0.550,0.165,0.000,0.288:
0000
0000
0000
0000
,
0000
0000
0000
0000
,
1000
0001
1000
0000
0001
0000
0001
0000
,
0001
1000
0001
0000
1000
0000
1000
0000
,
0010
0100
0010
0000
0100
0000
0100
0000
,
0010
0100
0010
0000
0100
0000
0010
0000
,
1000
0000
1001
0000
0001
0100
0010
1000
,
0100
0000
1100
0000
0010
0001
1000
0001
,
0100
0101
0001
1100
,
1000
0000
0001
0000
0100
0000
0010
0000
1000
0000
0000
1000
0000
0000
1000
0000
,
0010
0100
0001
0010
0100
1000
0001
0100
,
0010
0000
0000
0000
0010
0000
0000
0000
1000
0000
0000
0100
0000
0000
1000
0000
,
0001
1000
0001
0100
0010
1000
0001
0000
,
0100
0001
0100
0000
0000
0000
0000
0000
0010
1000
0010
0000
0000
0000
0000
0000
,
1000
0000
0000
0001
0000
0000
0100
0000
0001
0000
0000
0000
1000
0000
0000
0000
,
0001
0000
0000
1000
0000
0000
0100
0000
0010
0000
0000
0000
0011
0000
0000
0000
,
0010
0000
0000
0100
0000
0000
1000
0000
0010
0000
0000
0000
0101
0000
0000
0000
,
1010
0000
1000
0000
0100
0010
0001
0010
,
0100
0000
0000
1000
0000
0000
0001
0000
0100
0000
0000
0000
0110
0000
0000
0000
,
0010
0000
0000
1000
0000
0000
0001
0000
0100
0000
0000
0000
0001
0000
0000
0000
,
1000
0000
0000
0100
0000
0000
0010
0000
0001
0000
0000
0000
1000
0000
0000
0000
,
0001
0000
0100
0000
0010
1000
0010
1000
,
0001
0000
0100
0000
0001
0100
0000
0001
0000
0000
1000
0000
0100
0000
0010
0000
,
0001
0000
1000
0000
0100
1000
0000
0100
0000
0000
1000
0000
0001
0000
0010
0000
,
0001
0000
1000
0000
0001
1000
0000
0001
0000
0000
0100
0000
0001
0000
1000
0000
,
0001
0000
0000
1000
0000
0000
0001
0000
0100
0000
0010
0000
0100
0010
0000
0000
,
1000
0000
0001
0000
1000
0001
0000
1000
0000
0000
0001
0000
0100
0000
0010
0000
,
1000
0000
0001
0000
0100
0001
0000
1000
0000
0000
0100
0000
0010
0000
0001
0000
,
0010
0000
0100
0000
1000
0001
0000
0010
0000
0000
0001
0000
1000
0000
0010
0000
,
0100
0000
0000
0100
0000
0000
0100
0000
0001
0000
1000
0000
0001
1000
0000
0000
,
0001
1000
0001
0000
1000
0000
1000
0000
,
1000
0001
1000
0000
0001
0000
0001
0000
,
0100
0010
0100
0000
0010
0000
0010
0000
,
0100
0010
0100
0000
0010
0000
0100
0000
,
0001
0000
1001
0000
1000
0010
0100
0001
,
0010
0000
0011
0000
0100
1000
0001
1000
,
0010
1010
1000
0011
,
0001
0000
1000
0000
0010
0000
0100
0000
0001
0000
0000
0001
0000
0000
0001
0000
,
0100
0010
1000
0100
0010
0001
1000
0010
,
0100
0000
0000
0000
0100
0000
0000
0000
0001
0000
0000
0010
0000
0000
0001
0000
,
1000
0001
1000
0010
0100
0001
1000
0000
,
0010
1000
0010
0000
0000
0000
0000
0000
0100
0001
0100
0000
0000
0000
0000
0000
,
0001
0000
0000
1000
0000
0000
0010
0000
1000
0000
0000
0000
0001
0000
0000
0000
,
1000
0000
0000
0001
0000
0000
0010
0000
0100
0000
0000
0000
1100
0000
0000
0000
,
0100
0000
0000
0010
0000
0000
0001
0000
0100
0000
0000
0000
1010
0000
0000
0000
,
0101
0000
0001
0000
0010
0100
1000
0100
,
0010
0000
0000
0001
0000
0000
1000
0000
0010
0000
0000
0000
0110
0000
0000
0000
,
0100
0000
0000
0001
0000
0000
1000
0000
0010
0000
0000
0000
1000
0000
0000
0000
,
0001
0000
0000
0010
0000
0000
0100
0000
1000
0000
0000
0000
0001
0000
0000
0000
,
1000
0000
0010
0000
0100
0001
0100
0001
,
1000
0000
0010
0000
1000
0010
0000
1000
0000
0000
0001
0000
0010
0000
0100
0000
,
1000
0000
0001
0000
0010
0001
0000
0010
0000
0000
0001
0000
1000
0000
0100
0000
,
1000
0000
0001
0000
1000
0001
0000
1000
0000
0000
0010
0000
1000
0000
0001
0000
,
1000
0000
0000
0001
0000
0000
1000
0000
0010
0000
0100
0000
0010
0100
0000
0000
,
0001
0000
1000
0000
0001
1000
0000
0001
0000
0000
1000
0000
0010
0000
0100
0000
,
0001
0000
1000
0000
0010
1000
0000
0001
0000
0000
0010
0000
0100
0000
1000
0000
,
0100
0000
0010
0000
0001
1000
0000
0100
0000
0000
1000
0000
0001
0000
0100
0000
,
0010
0000
0000
0010
0000
0000
0010
0000
1000
0000
0001
0000
1000
0001
0000
0000
,
1000
0001
0100
0010
1000
0000
1000
0000
,
0001
0100
0010
1000
0001
0000
0001
0000
,
1000
0100
0010
0001
1000
0000
1000
0000
,
0001
0010
0100
1000
0001
0000
0001
0000
,
0100
0000
0010
0000
1000
0001
0000
1000
0000
0001
0000
1000
0001
0000
0000
0000
;

//---------------dance-single - Renard----------------
#NOTES:
     dance-single:
     Renard:
     Medium:
     5:
     0.384,0.420,0.031,0.000,0.000:
0000
0000
0000
0000
,
0000
0000
0000
0000
,
1000
1000
1000
1000
,
0001
0001
0001
0000
,
0100
0100
0100
0100
,
0010
0010
0010
0000
,
1000
0000
0001
0100
,
0001
0000
1000
0100
,
0010
0001
0010
0000
0100
0000
1000
0000
,
0001
1000
0010
1010
,
1000
0001
0100
0001
,
1000
0100
0010
0001
,
1000
0001
1000
0000
0001
0100
0001
0000
,
0100
0010
0100
0000
0010
1000
0010
0000
,
1000
0100
0010
0000
,
0001
0010
0100
0000
,
1000
0001
0100
0010
,
1000
0001
0100
0001
,
1000
0100
0010
0001
,
0010
0100
1000
0001
,
0100
0010
1000
0001
,
0100
0100
0100
0100
,
0010
0000
0100
0000
0010
0100
0010
0100
,
0010
0000
0010
0000
1000
0000
0001
1000
,
0001
0000
1000
0000
0001
0000
0100
0001
,
0100
0001
1000
1000
,
0001
0000
1000
0000
0100
0000
1000
0001
,
1000
0000
0001
0000
0100
0000
0010
0100
,
0010
0000
1000
0000
0001
0000
0100
0001
,
0100
0001
1000
0100
,
1000
1000
0001
0001
,
0100
0100
0010
0010
,
1000
0100
0010
0001
,
1000
1000
0001
0001
,
0100
0000
0100
0100
,
0010
0000
0010
1000
,
0001
1000
0001
0000
1000
0000
0001
0000
,
0100
0010
0110
0110
,
0010
1000
0001
1000
,
0100
0010
0001
1000
,
0001
1000
0001
0000
0100
0010
0100
0000
,
0010
1000
0010
0000
0100
0001
0100
0000
,
0001
0000
0001
1000
,
0100
0000
0100
0010
,
0001
0000
0001
1000
,
0010
0010
0100
0100
,
0001
1000
0100
0000
,
0010
0001
1000
0000
,
0010
0100
0001
1000
,
0001
0100
0001
1000
,
0100
0000
1000
0000
0001
0010
0100
1000
,
0001
0000
0010
0000
0100
1000
0001
0010
,
0100
0000
1000
0000
0001
0010
0100
1000
,
0001
0001
1000
0000
,
0001
0000
0010
0000
0100
0000
1000
0001
,
0010
0000
0100
0000
1000
0000
0001
0010
,
0100
0000
1000
0000
0001
0000
0010
0100
,
1000
0001
0100
0010
,
1000
1000
0001
0001
,
0100
0100
0010
0010
,
1000
0001
0100
0010
,
1000
0000
0010
0000
0100
0000
0001
1000
,
0100
0000
0010
0000
0001
0001
0010
0000
;

//---------------dance-single - Renard----------------
#NOTES:
     dance-single:
     Renard:
     Easy:
     2:
     0.231,0.259,0.031,0.000,0.000: // measure 1
0000
0000
0000
0000
,  // measure 2
0000
0000
0000
0000
,  // measure 3
1000
0001
1000
0001
,  // measure 4
1000
0001
1000
0000
,  // measure 5
0010
0100
0010
0100
,  // measure 6
0010
0100
0010
0000
,  // measure 7
1000
0000
1000
0000
,  // measure 8
0001
0000
0001
0000
,  // measure 9
0100
0000
0000
0100
,  // measure 10
0010
0000
1000
0000
,  // measure 11
0001
0000
0001
0000
,  // measure 12
1000
0000
1000
0000
,  // measure 13
0001
0000
0000
1000
,  // measure 14
0001
0000
1000
0000
,  // measure 15
0001
0000
0100
0010
,  // measure 16
0100
0000
0010
0100
,  // measure 17
0010
0000
0100
0010
,  // measure 18
0100
0000
0001
0000
,  // measure 19
1000
0000
0001
1000
,  // measure 20
0001
0000
1000
0001
,  // measure 21
1000
0000
0001
1000
,  // measure 22
0001
0000
1000
0000
,  // measure 23
0001
0001
0001
0000
,  // measure 24
1000
1000
1000
0000
,  // measure 25
0010
0010
0010
0000
,  // measure 26
0100
0000
0100
0000
,  // measure 27
0001
0000
1000
1000
,  // measure 28
0001
0000
0001
0001
,  // measure 29
0010
0000
0010
0100
,  // measure 30
1000
0000
0001
0000
,  // measure 31
0100
0000
0100
0000
,  // measure 32
0010
0000
0010
0000
,  // measure 33
0100
0000
0100
0000
,  // measure 34
0010
0000
0010
0000
,  // measure 35
0100
0000
0100
0001
,  // measure 36
1000
0000
0100
0010
,  // measure 37
0001
0000
0001
1000
,  // measure 38
0001
0000
1001
0000
,  // measure 39
1000
0000
0000
0000
,  // measure 40
0001
0000
1000
0000
,  // measure 41
0001
0000
0000
0100
,  // measure 42
0010
0000
1001
0000
,  // measure 43
0010
0000
0010
0100
,  // measure 44
0001
0000
0001
1000
,  // measure 45
0100
0000
0100
0010
,  // measure 46
0001
0000
1000
0000
,  // measure 47
0001
0000
0010
0001
,  // measure 48
1000
0000
0001
0100
,  // measure 49
0010
0000
1000
0010
,  // measure 50
0100
0000
0100
0000
,  // measure 51
0010
0000
0010
0000
,  // measure 52
0010
0000
0010
0000
,  // measure 53
0010
0000
0010
0000
,  // measure 54
0100
0001
1000
0100
,  // measure 55
0010
0000
0010
0000
,  // measure 56
0010
0000
0010
0000
,  // measure 57
0010
0000
0010
0000
,  // measure 58
0001
0010
0100
1000
,  // measure 59
0010
0000
0010
0000
,  // measure 60
0100
0000
0100
0000
,  // measure 61
0010
0000
0010
0000
,  // measure 62
0100
0000
0100
0000
,  // measure 63
0010
0100
0010
1001
;
