#TITLE:Continue;
#SUBTITLE:;
#ARTIST:Kitsune²;
#TITLETRANSLIT:;
#SUBTITLETRANSLIT:;
#ARTISTTRANSLIT:;
#CREDIT:;
#BANNER:continue.png;
#BACKGROUND:continue-bg.png;
#LYRICSPATH:;
#CDTITLE:;
#MUSIC:cont.ogg;
#OFFSET:0.000;
#SAMPLESTART:61.110;
#SAMPLELENGTH:12.000;
#SELECTABLE:YES;
#BPMS:0.000=155.000;
#STOPS:;
#BGCHANGES:;

//---------------dance-single - Renard----------------
#NOTES:
     dance-single:
     Renard:
     Hard:
     8:
     0.612,0.533,0.374,0.045,0.108:
0000
0000
0000
0000
,
0000
0000
0000
0000
,
0000
0000
0000
0000
,
0000
0000
0000
0000
,
1000
1000
0001
0001
1000
1000
0001
1000
,
0001
0001
1000
1000
0001
0001
1000
1000
,
0010
0010
0100
0100
0010
0010
0100
0010
,
0100
0100
0010
0010
0100
0010
0110
0000
,
0010
0000
1000
0000
0100
0010
0000
0000
0010
0000
0001
0000
0010
0000
0100
0000
,
1000
0001
0010
0100
1000
0001
0010
0000
,
0100
0000
0010
0000
0001
0100
0000
0000
0010
0000
1000
0000
0010
0000
0100
0000
,
0001
1000
0010
0100
0001
1000
0010
0000
,
1000
0000
0100
0000
0010
0001
0000
0000
1000
0000
0100
0000
1000
0000
0001
0000
,
0100
0010
1000
0001
0100
0010
1000
0001
,
0100
0000
0000
0000
0010
1000
0000
0000
0001
0000
0100
0000
0010
0000
1000
0000
,
0100
0010
0001
1000
0001
0010
0100
1000
,
0001
0000
0000
0000
1000
0001
0000
0000
0100
0010
0000
0000
1000
0000
0100
0000
,
0010
0000
0001
0000
0010
0100
0000
0000
1000
0100
0000
0000
1000
0000
0001
0000
,
0100
0000
0010
0000
1000
0010
0000
0000
0100
0001
0000
0000
0010
0000
0100
0000
,
1000
0000
0001
0000
1000
0010
0000
0000
0100
0001
0000
0000
1000
0000
0100
0000
,
0010
0000
0001
0000
0010
0100
0000
0000
1000
0100
0000
0000
1000
0000
0001
0000
,
0100
0000
0010
0000
1000
0010
0000
0000
0100
0001
0000
0000
0010
0000
0100
0000
,
1000
0000
0001
0000
0010
0001
0000
0000
1000
0100
0000
0000
1000
0000
0010
0000
,
0100
0001
0100
0010
1000
0001
0100
0010
,
1000
0000
0010
0100
0001
0010
0100
0010
,
0000
0010
0100
1000
0010
0100
0001
0100
,
0000
0100
0010
1000
0100
0010
0001
1000
,
0000
0001
0100
1000
0100
0001
0100
0000
,
0001
0100
0010
1000
0100
0010
0001
1000
,
0000
1000
0001
0010
0100
1000
0010
0100
,
0000
0100
0001
0100
0010
1000
0001
1000
,
0000
1000
0001
0100
0010
0100
0110
0000
,
0010
1000
0100
0010
0001
1000
0001
0100
,
0000
0100
0010
1000
0100
0010
0001
0010
,
0000
0010
0100
1000
0010
0100
0001
0100
,
0000
0001
1000
0001
0100
1000
0100
0000
,
0100
0001
0010
0100
1000
0001
1000
0001
,
0000
0001
1000
0010
0100
0001
1000
0100
,
0000
0100
1000
0010
0100
0001
1000
0001
,
0000
0100
0010
1000
0001
1000
1001
0000
,
1001
0000
1000
0010
1010
0000
0010
0100
,
0000
0100
0001
0000
0011
0000
0110
0000
,
1100
0000
1000
0001
0000
0101
0000
1010
,
0000
1001
0000
1000
0100
0010
0001
1000
,
0001
0000
1000
0001
1001
0000
0001
0100
,
0000
0100
0010
0000
1010
0000
1001
0000
,
1100
0000
0001
0010
0000
0110
0000
1100
,
0000
2000
0002
0000
0000
0000
0000
0000
0000
0000
0000
3003
0000
0000
0000
0000
,
1001
0000
0100
0010
0110
0000
0010
1000
,
0000
0001
0100
0000
0101
0000
1001
0000
,
1100
0000
0001
0010
0000
1100
0000
0011
,
0000
1001
0000
0001
0100
0010
1000
0001
,
0101
0000
0001
0100
0110
0000
0010
1000
,
0000
0100
1000
0000
1100
0000
0011
0000
,
1001
0000
0001
0100
0000
0110
0000
1010
,
0000
0202
0000
0303
0000
0000
0000
0000
;

//---------------dance-single - Renard----------------
#NOTES:
     dance-single:
     Renard:
     Challenge:
     11:
     0.955,1.000,0.023,0.023,1.000:
0000
0000
0000
0000
,
0000
0000
0000
0000
,
0000
0000
0000
0000
,
0000
0000
0000
0000
,
0001
0000
0100
0010
1000
0000
0010
0100
0000
0001
0100
0010
1000
0000
0100
0000
,
0010
0000
0001
0010
0100
0000
1000
0100
0000
0010
0001
1000
0001
0000
0100
0000
,
0010
0000
1000
0010
0100
0000
0001
0100
0000
0010
1000
0001
0100
0000
0010
0000
,
1000
0000
0100
0010
0001
0000
0010
0100
0000
1000
0001
0100
0010
1000
0001
0000
,
0100
0000
0001
0000
0100
0000
0010
1000
0010
0000
0100
0001
0010
0000
0100
0000
,
1000
0000
0001
0010
0100
0000
1000
0000
0001
0000
1000
0010
0100
0000
0001
0000
,
0100
0000
0010
1000
0001
0000
0010
0100
1000
0000
0001
0000
1000
0000
0010
0000
,
0100
0000
0001
1000
0100
0000
1000
0001
0010
0000
0001
0000
1000
0010
0100
0001
,
1000
0000
0100
0000
0010
0000
0001
0010
0100
0000
1000
0000
0001
0000
0010
0000
,
0000
0000
0100
1000
0010
0000
1000
0000
0001
0000
0100
0000
0010
0000
0000
0000
,
1000
0000
0010
0100
0001
0000
0010
0100
1000
0000
0001
0000
1000
0000
0010
1000
,
0010
0000
0000
0000
1000
0000
0010
0100
0001
0000
0010
0000
0100
0000
1000
0000
,
0001
0000
0000
0000
0010
0100
1000
0000
0010
0000
0100
0000
0001
0000
0100
0010
,
1000
0000
0010
0000
0100
0000
0001
0000
0010
0000
0100
1000
0001
0000
0000
0000
,
1000
0000
0010
0100
0001
0000
0100
0010
1000
0000
0010
0000
0100
0000
0001
0000
,
0010
0000
0100
1000
0001
0000
0010
0000
0100
0000
1000
0001
0100
0000
0001
0000
,
1000
0000
0010
0100
0010
0000
0100
0000
0001
0000
0100
0010
1000
0000
0010
0000
,
0000
0000
0100
0001
0100
0000
0010
0000
1000
0000
0100
0010
0001
0000
0010
0000
,
0100
0000
1000
0100
0010
0000
0001
0010
0100
0000
1000
0000
0001
0000
1000
0000
,
0010
0000
0100
0001
0100
0000
0010
1000
0010
0000
0100
0001
0100
0000
0010
0000
,
1000
0000
0010
0100
0001
0000
0010
0100
1000
0000
0100
0000
0010
0000
0001
0000
,
0010
0000
0100
1000
0100
0000
0010
0001
0010
0000
0001
0010
0100
0000
1000
0000
,
0001
0000
0100
0010
1000
0000
0010
0100
0010
0000
0100
0001
0100
0000
0010
0000
,
1000
0000
0001
0100
0010
1000
0100
0010
0001
0010
0100
1000
0001
0010
0100
1000
,
0001
0000
1000
0000
0010
0000
0100
0001
0100
0000
0010
0000
1000
0000
0010
0000
,
0000
0000
0100
0001
0100
0000
0010
0000
1000
0000
0010
0000
0100
0000
0001
1000
,
0001
0000
1000
0000
0100
0000
0010
0100
0010
0000
0100
0000
0010
0000
0001
0010
,
0001
0000
1000
0100
1000
0000
0001
1000
0001
1000
0010
0100
0001
0000
1000
0000
,
0010
0000
0100
0001
0100
0000
0010
1000
0010
0000
0100
0000
0001
0000
0100
0000
,
0000
0000
0010
1000
0100
0000
0010
0001
0010
0000
0100
0000
1000
0000
0001
0000
,
0000
0000
1000
0010
0100
0000
0001
0100
0010
0000
1000
0100
0010
0000
0001
0000
,
0010
0000
0100
0000
1000
0000
0001
0010
0100
1000
0001
0010
0100
1000
0001
0010
,
0100
0000
1000
0010
0100
0000
0001
1000
0010
0000
0100
0000
0010
0000
0100
0000
,
0000
0000
0001
0100
0010
0000
1000
0010
0100
0000
0001
0000
0010
0000
0100
0000
,
1000
0000
0001
0010
0100
0000
1000
0100
0010
0000
0001
0010
0100
0000
1000
0000
,
0010
0000
1000
0000
0001
0000
0100
0010
1000
0000
0010
0000
0100
0000
0001
0000
,
0100
0010
1000
0100
0010
0001
0010
0100
1000
0010
0100
0001
0010
0100
1000
0100
,
0010
0001
0010
0100
1000
0001
0100
0010
1000
0001
0100
0010
1000
0000
0000
0000
,
0010
0100
0001
0010
0100
1000
0001
0010
0100
0010
0001
0010
0100
1000
0001
1000
,
0010
0100
0001
1000
0010
0100
0001
1000
0100
0010
0001
0010
0100
0000
0000
0000
,
1000
0001
0100
0010
1000
0010
0100
0001
0010
0100
1000
0001
0010
0100
0010
0001
,
1000
0010
0100
0001
0100
0010
1000
0100
0010
0001
1000
0010
0100
0001
0010
0001
,
0010
0100
1000
0001
0100
0010
1000
0010
0100
0010
1000
0001
0010
0100
1000
0001
,
0100
0001
1000
0100
0010
0000
0000
0000
0100
1000
0001
0000
1000
0000
0000
0000
,
0010
0100
0001
0010
0100
1000
0100
0010
0001
0100
0010
1000
0100
0010
0001
0010
,
0100
1000
0100
0010
0001
1000
0010
0100
0001
1000
0010
0100
0001
0000
0000
0000
,
0100
0010
1000
0100
0010
0001
1000
0100
0010
0100
1000
0100
0010
0001
1000
0001
,
0100
0010
1000
0001
0100
0010
1000
0001
0010
0100
1000
0100
0010
0000
0000
0000
,
0001
1000
0010
0100
0001
0100
0010
1000
0100
0010
0001
1000
0100
0010
0100
1000
,
0001
0100
0010
1000
0010
0100
0001
0010
0100
1000
0001
0100
0010
1000
0100
1000
,
0001
0100
0001
0000
0101
0000
1000
0010
1000
0000
1010
0000
0001
0100
0010
0000
,
1000
0020
0200
0000
0000
0000
0000
0000
0330
0000
0000
0000
0000
0000
0000
0000
;

//---------------dance-single - Renard----------------
#NOTES:
     dance-single:
     Renard:
     Medium:
     5:
     0.288,0.344,0.011,0.023,0.000:
0000
0000
0000
0000
,
0000
0000
0000
0000
,
0000
0000
0000
0000
,
0000
0000
0000
0000
,
1000
0000
0001
0000
1000
0000
0001
1000
,
0001
2000
3001
0000
,
0100
0000
0010
0000
0100
0000
0010
0100
,
0020
0000
0130
0000
,
0010
0000
1000
0000
0001
0000
0000
1000
,
0000
0100
0000
0000
0000
0000
0000
0000
,
0010
0000
0001
0000
1000
0000
0000
0001
,
0000
0000
0000
0000
,
1000
0000
0001
0000
0100
0000
0000
0010
,
0000
1000
0000
0000
0000
0000
0000
0000
,
0001
0000
0100
0000
0001
0000
0000
1000
,
0000
0000
0100
1000
,
0001
0000
0010
0000
0001
0000
0000
1000
,
0000
0001
0000
0000
0000
0000
0000
0000
,
1000
0000
0001
0000
0100
0000
0000
0010
,
0000
0000
0010
1000
,
0001
0000
0100
0000
0001
0000
0000
1000
,
0000
0001
0000
0000
0000
0000
1000
0000
,
0100
0000
1000
0000
0001
0000
0000
0010
,
0000
0001
1000
0001
,
0100
0000
0000
0000
0100
0010
1000
0010
,
0000
0000
1000
0000
0001
0100
0001
0100
,
0000
0000
0001
0000
1000
0000
0000
0100
,
0000
0010
0001
1000
,
0001
0000
0100
0000
0001
1000
0001
1000
,
0000
0000
0010
0000
0100
0010
0100
0010
,
0000
0000
1000
0000
0001
0000
0100
0001
,
0000
1000
0001
1000
0001
1000
0001
0000
,
0100
0000
0001
0000
1000
0000
0000
0100
,
0000
0000
0010
0000
0001
0000
0000
1000
,
0000
0000
0001
0000
0100
0000
0000
0001
,
0000
1000
0100
1000
,
0001
0000
0010
0000
0100
0000
0000
1000
,
0000
0000
0001
0000
0100
0000
0000
0010
,
0000
0000
1000
0000
0010
0000
0000
1000
,
0000
0001
0100
0001
,
1000
0000
0000
1000
0001
0000
0000
0100
,
0000
0010
0100
0000
0010
0000
0100
0000
,
0010
0000
1000
0001
0000
1000
0000
0001
,
0000
1000
0000
0000
0000
0000
0001
0000
,
0100
0000
0000
0010
0100
0000
0000
0010
,
0000
1000
0001
0100
,
0001
0000
1000
0100
0000
1000
0000
0001
,
0000
0010
0000
0000
0000
0000
0000
0000
,
0100
0000
0000
0000
1001
0000
0000
0100
,
0000
0010
1000
0000
0001
0000
0100
0000
,
0010
0000
0000
1000
0000
0001
0000
0100
,
0000
0001
0000
0000
0000
0000
1000
0000
,
0100
0000
0000
0010
0001
0000
0000
0010
,
0000
0100
1000
0010
,
0100
0000
0000
0001
0000
1000
0000
0100
,
0000
0010
0000
0000
0000
0000
0000
0000
;

//---------------dance-single - Renard----------------
#NOTES:
     dance-single:
     Renard:
     Easy:
     1:
     0.068,0.125,0.011,0.000,0.000: // measure 1
0000
0000
0000
0000
,  // measure 2
0000
0000
0000
0000
,  // measure 3
0000
0000
0000
0000
,  // measure 4
0000
0000
0000
0000
,  // measure 5
0000
0000
0000
0000
,  // measure 6
0000
0000
0000
0000
,  // measure 7
0000
0000
0000
0000
,  // measure 8
0000
0000
0000
0000
,  // measure 9
1000
0000
0000
0000
,  // measure 10
0001
0000
0000
0000
,  // measure 11
1000
0000
0000
0000
,  // measure 12
0001
0000
0000
0000
,  // measure 13
0100
0000
0000
0000
,  // measure 14
0010
0000
0000
0000
,  // measure 15
0100
0000
0000
0000
,  // measure 16
0010
0000
0000
0000
,  // measure 17
1000
0000
1000
0000
,  // measure 18
1000
0000
0000
0000
,  // measure 19
0001
0000
0000
0000
,  // measure 20
0000
0000
0000
0000
,  // measure 21
0100
0000
0100
0000
,  // measure 22
0100
0000
0000
0000
,  // measure 23
0010
0000
0000
0000
,  // measure 24
0000
0000
0000
0000
,  // measure 25
1000
0000
0000
0000
,  // measure 26
0001
0000
0000
0000
,  // measure 27
0100
0000
0000
0000
,  // measure 28
0000
0000
0000
0000
,  // measure 29
0001
0000
0000
0000
,  // measure 30
1000
0000
0000
0000
,  // measure 31
0100
0000
0000
0000
,  // measure 32
0000
0000
0000
0000
,  // measure 33
1000
0000
0000
0000
,  // measure 34
0001
0000
0000
0000
,  // measure 35
0010
0000
0000
0000
,  // measure 36
0000
0000
0000
0000
,  // measure 37
0001
0000
0000
0000
,  // measure 38
1000
0000
0000
0000
,  // measure 39
0010
0000
0000
0000
,  // measure 40
0000
0000
0000
0000
,  // measure 41
0100
0000
0000
0000
,  // measure 42
0100
0000
0000
0000
,  // measure 43
0100
0000
0000
0000
,  // measure 44
0100
0000
0000
0000
,  // measure 45
0010
0000
0000
0000
,  // measure 46
0010
0000
0000
0000
,  // measure 47
0010
0000
0000
0000
,  // measure 48
0010
0000
0000
0000
,  // measure 49
0010
0000
0000
0000
,  // measure 50
0000
0000
0000
0000
,  // measure 51
0100
0000
0000
0000
,  // measure 52
0000
0000
0000
0000
,  // measure 53
0010
0000
0000
0000
,  // measure 54
0000
0000
0000
0000
,  // measure 55
1000
0000
0000
0000
,  // measure 56
1001
0000
0000
0000
;
