#TITLE:Close Your Eyes;
#SUBTITLE:;
#ARTIST:Mickey Skeedale;
#TITLETRANSLIT:;
#SUBTITLETRANSLIT:;
#ARTISTTRANSLIT:;
#CREDIT:;
#BANNER:eyes.png;
#BACKGROUND:eyes-bg.png;
#LYRICSPATH:;
#CDTITLE:;
#MUSIC:eyes.ogg;
#OFFSET:0.000;
#SAMPLESTART:45.176;
#SAMPLELENGTH:12.000;
#SELECTABLE:YES;
#BPMS:0.000=170.000;
#STOPS:;
#BGCHANGES:;

//---------------dance-single - Renard----------------
#NOTES:
     dance-single:
     Renard:
     Hard:
     9:
     0.612,0.643,0.190,0.106,0.159:
0000
0000
0000
0000
,
0000
0000
0000
0000
,
0000
0000
0000
0000
,
0000
0000
0000
0000
,
0202
0000
0000
0003
,
0020
0000
0000
0331
0000
0000
0000
0000
,
0220
0000
0000
0030
,
2000
0000
0000
0000
0000
0000
0001
0000
0000
0001
0000
0000
3301
0000
0000
0000
,
0100
0000
0001
0000
0000
0000
0010
0000
0100
0000
1000
0100
1000
0000
0100
0000
,
0000
1000
0000
0010
0100
0001
0010
0100
,
1000
0000
0001
0000
0000
0000
0010
0000
0001
0000
1000
0001
1000
0000
0001
0000
,
0000
0100
0000
0010
1000
0100
0010
0001
,
0010
0000
0100
0000
0000
0000
1000
0000
0001
0000
0100
0010
0100
0000
0010
0000
,
0000
1000
0000
0001
0100
0010
1000
0100
,
0000
0000
0010
0000
0000
0000
0001
0000
0010
0000
0100
1000
0100
0000
1000
0000
,
0000
0001
0100
0010
1000
0001
0100
0000
,
0020
0000
0000
0000
,
0000
0000
0000
0000
,
2030
0000
0000
0000
,
0000
0000
0000
0000
,
3200
0000
0000
0000
,
0000
0000
0000
0000
,
0302
0000
0000
0000
,
0000
0000
0000
0000
,
0013
0000
1000
0000
0001
0000
0100
0000
0001
0000
1000
0000
0010
1000
0010
0000
,
0100
0000
0001
0000
0100
0000
0010
0000
1000
0000
0001
0000
0100
0001
0100
0000
,
0001
0000
0100
0000
0010
0000
1000
0000
0001
0000
0100
0000
0010
1000
0010
0000
,
1000
0001
0100
0010
1000
0001
0100
0001
,
1000
0000
0100
0000
0010
0000
0001
0000
1000
0000
0001
0000
0010
0001
0010
0000
,
0001
0000
0010
0000
0100
0000
1000
0000
0001
0000
0010
0000
0001
1000
0001
0000
,
1000
0000
0100
0000
0010
0000
0001
0000
0010
0000
0100
0000
1000
0001
1000
0000
,
0001
0000
1000
0000
0100
0000
0010
0000
0001
0000
0010
0000
0100
0010
0100
0000
,
1000
0000
0010
0000
0100
0000
0001
0000
0100
0000
0010
0000
1000
0010
1000
0000
,
0010
0000
0100
0000
0001
0000
0100
0000
0010
0000
1000
0000
0001
0100
0001
0000
,
0100
0000
0010
0000
1000
0000
0001
0000
0100
0000
0010
0000
1000
0010
1000
0000
,
0001
1000
0100
0010
0001
0010
0100
1000
,
0001
0000
0010
0000
0100
0000
1000
0000
0001
0000
0010
0000
0001
0010
0001
0000
,
0010
0000
0100
0000
1000
0000
0001
0000
0010
0000
0100
0000
1000
0100
1000
0000
,
0100
0000
1000
0000
0001
0000
0010
0000
0100
0000
1000
0000
0001
1000
0001
0000
,
1000
0010
0100
0001
1000
0010
0100
0001
,
1000
0000
0100
0000
0010
0000
0001
0000
0010
0000
0100
0000
1000
0001
1000
0000
,
0001
0000
0100
0000
0010
0000
1000
0000
0010
0000
0100
0000
0001
1000
0001
0000
,
1000
0000
0010
0000
0100
0000
0001
0000
0010
0000
0100
0000
0010
0100
0010
0000
,
0100
0000
1000
0000
0010
0000
0100
0000
0001
0000
0100
0000
0010
0100
0010
0000
,
0100
0000
0010
0000
1000
0000
0100
0000
0010
0000
0001
0000
1000
0001
1000
0000
,
0001
0000
0100
0000
0010
0000
1000
0000
0001
0000
1000
0000
0001
1000
0001
0000
,
1000
0000
0010
0000
0100
0000
0001
0000
0010
0000
0100
0000
1000
0001
1000
0000
,
0001
0000
1000
0000
0010
0000
0100
0000
0010
0000
0100
0000
0001
1000
0001
0000
,
1000
0010
0100
0000
0010
0100
0001
0000
,
0010
0000
0100
0000
1000
0000
0000
1000
0010
0000
0100
0000
0101
0000
0000
0000
,
0001
0100
0010
0000
1000
0100
0010
0000
,
0001
0000
0010
0000
0100
0000
0000
0100
1000
0000
0001
0000
1001
0000
0000
0000
,
0001
0100
0010
0000
1000
0010
0100
0000
,
0001
0000
1000
0000
0100
0000
0000
0100
0010
0000
0001
0000
0011
0000
0000
0000
,
0001
0010
0100
0000
1000
0001
0100
0000
,
0010
0000
1000
0000
0100
0000
0000
1000
0100
0000
1000
0000
1100
0000
0000
0000
,
1001
0000
0100
0010
1000
0100
0010
0000
,
0011
0000
0010
0100
1000
0001
0100
0000
,
0110
0000
0100
0010
0100
1000
0100
0001
,
0100
1100
0100
0101
,
0011
0000
0010
0100
1000
0001
0010
0100
,
1000
1100
1000
1010
,
0100
0110
0100
0011
,
0010
0000
0110
0000
0100
1000
0001
0100
,
0101
0000
0000
0000
;

//---------------dance-single - Renard----------------
#NOTES:
     dance-single:
     Renard:
     Medium:
     5:
     0.381,0.508,0.011,0.042,0.000:
0000
0000
0000
0000
,
0000
0000
0000
0000
,
0000
0000
0000
0000
,
0000
0000
0000
0000
,
1000
0000
0000
0000
,
0001
0000
0000
0001
0000
0000
0000
0000
,
0100
0000
0000
0000
,
0010
0000
0000
0010
0000
0000
0010
0000
,
1000
1000
1000
1000
,
1000
1000
1000
1000
,
0001
0001
0001
0001
,
0001
0001
0001
0001
,
1000
1000
0001
0001
,
1000
1000
0001
0001
,
1000
0001
1000
0001
,
1000
0001
1000
0001
1000
0001
1000
0001
,
2000
0000
0000
0000
,
0000
0000
0000
0000
,
3020
0000
0000
0000
,
0000
0000
0000
0000
,
0230
0000
0000
0000
,
0000
0000
0000
0000
,
0302
0000
0000
0000
,
0000
0000
0000
0000
0000
0000
0000
0003
,
0010
0001
0010
0001
0010
0000
0010
0000
,
0100
1000
0100
1000
0100
0000
0100
0000
,
1000
0010
1000
0010
1000
0000
1000
0000
,
0001
0100
0001
0100
0001
0000
0001
0000
,
0010
0001
0010
0001
0010
0000
0010
0000
,
0100
1000
0100
1000
0100
0000
0100
0000
,
1000
0010
1000
0010
1000
0000
1000
0000
,
0001
0100
0001
0100
0001
0100
0001
0100
,
0001
0000
0001
0000
0001
0000
1000
0100
,
1000
0000
1000
0000
1000
0000
0001
0010
,
0001
0000
0001
0000
0001
0000
1000
0010
,
1000
0000
1000
0000
1000
0000
0001
0100
,
0001
0000
0001
0000
0001
0000
1000
0100
,
1000
0000
1000
0000
1000
0000
0001
0010
,
0001
0000
0001
0000
0001
0000
1000
0010
,
1000
1000
0001
1000
,
0001
0100
0001
1000
,
0100
0000
1000
0000
0001
0000
0010
0001
,
0010
0001
1000
0010
,
0100
0000
0001
0000
1000
0000
0100
1000
,
0100
1000
0001
0010
,
0001
0000
1000
0000
0010
0000
1000
0001
,
1000
0001
0100
0010
,
1000
0000
0100
1000
,
0001
0000
0001
1000
,
0001
0000
0001
1000
,
0001
1000
0001
0100
,
0010
0000
1000
0000
0001
0100
0001
0000
,
0100
0010
1000
0100
,
0010
0000
0001
1000
0001
1000
0001
0000
,
0100
0001
1000
0100
,
0010
0000
0001
1000
0001
1000
0001
1000
,
0010
0010
0100
0100
,
0001
0000
0001
1000
0010
1000
0001
0000
,
1000
0100
0010
0001
,
1000
0000
0001
0100
0001
1000
0001
0000
,
0010
0001
1000
0010
,
0100
0000
0001
1000
0100
1000
0001
0000
,
1000
0001
0010
0001
,
1000
0000
0010
0100
0001
1000
0010
0000
,
1001
0000
0000
0000
;

//---------------dance-single - Renard----------------
#NOTES:
     dance-single:
     Renard:
     Easy:
     1:
     0.122,0.169,0.011,0.053,0.000: // measure 1
0000
0000
0000
0000
,  // measure 2
0000
0000
0000
0000
,  // measure 3
0000
0000
0000
0000
,  // measure 4
0000
0000
0000
0000
,  // measure 5
0000
0000
0000
0000
,  // measure 6
0000
0000
0000
0000
,  // measure 7
0000
0000
0000
0000
,  // measure 8
0000
0000
0000
0000
,  // measure 9
1000
0000
1000
0000
,  // measure 10
1000
0000
1000
0000
,  // measure 11
0001
0000
0001
0000
,  // measure 12
0001
0000
0001
0000
,  // measure 13
0100
0000
0100
0000
,  // measure 14
0100
0000
0100
0000
,  // measure 15
0010
0000
0010
0000
,  // measure 16
0010
0000
0010
0000
,  // measure 17
2000
0000
0000
0000
,  // measure 18
0000
0000
0000
0000
,  // measure 19
3002
0000
0000
0000
,  // measure 20
0000
0000
0000
0000
,  // measure 21
2003
0000
0000
0000
,  // measure 22
0000
0000
0000
0000
,  // measure 23
3002
0000
0000
0000
,  // measure 24
0000
0000
0000
0000
,  // measure 25
1003
0000
0000
0000
,  // measure 26
0001
0000
0000
0000
,  // measure 27
1000
0000
0000
0000
,  // measure 28
0000
0000
0000
0000
,  // measure 29
0001
0000
0000
0000
,  // measure 30
1000
0000
0000
0000
,  // measure 31
0001
0000
0000
0000
,  // measure 32
0000
0000
0000
0000
,  // measure 33
0100
0000
0010
0000
,  // measure 34
0100
0000
0000
0000
,  // measure 35
0010
0000
0000
0000
,  // measure 36
0100
0000
0000
0000
,  // measure 37
0001
0000
1000
0000
,  // measure 38
0001
0000
0000
0000
,  // measure 39
1000
0000
0000
0000
,  // measure 40
0001
0000
0000
0000
,  // measure 41
1000
0000
0010
0000
,  // measure 42
1000
0000
0010
0000
,  // measure 43
1000
0000
0010
0000
,  // measure 44
1000
0000
0010
0000
,  // measure 45
0100
0000
0001
0000
,  // measure 46
0100
0000
0001
0000
,  // measure 47
1000
0000
1000
0000
,  // measure 48
0001
0000
0001
0000
,  // measure 49
0100
0000
0000
0000
,  // measure 50
0100
0000
0000
0000
,  // measure 51
0010
0000
0000
0000
,  // measure 52
0010
0000
0000
0000
,  // measure 53
1000
0000
0000
0000
,  // measure 54
1000
0000
0000
0000
,  // measure 55
0002
0000
0000
0000
,  // measure 56
0000
0000
0000
0000
,  // measure 57
0103
0000
0100
0000
,  // measure 58
0001
0000
0001
0000
,  // measure 59
1000
0000
1000
0000
,  // measure 60
0100
0000
0100
0000
,  // measure 61
0010
0000
0010
0000
,  // measure 62
0001
0000
0001
0000
,  // measure 63
1000
0000
0001
0000
,  // measure 64
0100
0000
0000
0000
,  // measure 65
1001
0000
0000
0000
;
