#TITLE:Clockwork Genesis;
#SUBTITLE:;
#ARTIST:Inspector K;
#TITLETRANSLIT:;
#SUBTITLETRANSLIT:;
#ARTISTTRANSLIT:;
#CREDIT:;
#BANNER:clockwork.png;
#BACKGROUND:clockwork-bg.png;
#LYRICSPATH:;
#CDTITLE:;
#MUSIC:clockwork.ogg;
#OFFSET:0.000;
#SAMPLESTART:17.809;
#SAMPLELENGTH:12.000;
#SELECTABLE:YES;
#BPMS:0.000=175.000;
#STOPS:128.000=1.029
,141.000=1.029
;
#BGCHANGES:;

//---------------dance-single - Renard----------------
#NOTES:
     dance-single:
     Renard:
     Challenge:
     11:
     0.825,0.784,0.249,0.017,0.729:
0000
0000
0000
0000
,
0000
0000
0000
0000
,
0000
0000
0000
0000
,
0000
0000
0000
0000
,
1000
0000
0001
0100
0000
0001
0000
1000
,
0000
0000
0100
0000
1000
0000
0010
0000
0100
0000
0001
0000
1000
0001
1000
0000
,
0001
0000
0000
0001
0100
0000
0001
0000
0000
0000
1000
0000
0100
0000
1000
0000
,
0000
0000
1000
0000
0001
0000
0100
0001
0000
1000
0001
0000
1000
0000
0100
0000
,
1000
0000
1001
0100
0000
1001
0000
1000
,
0000
0000
0100
0000
1000
0000
0001
0000
0010
0000
0001
0000
1000
0010
1000
0010
,
1000
0000
1001
1000
0000
0101
0000
0001
,
1000
0000
0001
0100
0001
0100
0001
0100
0001
0100
0001
0100
0001
0000
0000
0000
,
1000
0010
1000
0000
0000
0000
0001
1000
0001
0000
0000
0000
1001
0000
0110
0000
,
1000
0000
1000
0010
0000
0010
0100
0000
0001
0000
0001
0010
0000
0010
0100
0000
,
1000
0010
1000
0001
0100
0001
0010
0100
,
1000
0000
1000
0001
0000
0001
0100
0000
0001
0000
0001
1000
0000
1000
0100
0000
,
1000
0000
0001
0000
0001
0000
1000
0100
0010
0000
0000
0001
0000
0000
0100
0000
,
0001
0000
0001
0100
0000
0100
0010
0000
1000
0000
1000
0100
0000
0100
0010
0000
,
0001
0100
0001
1000
0010
1000
0100
0010
,
0001
0000
0001
1000
0000
1000
0010
0000
1000
0000
1000
0001
0000
0001
0010
0000
,
0001
0000
1000
0000
1000
0000
0001
0010
0100
0000
0000
1000
0000
0000
0010
0000
,
1000
0000
0000
0001
0000
0100
0000
0000
0001
0000
0000
0010
0000
0000
0100
0000
,
1000
0000
0001
0000
0100
0000
0001
0000
1000
0000
0000
0010
0000
0000
1000
0000
,
0001
0000
0100
0000
0001
0000
0010
0000
0100
0000
0000
0100
0000
0000
0100
0000
,
1000
0000
0010
0000
1000
0000
0001
0000
0100
0000
0000
0001
0000
0000
0010
0000
,
0100
0000
0100
1000
0000
0100
0000
0000
1000
0000
0000
0001
0000
0000
0100
0000
,
0001
0000
1000
0000
0001
0000
0100
0000
0010
0000
0000
1000
0000
0000
0010
0000
,
0100
0000
0100
0001
0000
0000
0001
0000
0100
0000
0001
0000
1000
0000
0100
0000
,
0000
0000
0010
0000
0001
0000
1000
0100
1000
0000
1000
0010
0000
0010
0100
0000
,
1001
0000
0000
0000
0010
0000
1000
0000
0000
0000
1000
0000
0100
1000
0100
0000
,
1000
0000
0001
0010
0000
0001
0100
0101
,
0101
0000
0000
0000
0010
0000
1000
0000
0000
0000
0100
0000
1000
0100
0000
0010
,
0002
0003
0000
0000
0000
0000
0000
0000
0001
0000
0000
0000
0000
0000
0000
0000
1000
0000
0000
0000
0000
0000
0000
0000
0001
0000
0000
0000
0100
0000
0000
0000
0001
0000
0000
0000
0000
0000
0000
0000
1000
0000
0000
0000
0000
0000
0000
0000
0000
0000
0000
0000
0000
0000
0000
0000
0100
0000
0000
0000
0000
0000
0000
0000
,
1000
0000
0001
0000
0010
0000
0001
0100
0001
0000
1000
0000
0000
0000
0100
0000
,
0010
0000
0001
0000
1000
0000
0000
1001
0000
0000
1001
0000
0000
0000
0000
0000
,
0001
0000
0000
0000
0100
0000
0000
0000
0000
0000
0000
0000
0010
0000
0000
0000
2000
3000
0000
0000
0000
0000
0000
0000
0000
0000
0000
0000
0000
0000
0000
0000
0001
0000
0000
0000
0100
0000
0000
0000
0001
0000
0000
0000
0100
0000
0000
0000
0001
0000
0000
0000
0000
0000
0000
0000
1000
0000
0000
0000
0000
0000
0000
0000
,
0100
0000
1000
0000
0001
0010
0001
0000
0100
0001
0100
0000
0010
0000
1000
0100
,
1000
0000
0001
0000
0010
0000
0100
0000
1000
0100
1000
0100
1000
0000
0010
0000
,
0100
0000
0001
0000
1000
0001
1000
0000
0001
0000
0100
0010
1000
0000
0001
0000
,
1000
0100
0010
0000
0001
0000
0000
0000
1000
0010
1000
0010
1000
0000
0001
0000
,
0010
0000
0001
0000
1000
0100
1000
0000
0010
1000
0010
0000
0100
0000
0001
0010
,
0001
0000
1000
0000
0100
0000
0010
0000
0001
0010
0001
0010
0001
0000
0100
0000
,
0010
0000
1000
0000
0001
1000
0001
0000
1000
0000
0010
0100
0001
0000
1000
0000
,
0001
0010
0100
0000
1000
0000
0000
0000
0001
0000
0100
0000
0010
0000
1000
0000
,
0001
0010
0100
1000
0001
0000
0100
0000
0001
0010
0100
1000
0001
0000
0100
0000
,
0001
0010
0100
1000
0001
0000
0100
0000
0001
0010
0100
0000
0011
0000
0000
0000
,
0000
0000
1100
0000
0000
0000
1010
0000
0001
0100
0001
0000
1001
0000
0000
0000
,
0001
0100
0001
0000
1000
0100
0010
0001
1000
0000
0001
0000
0100
0000
0001
1000
,
0000
0001
0000
1000
0100
0000
0010
0001
0010
0000
0100
0000
1000
0000
0001
0100
,
0000
0001
0000
1000
0100
0000
1000
0000
0001
0000
0010
0000
0100
0000
1000
0001
,
0000
1000
0000
0001
0100
0000
0001
1000
0100
0000
0010
0000
0001
0000
0010
0100
,
1000
0000
0010
0100
0001
0000
0100
0000
0010
0000
1000
0000
0010
0000
0100
0010
,
0000
0100
0000
0001
0010
0000
0100
1000
0001
0000
0010
0000
0100
0000
1000
0001
,
0000
0100
0000
0001
1000
0000
0001
1000
0001
0000
0100
0000
0001
0000
1000
0100
,
0000
1000
0000
0001
0010
0000
0001
0000
1000
0000
0000
0000
0000
0000
0000
0000
,
0001
0100
0001
0000
1000
0001
1000
0001
1001
0000
0000
0000
0001
0000
0101
0000
,
0000
0000
0110
0000
0000
0000
0010
1000
0010
0000
0000
0000
1000
0000
0100
0000
,
0000
0000
1100
0000
0000
0000
1000
0001
0010
0000
0000
0000
0001
0000
0010
0000
,
0000
0000
0110
0000
0000
0000
0100
1000
0010
0000
1000
0000
0001
0000
0100
0001
,
0000
1000
0000
0000
0001
0000
1000
0000
0100
0000
0000
0000
1000
0000
1100
0000
,
0000
0000
0011
0000
0000
0000
0001
1000
0001
0000
0000
0000
0100
0000
0101
0000
,
0000
0000
1001
0000
0000
0000
1000
0100
1000
0000
0000
0000
0001
0000
1001
0000
,
0000
0011
0000
1001
0110
0000
0000
0000
,
0000
0000
0000
0000
0000
0000
1000
0001
1000
0000
1000
0001
0000
0001
0100
0000
,
0010
0000
1000
0100
0000
0010
0001
0000
0010
0000
0100
0000
1000
0000
0001
0000
,
0100
0000
0010
0000
1000
0000
0100
0000
0010
0000
0001
0010
0000
0100
1000
0000
,
0001
0000
0100
0010
0000
1000
0010
0000
1000
0000
0001
0000
0100
0000
0010
1000
,
0100
0000
0010
0001
0000
0010
0100
0000
1000
0000
0001
1000
0000
0010
0100
0000
,
0001
0000
0100
0010
0000
1000
0100
0000
0010
0000
0001
0000
0010
0000
0100
1000
,
0001
0000
0010
0100
0000
1000
0001
0000
0100
0000
0001
1000
0000
0001
1000
0000
,
0100
0010
0001
0010
0100
1000
0001
0100
,
0001
0000
1000
0100
0000
0010
0001
0000
1000
0000
0100
1000
0000
0001
1000
0000
,
0010
0000
1000
0100
0000
1000
0001
0000
0010
0000
0100
0000
1000
0000
0001
0100
,
0001
0000
1000
0100
0000
0010
0001
0000
0010
0000
0001
0100
0000
0001
1000
0000
,
0001
0000
0100
0001
0000
0010
0001
0000
1000
0000
0100
0010
0001
0000
0010
0000
,
0100
0000
1000
0001
0000
0100
0010
0000
1000
0000
0001
1000
0000
0100
1000
0000
,
0010
0000
1000
0001
0000
0010
0100
0000
0010
0000
0001
0000
1000
0000
0100
1000
,
0001
0000
0100
0010
0000
1000
0001
0000
0010
0100
0010
0001
0000
0000
0010
0000
,
0100
0000
1000
0000
0001
0100
0010
0000
1000
0000
0001
0000
0100
0000
0010
1000
,
0100
0000
0010
0001
0000
0010
0100
0000
1001
0000
0000
0000
0000
0000
0000
0000
;

//---------------dance-single - Renard----------------
#NOTES:
     dance-single:
     Renard:
     Hard:
     9:
     0.678,0.614,0.317,0.000,0.000:
0000
0000
0000
0000
,
0000
0000
0000
0000
,
0000
0000
0000
0000
,
0000
0000
0000
0000
,
1000
0000
1000
0001
0000
0001
0100
0010
,
1000
0010
0001
0010
0100
1000
0100
0001
,
0010
0000
0010
0100
0000
0100
1000
0100
,
0001
0100
0010
0001
0010
1000
0010
0000
,
0010
0000
0010
0100
0000
0100
0000
1000
,
0000
0001
0100
0010
1000
0010
0001
0010
,
0100
0000
0100
0010
0000
0010
1000
0001
,
0100
0001
1000
0100
0010
0001
1000
0000
,
1001
0000
0000
0110
0000
0000
1001
0000
,
1000
0100
0010
0001
0010
0100
0001
0100
,
1000
0010
0001
0010
0100
1000
0100
0001
,
0010
1000
0010
0001
0010
1000
0010
0001
,
0010
0100
0001
0100
1000
0010
0100
0001
,
0100
1000
0001
0010
1000
0100
0001
0100
,
0001
0100
1000
0010
0001
0010
0100
1000
,
0100
0001
0010
0100
1000
0100
0010
0001
,
0010
1000
0010
0100
0001
0100
1000
0010
,
0100
0010
0001
0010
1000
0010
0100
0001
,
0010
0100
1000
0100
0001
0100
0010
0001
,
0010
1000
0001
0100
1000
0001
0010
1000
,
0001
0100
1000
0001
0010
0001
0100
0010
,
1000
0100
0010
0001
0010
0100
1000
0010
,
0100
0010
1000
0100
0010
1000
0010
0100
,
1000
0010
0100
0001
0100
0010
0100
0001
,
0010
0100
0001
0100
0010
0001
1000
0010
,
0100
0000
0100
0001
0000
0001
1000
0100
,
1000
0000
1000
0001
0000
0001
0010
0001
,
1000
0000
1000
0010
0000
0010
0100
0000
,
1001
0000
1001
0000
0010
0100
0000
0001
,
0010
0100
1000
0000
0001
0100
0000
0010
,
1000
0000
1100
0000
0000
1001
0000
0000
,
0110
0000
1001
0000
1000
0001
0100
0010
,
0000
1000
0100
0010
0001
0010
1000
0010
,
0100
0001
0100
1000
0010
0001
0010
0100
,
0000
0100
0001
1000
0100
0010
0001
0010
,
0000
0000
0011
0000
0010
0100
1000
0100
,
0000
0100
0001
0100
0010
0001
0010
1000
,
0010
0100
1000
0010
0001
0010
1000
0001
,
0000
0001
0100
0010
1000
0010
0100
0001
,
1000
0100
1000
0001
1000
1000
0001
0001
,
0100
0100
0010
0010
1000
1000
0100
0100
,
0010
0010
0001
0001
0010
0100
1000
0001
,
0010
0001
1000
0010
0100
0001
0100
0000
,
0010
1000
0000
0001
0100
0001
1000
0100
,
0010
0001
0010
0000
0100
1000
0001
0010
,
0100
1000
0010
0000
0010
0100
0001
0100
,
0010
1000
0100
0000
0100
0000
1000
0001
,
0000
0010
0001
0000
1000
0010
0100
0001
,
0010
0100
0010
0000
0010
0100
1000
0010
,
0100
0001
0100
0000
0100
0001
0100
0010
,
0001
0010
1000
0000
1000
0000
0000
0000
,
0000
0000
0000
0000
1001
0000
0001
0100
,
0000
0110
0000
1010
0000
0001
1000
0100
,
0000
1100
0000
0011
0000
0010
0100
1000
,
0000
1001
0000
0110
0110
0000
0010
1000
,
0000
1001
1001
0000
1001
0000
1001
0110
,
0000
1001
0000
0110
0000
0000
0110
1001
,
0000
1001
0000
0110
0110
0000
0110
1001
,
0000
1001
0110
1001
1010
0000
0000
0000
,
0000
0000
0000
0000
1000
0001
0100
0010
,
1000
0010
0001
0010
0100
1000
0100
0001
,
0010
0100
0001
0100
1000
0010
0100
1000
,
0100
0001
0010
0100
0001
0100
1000
0010
,
0100
0001
0100
1000
0001
0010
1000
0100
,
0001
0100
1000
0010
0100
0001
0100
1000
,
0100
0010
0001
0010
1000
0100
0001
0100
,
0010
1000
0010
0001
0010
0100
0001
0100
,
1000
0010
0100
0001
0100
1000
0001
0010
,
1000
0100
0001
0100
1000
0010
0100
0001
,
0100
1000
0100
0001
0100
0010
1000
0100
,
0010
0001
0010
1000
0010
0100
0001
0100
,
1000
0010
0100
0001
0100
1000
0001
0010
,
1000
0100
0001
1000
0010
0001
0010
0100
,
1000
0010
0100
0001
0100
0010
1000
0100
,
0010
0001
0010
0100
0001
0100
1000
0010
,
0100
0001
0100
0010
1001
0000
0000
0000
;

//---------------dance-single - Renard----------------
#NOTES:
     dance-single:
     Renard:
     Medium:
     6:
     0.417,0.580,0.060,0.043,0.000:
0000
0000
0000
0000
,
0000
0000
0000
0000
,
0000
0000
0000
0000
,
1001
0000
0000
0000
,
1000
0000
0000
0001
0000
0100
0000
0001
,
0000
0000
1000
0100
0010
0001
1000
0000
,
0001
0000
0000
1000
0000
0001
0000
0100
,
0000
0001
0001
0000
,
1000
0000
0000
0100
0000
0010
0000
0001
,
0000
0000
1000
0000
0001
0000
0100
0010
,
1000
0000
0000
0001
0000
0100
0000
0001
,
0000
1000
0100
1000
,
0001
0000
0000
0001
0000
0000
0001
0000
,
1000
0000
0001
0000
,
0100
0000
0010
0000
1000
0001
0100
0000
,
0001
0000
1000
0000
,
0100
0000
0010
0001
0010
0100
1000
0001
,
0100
0000
0001
0000
,
1000
0000
0100
0000
1000
0000
0001
0100
,
0010
0000
1000
0000
,
0010
0100
0010
0000
0100
0010
0100
0000
,
0010
0000
0010
0000
1000
0000
0001
1000
,
0001
0000
0100
0001
,
1000
0000
1000
0000
0100
0000
0010
0001
,
0010
0100
1000
0001
,
0100
0000
0100
0000
0010
0000
1000
0010
,
1000
0001
0100
0001
,
1000
0100
1000
0000
0001
0010
0001
0000
,
1000
0001
1000
0001
1000
0001
1000
0001
,
1000
0000
0000
1000
,
0001
0000
0000
0001
,
0100
0000
0000
0000
0000
0000
0010
1000
,
0001
0000
1000
0000
0000
1000
0000
0000
,
1000
0000
0001
0000
0000
0001
0000
0000
,
0001
0100
0001
0000
1000
0100
0000
1000
,
0001
0100
0001
0000
1000
0000
0000
0001
,
0000
0100
0000
0010
1000
0100
0010
0001
,
0000
0000
1000
0000
0001
0000
0000
0100
,
0000
0010
0000
0000
1000
0100
1000
0001
,
1000
0000
0001
0000
0100
0000
0000
0010
,
0000
0000
0000
1000
0200
0000
1300
0001
,
0000
0000
0010
0000
0001
0000
1000
0010
,
0000
0100
0000
0001
1000
0001
0100
0010
,
1000
0001
2000
0000
,
3002
0000
0203
0000
,
0320
0000
1030
1000
,
1000
0010
0000
0010
1000
0001
1000
0001
,
0100
0010
1000
0001
1000
0000
0000
0000
,
1000
1000
0001
0000
,
0001
0001
0100
0000
,
0100
0100
0010
0000
,
0000
0000
0100
0000
,
0100
0100
0001
0000
,
0001
0001
1000
0000
,
1000
1000
0100
0000
,
0100
1000
0100
1000
0001
0000
0001
0010
,
0000
0001
0000
0000
1000
0000
1000
0010
,
0000
0010
1000
0000
0001
0000
0001
0100
,
0000
0001
0000
1000
0100
0000
0000
0000
,
0000
0000
0000
0000
1000
0000
1000
0001
,
0000
0110
0000
1001
0000
0000
0001
1000
,
0000
0110
0000
1001
0000
0000
0001
1000
,
0000
0110
0000
1001
0000
0000
0000
0000
,
0000
0000
1000
1000
,
0001
0001
0100
0100
,
0010
0010
1000
1000
,
0001
0001
0100
0100
,
0010
0010
1000
1000
,
0001
0001
0100
0100
,
0010
0010
1000
1000
,
0001
0001
1000
0001
,
1000
0000
0000
0000
0001
1000
0001
1000
,
0001
1000
0001
1000
0001
1000
0001
1000
,
0001
1000
0001
1000
0010
0100
0010
0100
,
0010
0100
0010
0100
0010
0100
0010
0100
,
0010
0100
0010
0100
0001
1000
0001
1000
,
0001
1000
0001
1000
0010
0100
0010
0100
,
0010
0100
0010
0100
0001
1000
0001
1000
,
0010
0100
0010
0100
0001
1000
0010
0100
,
0001
1000
0010
0100
0001
0000
0000
0000
;

//---------------dance-single - Renard----------------
#NOTES:
     dance-single:
     Renard:
     Easy:
     4:
     0.183,0.239,0.086,0.275,0.000: // measure 1
0000
0000
0000
0000
,  // measure 2
0000
0000
0000
0000
,  // measure 3
0000
0000
0000
0000
,  // measure 4
1001
0000
0000
0000
,  // measure 5
1000
0000
1000
0000
,  // measure 6
0001
0000
0001
0000
,  // measure 7
0100
0000
0100
0000
,  // measure 8
0010
0000
0000
0000
,  // measure 9
0010
0000
0010
0000
,  // measure 10
1000
0000
1000
0000
,  // measure 11
0001
0000
0001
0000
,  // measure 12
0100
0000
0100
0000
,  // measure 13
2002
0000
0000
0000
,  // measure 14
3013
0000
1000
0000
,  // measure 15
1000
0000
0000
0000
,  // measure 16
0001
0000
0001
0000
,  // measure 17
0001
0000
0000
0000
,  // measure 18
1000
0000
1000
0000
,  // measure 19
1000
0000
0000
0000
,  // measure 20
2000
0000
0000
0000
,  // measure 21
0002
0000
0000
0000
,  // measure 22
3013
0000
0000
0000
,  // measure 23
1000
0000
1000
0000
,  // measure 24
0001
0000
0000
0000
,  // measure 25
0100
0000
0100
0000
,  // measure 26
0002
0000
0000
0000
,  // measure 27
2000
0000
0000
0000
,  // measure 28
0020
0000
0000
0000
,  // measure 29
3133
0000
0000
0000
,  // measure 30
1000
0000
1000
0000
,  // measure 31
1000
0000
0000
0000
,  // measure 32
0001
0000
0001
0000
,  // measure 33
1001
0110
0000
0000
,  // measure 34
0000
0000
0000
0000
,  // measure 35
0000
0000
0000
0000
,  // measure 36
0000
1011
1000
0000
,  // measure 37
1000
0000
0001
0000
,  // measure 38
0000
0000
0001
0000
,  // measure 39
0001
0000
1000
0000
,  // measure 40
0000
0000
0002
0000
,  // measure 41
0000
0000
2000
0000
,  // measure 42
0000
0000
0000
0000
,  // measure 43
0010
0000
3013
0000
,  // measure 44
0000
0000
2000
0000
,  // measure 45
0002
0000
0000
0003
,  // measure 46
0002
0000
0000
0003
,  // measure 47
0002
0000
3013
0000
,  // measure 48
0000
0000
1000
0000
,  // measure 49
1000
0000
0001
0000
,  // measure 50
0000
0000
0001
0000
,  // measure 51
0001
0000
1001
0000
,  // measure 52
0000
0000
0001
0000
,  // measure 53
0001
0000
1000
0000
,  // measure 54
0000
0000
0002
0000
,  // measure 55
2000
0000
3013
0000
,  // measure 56
0000
0000
0001
0000
,  // measure 57
0001
0000
1000
0000
,  // measure 58
0000
0000
0001
0000
,  // measure 59
0002
0000
2000
0000
,  // measure 60
0000
0000
0010
0000
,  // measure 61
0010
0000
0010
0000
,  // measure 62
0000
0000
0100
0000
,  // measure 63
0100
0000
3103
0000
,  // measure 64
0000
0000
2000
0000
,  // measure 65
0000
0000
0002
0000
,  // measure 66
0000
3000
0200
0000
,  // measure 67
0000
0000
0010
0000
,  // measure 68
0313
0000
2002
0000
,  // measure 69
0000
0003
0200
0000
,  // measure 70
0000
0300
0002
0000
,  // measure 71
0000
0000
0010
0000
,  // measure 72
3013
0000
0202
0000
,  // measure 73
0000
0003
0020
0000
,  // measure 74
0030
0000
0002
0000
,  // measure 75
0000
0000
0010
0000
,  // measure 76
0313
0000
0202
0000
,  // measure 77
0300
0000
2000
0000
,  // measure 78
0000
0003
0200
0000
,  // measure 79
0000
0000
0010
0000
,  // measure 80
3310
0000
1001
0000
;
