#TITLE:Claw Marks;
#SUBTITLE:;
#ARTIST:Azrael;
#TITLETRANSLIT:;
#SUBTITLETRANSLIT:;
#ARTISTTRANSLIT:;
#CREDIT:;
#BANNER:claw.png;
#BACKGROUND:claw-bg.png;
#LYRICSPATH:;
#CDTITLE:;
#MUSIC:claw.ogg;
#OFFSET:0.000;
#SAMPLESTART:69.176;
#SAMPLELENGTH:12.000;
#SELECTABLE:YES;
#BPMS:0.000=170.000;
#STOPS:;
#BGCHANGES:;

//---------------dance-single - Renard----------------
#NOTES:
     dance-single:
     Renard:
     Hard:
     9:
     0.582,0.703,0.357,0.212,0.689:
0000
0000
0000
0000
,
0000
0000
0000
0000
,
0000
0000
0000
0000
,
0000
0000
0000
0000
,
1000
0000
0000
0001
0000
0001
0100
0000
0000
0010
0000
1000
,
0000
0000
0010
0000
0000
1000
0010
0000
0000
1000
0000
0000
,
0010
0000
0000
0100
0000
0100
0001
0000
0000
0010
0000
0001
,
0000
0000
0010
0000
0000
0001
0010
0000
0000
0000
0000
0000
,
1001
0101
1010
1001
,
1000
0000
0100
0000
0000
1100
0000
0000
0100
0010
0000
0010
,
0001
0101
1010
1001
,
1000
0000
0100
0000
0000
0110
0000
0000
0010
0001
0000
0000
,
1001
0101
1001
1100
,
0100
0000
0010
0000
0000
0011
0000
0000
0001
1000
0000
0000
,
1010
0101
1001
1100
,
0001
0000
0010
0000
0000
1100
0000
0000
0001
1000
0000
0000
,
0002
0000
0000
0000
,
0203
0000
0320
0000
,
2030
0000
0000
0000
,
3200
0000
0320
0000
,
0032
0000
0000
0000
,
2003
0000
3020
0000
,
0230
0000
0000
0000
,
0302
0000
2000
3003
,
0001
0000
0001
1000
0000
1000
0010
0000
0100
0000
0000
0000
,
0001
0000
0100
0010
0000
1000
0001
0000
1000
0000
0000
0000
,
0100
0000
0010
0001
0000
1000
0001
0000
0100
0000
0000
0000
,
0010
0000
1000
0010
0000
1000
0001
0000
0100
0010
0000
1000
,
0001
0000
0100
0010
0000
1000
0100
0000
0010
0000
0000
0000
,
0001
0000
0010
0100
0000
1000
0001
0000
0010
0000
0000
0000
,
0001
0000
1000
0010
0000
0100
0001
0000
0100
0010
0000
1000
,
0010
0000
0010
0100
0000
0100
0001
0000
1000
0001
0000
1000
,
0002
1000
1000
1000
,
0100
0100
0010
0003
,
0020
0100
0100
0100
,
0001
0001
1000
0030
,
2000
0010
0010
0100
,
0100
0001
0001
3000
,
0020
0100
0100
1000
,
1000
0001
0001
0030
,
0102
0010
0010
0013
,
2100
0010
0010
3010
,
0012
0100
0100
0103
,
2010
0100
0100
3100
,
0102
0010
1000
0103
,
2100
0010
0001
3010
,
1001
0110
1001
1100
,
0011
0000
1100
0000
0011
0000
1100
0000
0011
0000
1100
0000
,
0000
0000
0000
0000
,
1000
0000
1000
0010
0000
0010
0100
0000
0100
0001
0000
0001
,
0100
0000
0100
0010
0000
0010
1000
0100
0010
0001
0010
0100
,
1000
0000
1000
0001
0000
0001
0010
0000
0010
0100
0000
0100
,
1000
0000
1000
0010
0000
0010
0100
0001
0100
0010
1000
0010
,
0100
0000
0100
0001
0000
0001
1000
0000
1000
0001
0000
0001
,
0010
0000
0010
0100
0000
0100
1000
0010
0100
0001
1000
0010
,
1000
0000
1000
0001
0000
0001
0100
0000
0100
0010
0000
0010
,
1000
1000
0010
0010
0100
0100
0001
0001
,
0100
0000
0100
0010
0000
0010
1000
0000
1000
0100
0000
0100
,
0010
0000
0010
0001
0000
0001
0010
0100
1000
0100
0010
0001
,
1000
0000
1000
0010
0000
0010
0100
0000
0100
0001
0000
0001
,
0100
0000
0100
0010
0000
0010
1000
0001
1000
0001
0000
0001
,
1000
0010
0100
0001
0000
0001
0100
0000
0100
0010
0000
0010
,
1000
0000
1000
0100
0000
0100
0010
0001
0010
0001
0000
0001
,
0010
0100
0010
0100
0000
0100
1000
0000
1000
0000
0000
0010
,
0100
0000
0100
0000
0100
0000
1001
0000
0000
0110
0000
0000
,
0000
0000
0000
0001
0000
0100
0010
0000
0000
1000
0000
0100
,
0000
0000
0010
0000
0000
0001
0010
0000
0000
0100
0000
0100
,
1000
0000
0000
0010
0000
0100
0001
0000
0000
0100
0000
0010
,
0000
0000
1000
0000
0000
0001
0100
0000
0001
1000
0000
0100
,
0010
0000
0000
0001
0000
0010
0100
0000
0000
1000
0000
0001
,
0000
0000
1000
0000
0000
0010
0100
0000
0000
0001
0000
0100
,
0010
0000
0000
1000
0000
0010
0100
0000
0000
0001
0000
0100
,
0000
0000
0010
0000
0000
1000
0010
0000
0000
0100
0000
0001
;

//---------------dance-single - Renard----------------
#NOTES:
     dance-single:
     Renard:
     Medium:
     7:
     0.399,0.597,0.039,0.029,0.333:
0000
0000
0000
0000
,
0000
0000
0000
0000
,
0000
0000
0000
0000
,
0000
0000
0000
0000
,
0000
0000
0000
0000
,
0000
0000
0000
0000
,
0000
0000
0000
0000
,
0000
0000
0000
0000
,
1000
1000
0001
0001
,
1000
1000
0001
0001
,
0100
0100
0010
0010
,
0100
0100
0010
0010
,
1000
1000
0001
0001
,
1000
1000
0001
0001
,
0100
0010
0100
0010
,
1000
0000
1000
0001
0000
0001
1000
0000
1000
0001
0000
0000
,
0100
0000
0001
0000
,
1000
0000
0100
0000
,
1000
0000
0001
0000
,
0010
0000
0100
0000
,
1000
0001
1000
0000
,
0001
1000
0001
0000
,
0100
0010
0100
0000
,
0010
2000
0002
3003
,
1000
0000
1000
0001
0000
0001
0100
0000
0000
0000
0000
0000
,
0001
0000
0001
0010
0000
0010
0001
0000
0000
0000
0000
0000
,
1000
0000
1000
0100
0000
0100
1000
0000
0000
0000
0000
0000
,
0001
0000
0001
0010
0000
0010
0001
0000
0000
0001
0000
0000
,
1000
0000
1000
0001
0000
0001
1000
0000
0000
0000
0000
0000
,
0010
0000
0010
0100
0000
0100
0010
0000
0000
0000
0000
0000
,
1000
0000
1000
0001
0000
0001
1000
0000
0000
0000
0000
0000
,
0001
1000
0001
1000
,
0001
0000
0001
0000
,
0001
0001
0001
0000
,
1000
0000
1000
0000
,
1000
1000
1000
0000
,
0010
0000
0010
0000
,
0010
0010
0010
0000
,
0100
0000
0100
0000
,
0100
0100
0100
0100
,
0001
0001
1000
1000
,
0001
0001
1000
1000
,
0010
0010
0100
0100
,
0010
0010
0100
0100
,
0001
1000
0001
1000
,
0001
1000
0001
1000
,
0110
0110
0110
0110
,
0010
0000
1000
0000
0001
0000
1000
0000
0001
0000
0100
0000
,
0000
0000
0000
0000
,
0010
0000
0010
1000
0000
1000
0001
0000
0001
0100
0000
0100
,
0001
0000
0001
1000
0000
1000
0001
0000
0001
1000
0000
1000
,
0001
0000
0001
1000
0000
1000
0001
0000
0001
1000
0000
1000
,
0001
0000
0001
1000
0000
1000
0001
0000
0001
1000
0000
0000
,
0010
0000
0010
0100
0000
0100
0010
0000
0010
0100
0000
0100
,
0010
0000
0010
0100
0000
0100
0010
0000
0010
0100
0000
0100
,
0010
0000
0010
1000
0000
1000
0001
0000
0001
1000
0000
1000
,
0001
1000
0001
1000
0001
1000
0001
0000
,
1000
0000
1000
0001
0000
0001
1000
0000
1000
0001
0000
0000
,
0100
0000
0100
0010
0000
0010
0100
0000
0000
0000
0000
0000
,
0010
0000
0010
1000
0000
1000
0010
0000
0010
1000
0000
0000
,
0001
0000
0002
0000
0000
0103
0001
0000
0000
0000
0000
0000
,
1000
0000
1000
0100
0000
0100
1000
0000
1000
0100
0000
0000
,
0010
0000
0010
0001
0000
0001
0010
0000
0000
0000
0000
0000
,
0001
0000
0001
1000
0000
1000
0001
0000
0001
0100
0000
0000
,
0010
0000
0010
0000
0010
0000
0010
0000
0000
0000
0000
0000
,
1000
0000
1000
1000
,
1000
0000
0001
0001
,
0001
0000
0100
0100
,
0100
0000
0010
0010
,
0010
0000
1000
1000
,
1000
0000
0001
0001
,
0001
0000
0100
0100
,
0100
0000
0000
0000
0000
0000
0010
0000
0000
1000
0000
0001
;

//---------------dance-single - Renard----------------
#NOTES:
     dance-single:
     Renard:
     Easy:
     3:
     0.274,0.456,0.125,0.087,0.000: // measure 1
0000
0000
0000
0000
,  // measure 2
0000
0000
0000
0000
,  // measure 3
0000
0000
0000
0000
,  // measure 4
0000
0000
0000
0000
,  // measure 5
0000
0000
0000
0000
,  // measure 6
0000
0000
0000
0000
,  // measure 7
0000
0000
0000
0000
,  // measure 8
0000
0000
0000
0000
,  // measure 9
1000
0000
1000
1000
,  // measure 10
0001
0000
0001
0001
,  // measure 11
0100
0000
0100
0100
,  // measure 12
0010
0000
0010
0000
,  // measure 13
1000
0000
1000
1000
,  // measure 14
0001
0000
0001
0001
,  // measure 15
0100
0000
0001
0000
,  // measure 16
1000
0100
0010
0001
,  // measure 17
2000
0000
0000
0000
,  // measure 18
3002
0000
0000
0000
,  // measure 19
0203
0000
0000
0000
,  // measure 20
0302
0000
2003
0000
,  // measure 21
3200
0000
0000
0000
,  // measure 22
0320
0000
0000
0000
,  // measure 23
0032
0000
0000
0000
,  // measure 24
2000
0000
0000
3003
,  // measure 25
0001
0001
0001
0000
,  // measure 26
1000
1000
1000
0000
,  // measure 27
0010
0010
0010
0000
,  // measure 28
0100
0100
0100
0000
,  // measure 29
0001
0001
0001
0000
,  // measure 30
1000
1000
1000
0000
,  // measure 31
0001
0001
0001
0000
,  // measure 32
1000
0001
1000
0001
,  // measure 33
1000
0100
0100
0000
,  // measure 34
0100
0000
0000
0000
,  // measure 35
0010
0001
0001
0000
,  // measure 36
0001
0000
0000
0000
,  // measure 37
0010
0100
0100
0000
,  // measure 38
0100
0000
0000
0000
,  // measure 39
1000
0001
0001
0000
,  // measure 40
0001
0000
0001
0000
,  // measure 41
0100
0000
0100
0000
,  // measure 42
0001
0000
0001
0000
,  // measure 43
1000
0000
1000
0000
,  // measure 44
0001
0000
0001
0000
,  // measure 45
0110
0000
0110
0000
,  // measure 46
0110
0000
0110
0000
,  // measure 47
1001
0000
1001
0000
,  // measure 48
1000
0100
0010
0001
,  // measure 49
0000
0000
0000
0000
,  // measure 50
1000
0100
0010
0001
,  // measure 51
0010
0100
1000
0010
,  // measure 52
0100
0001
0010
0100
,  // measure 53
1000
0001
0100
0010
,  // measure 54
1000
0100
0010
0001
,  // measure 55
0010
0100
1000
0010
,  // measure 56
0100
0001
0100
0010
,  // measure 57
0110
1001
0110
1001
,  // measure 58
0010
1000
0001
0100
,  // measure 59
0010
1000
0100
0010
,  // measure 60
0001
0010
0100
1000
,  // measure 61
0001
0100
0010
1000
,  // measure 62
0001
1000
0100
0010
,  // measure 63
0001
0010
0100
1000
,  // measure 64
0001
0100
0010
1000
,  // measure 65
0110
1001
0110
0000
,  // measure 66
0010
0010
0010
0000
,  // measure 67
0010
0000
0010
0010
,  // measure 68
0100
0000
0100
0100
,  // measure 69
0100
0000
0100
0000
,  // measure 70
0001
0000
0001
0001
,  // measure 71
0001
0000
0001
0000
,  // measure 72
1000
0000
1000
1000
,  // measure 73
1000
0000
1000
0001
;
