#TITLE:Cities of the Future (Violet Vision Mix);
#SUBTITLE:;
#ARTIST:Infected Mushroom;
#TITLETRANSLIT:;
#SUBTITLETRANSLIT:;
#ARTISTTRANSLIT:;
#CREDIT:;
#BANNER:future.jpg;
#BACKGROUND:future-bg.jpg;
#LYRICSPATH:;
#CDTITLE:;
#MUSIC:future.ogg;
#OFFSET:0.021;
#SAMPLESTART:21.778;
#SAMPLELENGTH:12.000;
#SELECTABLE:YES;
#BPMS:0.000=132.000,143.000=131.800,175.000=137.020,176.000=132.000;
#STOPS:;
#BGCHANGES:;

//---------------dance-single - Renard----------------
#NOTES:
     dance-single:
     Renard:
     Challenge:
     9:
     0.678,0.748,0.619,0.052,0.396:
0000
0000
0000
0000
,
0000
0000
0000
0000
,
0000
0000
0000
0000
,
0000
0000
0000
0000
,
1000
0000
0000
0000
1001
0000
0000
0001
0100
0000
0010
0000
0110
0000
0000
0000
,
0010
0000
0000
0000
1010
0000
0000
1000
0010
0000
0100
0000
0001
0000
1000
0000
,
0100
0000
0000
0000
1100
0000
0000
1000
0100
0000
0010
0000
0001
0000
1000
0000
,
0001
0000
0100
0001
0100
0000
0010
0000
1000
0000
0000
0000
1010
0000
0000
0000
,
1000
0000
0000
1000
0100
0000
0010
0000
0001
0000
0000
0000
1001
0000
0000
0000
,
0001
0000
0000
0100
0010
0000
1000
0000
0001
0000
1000
0100
0000
1000
0001
0000
,
0010
0000
0000
0100
0010
0000
0000
0100
0010
0000
0000
0000
0011
0000
0000
0000
,
1100
0000
1001
0000
0001
0100
0110
0000
,
0010
0000
1000
0010
1000
0000
0001
0100
0001
0000
1000
0100
1000
0000
0001
0010
,
0001
0000
1000
0100
1000
0000
0010
0000
1000
0000
0000
0000
1010
0000
0000
0000
,
1000
0000
0001
0100
0001
0000
0001
0010
0001
0000
0001
0010
0001
0000
0010
0100
,
0010
0000
0100
1000
0100
0000
0000
0000
1001
0000
0000
0000
0000
0000
0000
0000
,
1000
0000
0100
1000
0100
0000
0100
0010
0100
0000
0010
0001
0010
0000
0001
0010
,
0001
0000
0010
0100
0010
0000
0100
1000
0100
0000
1000
0000
1001
0000
0000
0000
,
0001
0000
0100
0001
0100
0000
0001
0000
1000
0000
0010
1000
0010
0000
1000
0000
,
0100
0000
0010
0001
0010
0100
1000
0000
0001
0000
0000
0000
1001
0000
0000
0000
,
1000
0001
1001
0001
0100
0010
0110
0010
,
1000
0001
1001
1000
0100
0010
0011
0000
,
0010
0100
1100
1000
0010
0100
0101
0001
,
0010
0000
0100
0000
1100
0000
0000
0000
1001
0000
0000
0000
1000
0000
0001
1000
,
0001
0000
0000
0001
0100
0000
0010
0000
1000
0000
0010
1000
0010
0000
1000
0000
,
0100
0000
0000
0100
0010
0000
0001
0000
1000
0000
0001
0100
0001
0000
0100
0000
,
0001
0000
1000
0001
1000
0000
0100
1000
0100
0000
0001
0010
0001
0000
1000
0010
,
1000
0000
0001
0000
0100
0000
0010
0000
1000
0000
0000
0100
0010
0000
0001
0000
,
1000
0000
1001
0000
0001
0100
0101
0000
,
1000
0100
1100
0000
0100
0010
0110
0000
,
0001
0010
0011
0000
0010
0100
0110
0000
,
0100
1000
1100
0000
1000
0010
1010
0000
,
0010
0000
0010
0000
0100
0000
0100
0000
0001
0000
0001
1000
0100
0000
0100
0000
,
0010
0000
0010
0000
0001
0000
0001
0000
0010
0000
0010
0100
1000
0000
1000
0000
,
0001
0000
0001
1000
0100
0000
0100
1000
0010
0000
0010
0100
0001
0000
0001
1000
,
0100
0000
0010
0000
0001
0000
0010
0100
1000
0000
0001
0000
1001
0000
0000
0000
,
1000
0001
1000
0001
0100
0000
0010
0000
0110
0000
1010
0000
1001
0000
0000
0000
,
1000
0001
0100
0010
1000
0000
0001
0000
1100
0000
0011
0000
1001
0000
0000
0000
,
0001
0100
0010
1000
0001
0000
1000
0000
1100
0000
0110
0000
0011
0000
0000
0000
,
1001
0000
0000
0001
1000
0000
0010
0000
0110
0000
0000
0010
1000
0000
0001
0000
,
1000
0100
0010
0001
1000
0000
0001
0000
0101
0000
1010
0000
1001
0000
0000
0000
,
1000
0100
0010
0001
1000
0000
0001
0000
0101
0000
1010
0000
1001
0000
0000
0000
,
1000
0100
0010
0001
1000
0000
0001
0000
0010
0100
1000
0001
0100
0000
0010
0000
,
1000
0001
0100
0001
1000
0000
0001
0000
1000
0000
0000
0000
1100
0000
0000
0000
,
1000
0000
0001
0100
0001
0000
0010
0100
0010
0000
0100
1000
0100
0000
1000
0000
,
0010
0000
0100
0001
0100
0000
0001
0010
0001
0000
0010
0000
0100
0000
1000
0000
,
0001
0000
0100
0001
0100
0000
0010
0100
0010
0000
1000
0000
0100
0000
0010
0000
,
0001
0000
0010
0100
0010
0000
0100
1000
0100
0000
1000
0000
0010
0000
0100
0000
,
0001
0000
0100
0001
0100
0000
0010
0100
0010
0000
1000
0000
0100
0000
0010
0000
,
0001
0000
0010
0100
0010
0000
0100
1000
0100
0000
1000
0000
0010
0000
0100
0000
,
0001
0000
1000
0001
0010
0000
0001
0010
0100
0000
1000
0001
0010
0000
0100
1000
,
0100
0010
0001
0010
0100
1000
0100
0010
0001
0010
0100
1000
0001
0100
0010
1000
,
0001
0100
1001
0100
1010
0000
1000
0100
,
1010
0100
1001
0010
0101
0000
1010
1001
,
0000
0000
0001
0100
0020
0000
1000
0000
0130
0000
0110
0000
0101
0000
0010
0000
,
1001
0100
2010
0000
0002
0000
3013
0000
,
1000
0010
1001
0010
0101
0000
0001
0010
,
0101
0010
1001
0100
1010
0000
0101
1001
,
0000
0000
1000
0010
0200
0000
0001
0000
0310
0000
0110
0000
1010
0000
0100
0000
,
1001
0010
0102
0000
2000
0000
3013
0000
,
0110
0000
0000
0000
;

//---------------dance-single - Renard----------------
#NOTES:
     dance-single:
     Renard:
     Easy:
     2:
     0.220,0.284,0.009,0.095,0.000:
0000
0000
0000
0000
,
0000
0000
0000
0000
,
0000
0000
0000
0000
,
0000
0000
0000
0000
,
1000
0000
1000
0001
,
0100
0000
0100
0000
,
0010
0000
0010
1000
,
0001
0000
0100
0000
,
0001
0000
0001
1000
,
0100
0000
0100
0000
,
0010
0000
0010
0001
,
1000
0000
1000
0000
,
0010
0010
0010
0000
,
0100
0200
0301
0002
,
1003
1000
1000
0000
,
0100
0100
0010
0000
,
0001
0000
1000
0000
,
0010
0010
0200
0000
,
0301
1000
0100
0200
,
0320
0000
0032
0000
,
1003
1000
1000
0000
,
0001
0000
0100
0000
,
0001
1000
0001
0000
,
0100
0000
0010
0000
,
1000
0010
1000
0000
,
0001
0100
0001
0000
,
1000
0100
1000
0000
,
0001
0010
0001
0000
,
1000
0010
1000
0000
,
0001
0100
0001
0000
,
1000
0100
0010
0001
,
0010
0100
1000
0001
,
1000
0000
0001
0100
,
0010
1000
0010
0100
,
0001
0000
1000
0100
,
0010
0001
1000
0000
,
0001
0000
0001
0000
,
0001
0000
0001
0000
,
1000
0000
1000
0000
,
1000
0000
1000
0000
,
0010
0000
0010
0000
,
0010
0000
0010
0000
,
0100
0000
0100
0000
,
0100
0000
0100
0001
,
1000
1000
1000
2000
,
3001
0001
0001
0001
,
0100
0100
0100
0200
,
0310
0010
0010
0020
,
0130
0100
0100
0000
,
0001
0001
0001
0001
,
1000
1000
1000
0000
,
0001
0002
2000
3003
,
1000
0001
1000
0000
,
0010
0100
0001
1000
,
0100
0000
0010
0001
,
1000
0010
0100
0000
,
0001
0100
0010
1000
,
0010
0100
0001
1000
,
0100
0000
0100
0010
,
0001
1000
0001
0000
,
0110
0000
0000
0000
;

//---------------dance-single - Renard----------------
#NOTES:
     dance-single:
     Renard:
     Hard:
     8:
     0.553,0.516,0.439,0.000,0.163: // measure 1
0000
0000
0000
0000
,  // measure 2
0000
0000
0000
0000
,  // measure 3
0000
0000
0000
0000
,  // measure 4
0000
0000
0000
0000
,  // measure 5
1000
0000
1001
0000
0001
0100
0001
0000
,  // measure 6
1000
0000
1100
0000
0001
0010
0001
1000
,  // measure 7
0010
0000
0110
0000
0100
0001
1000
0000
,  // measure 8
0100
0000
0000
0000
1100
0000
0000
0000
0100
1000
0000
0100
1000
0000
0100
0000
,  // measure 9
1000
0001
0010
0001
1000
0000
0101
0000
,  // measure 10
0001
0010
0100
1000
0001
0000
1001
0000
,  // measure 11
0001
0100
0010
1000
0100
0000
0110
0000
,  // measure 12
0010
0000
0001
0000
0010
0000
0100
1000
0100
0000
1000
0000
0001
0000
1000
0000
,  // measure 13
0001
0000
0101
0000
1001
0000
1000
0100
,  // measure 14
0010
0001
0010
0100
1000
0000
1000
0001
,  // measure 15
0000
0000
0001
0100
0001
0000
1000
0000
0100
0000
0000
0000
1000
0000
0001
0000
,  // measure 16
0010
0001
1000
0000
1001
0000
0000
1000
,  // measure 17
0010
0000
0010
1000
0000
1000
0001
0100
,  // measure 18
0001
1000
0001
0000
1000
0000
0001
0000
0100
0000
0000
0000
0010
0000
1001
0000
,  // measure 19
0000
1000
0001
0100
0001
1000
0100
0010
,  // measure 20
0110
0000
1001
0000
0110
0000
0010
1000
,  // measure 21
0001
0000
0000
0000
0101
0000
0000
0000
1001
0000
0000
0000
1000
0000
0100
1000
,  // measure 22
0100
1000
0001
0010
0001
0000
0010
0011
,  // measure 23
0000
0000
0001
0010
0001
0000
0010
0000
0100
0000
0000
0000
1000
0000
0100
1000
,  // measure 24
0100
0000
1000
0000
0010
0000
0000
0000
0110
0000
0000
0000
0010
0000
0100
0001
,  // measure 25
0100
0000
0001
1000
0000
0100
1000
0001
,  // measure 26
0010
0000
0001
0000
1000
0000
0010
1000
0010
0000
1000
0000
0010
0000
0100
0000
,  // measure 27
0000
0000
0100
0000
0001
0000
1000
0000
0100
0000
0010
0001
0010
0000
0100
0000
,  // measure 28
1000
0001
0000
0101
0000
0001
1000
0100
,  // measure 29
1000
0000
1001
0001
0100
0000
0101
0000
,  // measure 30
0001
0000
1000
0000
0100
0000
0010
0000
0001
0000
1000
0010
0000
1000
0010
0000
,  // measure 31
1000
0010
0100
0001
1000
0000
0110
0000
,  // measure 32
0010
0000
1000
0000
0100
0000
0010
0000
0001
0000
1000
0001
0000
0100
0001
0000
,  // measure 33
1000
0100
0010
0001
1000
0000
1001
0000
,  // measure 34
0001
0100
0010
1000
0001
0100
0001
1000
,  // measure 35
0100
0010
0001
1000
0001
0000
0101
0000
,  // measure 36
0001
0000
1000
0000
0100
0000
0010
0000
0001
0000
0010
0100
0000
1000
0001
0000
,  // measure 37
0100
0000
0010
0100
0010
0000
0100
0000
0001
0000
1000
0000
0100
0000
0010
0000
,  // measure 38
0001
0000
0100
0010
0000
0100
0010
0000
1000
0000
0100
0000
0010
0000
0001
0000
,  // measure 39
0100
0000
0010
0100
0010
0000
0100
0000
0010
0000
1000
0000
0100
0000
0010
0000
,  // measure 40
0001
0000
0100
0010
0000
0100
0010
0000
1000
0000
0100
0000
0010
0000
0001
0000
,  // measure 41
1000
0000
0010
0100
0010
0000
0100
0000
0001
0000
0010
0000
0100
0000
1000
0000
,  // measure 42
0010
0000
0100
0010
0000
0100
0010
0000
0100
0000
0001
0000
0010
0000
0100
0000
,  // measure 43
1000
0000
0010
0100
0010
0000
0100
0000
0001
0000
0010
0000
0100
0000
1000
0000
,  // measure 44
0010
0000
0100
0010
0000
0100
0010
0000
0100
0000
0001
0000
0010
0000
0100
0000
,  // measure 45
1000
0000
0000
0000
1001
0000
0000
0000
0101
0000
0000
0000
0001
0000
1000
0100
,  // measure 46
1000
0001
0010
0001
1000
0000
1001
0000
,  // measure 47
0001
0000
0100
0000
0010
0000
1000
0000
0100
0000
0010
0000
0001
0000
1000
0001
,  // measure 48
1000
0101
1001
1100
,  // measure 49
1000
0000
0001
0010
0001
0000
1000
0000
0010
0000
0100
0000
0001
0000
0010
0001
,  // measure 50
0010
0000
0000
0000
0110
0000
0100
1000
0100
0000
0000
0000
1100
0000
1000
0000
,  // measure 51
0010
0000
0100
0000
0001
0000
0010
0000
0100
0000
1000
0000
0001
0000
0100
0001
,  // measure 52
0100
0001
1000
0100
0010
0001
1000
0010
,  // measure 53
0100
0000
0101
0000
0110
0000
0010
1000
,  // measure 54
0100
0010
0001
1000
0010
0000
0110
0101
,  // measure 55
0000
0000
1001
0000
1100
0000
1001
0000
1010
0000
0000
0000
1000
0000
0010
1000
,  // measure 56
0001
0100
0001
0000
1001
0000
0001
0100
,  // measure 57
0110
0000
1100
1100
0000
0000
0110
0101
,  // measure 58
1001
0000
1100
1100
1100
0000
0100
0010
,  // measure 59
0000
0000
0001
0010
0001
0000
0010
0000
0100
0000
1000
0000
0001
0000
0100
0000
,  // measure 60
0010
0000
1000
0010
1000
0000
0010
0000
0000
0000
0100
0000
0001
0000
1000
0000
,  // measure 61
0110
0000
0000
0000
;

//---------------dance-single - Renard----------------
#NOTES:
     dance-single:
     Renard:
     Medium:
     5:
     0.409,0.439,0.129,0.052,0.000:
0000
0000
0000
0000
,
0000
0000
0000
0000
,
0000
1000
0000
0000
0000
0000
0000
0000
,
0000
0000
0000
0000
,
1000
0000
0001
0000
1000
0001
1000
0000
,
0001
0000
0100
0000
0010
0100
0010
0000
,
1000
0000
0001
0100
0002
0000
2003
0000
,
3001
0100
0001
1001
,
1000
0000
0100
0010
0002
0000
2003
0000
,
3001
0100
0001
1000
,
0100
0000
0010
0001
2000
0000
3002
0000
,
0103
0001
1001
1100
,
1000
0000
1000
0100
1000
0000
1000
0100
,
1000
0000
1000
0100
1000
0000
1000
0100
,
0010
0000
0010
0001
0010
0000
0010
0001
,
0010
0000
0010
0001
0010
0000
0001
0000
,
0001
0000
0001
0100
0010
0000
0010
0100
,
0001
0000
0001
0100
0010
0000
0010
1000
,
0100
0000
0100
1000
0010
0000
0010
1000
,
0100
0010
0001
1000
0001
0000
1001
0000
,
0101
0000
0101
0000
0101
0000
0010
1000
,
0010
1000
0010
1000
0010
0000
1000
0010
,
0000
0000
1000
0100
1000
0000
0000
0001
,
0010
0001
0010
0000
0001
0000
0000
1000
,
0100
0000
0100
0010
0000
0000
0010
0001
,
1000
0001
0100
0010
1000
0000
1000
0001
,
0000
0001
0100
0010
1000
0100
0010
0001
,
0010
0100
0000
1100
0000
0000
0000
0000
,
1000
0000
1000
0001
0100
0000
1001
0000
,
1000
0000
0100
0010
0001
0000
0010
0000
,
0100
0000
1000
0010
0100
0000
1001
0000
,
0010
0000
0100
1000
0010
0000
0100
0000
,
0001
0000
0100
0010
1000
0000
1001
0000
,
1000
0100
0010
0001
,
0010
0000
0010
0100
1000
0000
0010
0000
,
0100
0001
0100
0010
0100
1000
0100
0010
,
0100
0100
0100
0100
,
0010
1000
0010
1000
0010
0000
1000
0000
,
0010
0010
0010
0010
,
0100
0001
0100
0001
0100
0000
0100
0000
,
0010
0010
0010
0010
,
1000
1000
1000
1000
,
0001
0100
0001
0100
0001
0100
0001
0100
,
0010
1000
0100
0010
0001
1000
0001
1000
,
0001
0000
0001
0000
0001
0000
0100
0010
,
0100
0010
1000
0001
1000
0000
0100
0000
,
0010
0000
0010
0000
0010
0000
0001
0010
,
0100
1000
0001
0100
0010
0000
0010
0000
,
1000
0000
1000
0000
1000
0000
0010
0100
,
0001
0100
0010
1000
0010
0000
0100
0000
,
0001
0000
0001
0100
0010
1000
0010
0100
,
0001
0010
0100
1000
0001
0000
0100
0001
,
0100
0000
0101
0000
0110
0000
0010
1000
,
0100
0010
0001
1000
0100
0000
0100
1000
,
0000
1000
0001
0010
0001
0000
1000
0001
,
0100
0001
1000
0000
1001
0000
1000
0100
,
0010
0000
0001
0010
0000
0000
0100
1000
,
0010
0100
0001
0100
0010
0000
0010
1000
,
0000
1000
0010
0100
0001
0010
0100
1000
,
0010
0100
0001
1000
0100
0010
0001
0000
,
1001
0000
0000
0000
;
