#TITLE:Change the Formality;
#SUBTITLE:;
#ARTIST:Infected Mushroom;
#TITLETRANSLIT:;
#SUBTITLETRANSLIT:;
#ARTISTTRANSLIT:;
#CREDIT:;
#BANNER:change.png;
#BACKGROUND:change-bg.png;
#LYRICSPATH:;
#CDTITLE:;
#MUSIC:change.ogg;
#OFFSET:0.000;
#SAMPLESTART:33.083;
#SAMPLELENGTH:12.000;
#SELECTABLE:YES;
#BPMS:0.000=145.000;
#STOPS:;
#BGCHANGES:;

//---------------dance-single - Renard----------------
#NOTES:
     dance-single:
     Renard:
     Challenge:
     10:
     0.731,0.844,0.427,0.021,0.735: // measure 1
0000
0000
0000
0000
,  // measure 2
0000
0000
0000
0000
,  // measure 3
0000
0000
0000
0000
,  // measure 4
0000
0000
0000
0000
,  // measure 5
1000
0000
0001
0000
1001
0000
0010
0100
0000
0001
1000
0000
1001
0000
0000
0000
,  // measure 6
1000
0000
0100
0000
1100
0000
0010
0001
0000
1000
0001
0000
0101
0000
0000
0000
,  // measure 7
0001
0000
0100
0000
0110
0000
0010
1000
0000
0100
1000
0000
1100
0000
0000
0000
,  // measure 8
1000
0000
0001
0000
0101
0000
0100
0010
0000
1000
0100
1000
0100
0000
1000
0000
,  // measure 9
0001
0000
0010
0000
0011
0000
0010
0100
0000
1000
0001
0000
0110
0000
1000
0000
,  // measure 10
0010
0000
1000
0000
1100
0000
0000
0010
0001
0010
0100
0000
0110
0000
0100
1000
,  // measure 11
0010
0000
0100
0000
0110
0000
0100
0001
0000
0010
0100
1000
0001
0000
1000
0000
,  // measure 12
0001
0010
0100
1000
0010
0100
0001
0010
0100
1000
0001
0000
0001
0000
0001
0000
,  // measure 13
1000
0000
0000
1000
0001
0000
0100
0000
0010
0000
1000
0000
0100
0000
0010
0000
,  // measure 14
0100
0010
0100
0000
1000
0001
1000
0000
0001
0100
0001
0000
0100
0000
0010
0000
,  // measure 15
1000
0000
0100
0000
0010
0000
0001
0010
0001
0000
0010
0000
0100
0000
1000
0000
,  // measure 16
1001
0000
0001
0100
0000
0110
0110
0000
,  // measure 17
0010
0000
0000
1000
0000
0000
1100
0000
0000
0000
1000
0100
0010
0000
0001
0000
,  // measure 18
0011
0000
0000
0011
0000
0000
0011
0000
0000
0000
0010
0100
0010
0000
0100
0000
,  // measure 19
1000
0000
0001
0000
0100
0000
0010
0000
1000
0000
0000
1000
0010
0000
1000
0000
,  // measure 20
0000
0000
0010
0000
0100
0000
0001
0000
0010
0000
0100
1000
0001
0010
0100
1000
,  // measure 21
0001
0000
0000
0001
1000
0000
0010
0000
0100
0000
0001
0000
0010
0000
0100
0000
,  // measure 22
1000
0100
1000
0000
0001
0010
0001
0000
1000
0000
0010
0000
0100
0000
0001
0000
,  // measure 23
0010
0000
0100
0010
0100
0000
1000
0001
1000
0000
0001
0100
0001
0000
0100
0000
,  // measure 24
0110
0000
1010
1010
0000
1001
1001
0000
,  // measure 25
1000
0000
0100
0010
0000
0000
0001
0000
0000
0000
0010
0000
0100
0000
1000
0000
,  // measure 26
0001
0000
0100
0010
0000
0000
1000
0000
0000
1000
0010
0000
0010
0000
1000
0000
,  // measure 27
0100
0000
0010
0000
0001
0000
0010
0000
0100
0000
1000
0100
1000
0000
0001
0000
,  // measure 28
0010
0000
0001
1000
0001
0000
0100
0000
0010
0000
0010
0100
0000
0010
0000
0000
,  // measure 29
0010
1000
0001
0100
0000
0100
0001
0010
0100
1000
0000
1000
0100
0010
0001
1000
,  // measure 30
0010
0100
0001
0100
0000
0100
0010
1000
0100
0010
0000
0010
0100
1000
0010
0100
,  // measure 31
0001
0010
0100
1000
0000
1000
0001
0100
0010
1000
0000
1000
0100
1000
0001
0010
,  // measure 32
0100
1000
0001
0100
0000
0100
0001
0100
0010
1000
0100
0010
0001
0010
0100
1000
,  // measure 33
0001
0100
0010
1000
0000
1000
0010
1000
0001
0010
0000
0100
0010
0001
1000
0010
,  // measure 34
0100
0001
0100
0010
0000
0010
1000
0100
0010
0001
0000
0001
0010
0100
1000
0001
,  // measure 35
0100
0010
1000
0100
0000
1000
0001
0010
0100
1000
0000
1000
0001
0100
0010
1000
,  // measure 36
0100
0010
0001
0010
0100
1000
0001
0100
0000
0000
0000
0000
0000
0000
0000
0000
,  // measure 37
1001
0000
0000
0001
1000
0000
0001
0100
0000
0010
1000
0000
1010
0000
0000
0000
,  // measure 38
1000
0000
0100
0000
1100
0000
1000
0001
0000
0010
0001
0000
1001
0000
0000
0000
,  // measure 39
0001
0000
0100
0000
0110
0000
0010
1000
0000
0100
0010
0000
0001
0000
0010
0000
,  // measure 40
0110
0000
0110
1001
0000
1001
0110
0000
,  // measure 41
0010
0000
1000
0010
0000
0000
0101
0000
0000
0000
0101
0000
0101
0000
0000
0000
,  // measure 42
0010
0000
1000
0100
0000
0000
0010
0000
0000
0000
0110
0000
0110
0000
0000
0000
,  // measure 43
0100
0000
1000
0000
0010
0000
0100
0001
0000
0100
0010
0000
1010
0000
0000
0000
,  // measure 44
1000
0000
0100
0000
0010
0000
0001
0010
0100
1000
0001
0010
0100
1000
0001
0100
,  // measure 45
0010
0000
0100
0001
0000
0000
1000
0000
0010
1000
0000
0000
0100
0000
0010
0000
,  // measure 46
0001
0000
0010
0100
0000
0000
1000
0000
0001
0010
0000
0000
0100
0000
1000
0000
,  // measure 47
0010
0000
0100
0001
0000
0000
0100
0000
0010
1000
0000
0000
0001
0000
0010
0100
,  // measure 48
1000
0000
0010
0100
0000
0001
0010
0000
0100
0000
1000
0000
0001
0000
0010
0000
,  // measure 49
0100
0000
1000
0001
0000
0000
0010
0000
0001
1000
0000
0000
0010
0000
0100
0000
,  // measure 50
0001
0000
0010
0100
0000
0000
1000
0000
0001
0000
0100
0000
0010
0000
1000
0000
,  // measure 51
0100
0000
0010
0001
0000
0010
0100
0000
1000
0000
0001
0000
0010
0000
0100
0000
,  // measure 52
1000
0000
0010
0100
0000
0001
0100
0000
0010
0000
1000
0000
0100
0010
0001
0000
,  // measure 53
2200
0000
0000
0000
,  // measure 54
0000
0000
0000
0000
,  // measure 55
3300
0000
0000
0000
;

//---------------dance-single - Renard----------------
#NOTES:
     dance-single:
     Renard:
     Hard:
     8:
     0.512,0.535,0.302,0.021,0.130:
0000
0000
0000
0000
,
0000
0000
0000
0000
,
0000
0000
0000
0000
,
0000
0000
0000
0000
,
0001
0000
0000
0000
1001
0000
0000
1000
0000
0000
0100
0000
0010
0000
0001
0000
,
0010
0000
0000
0000
0011
0000
0000
0010
0000
0000
0100
0000
1000
0000
0010
0000
,
0100
0000
0000
0000
0110
0000
0000
0010
0000
0000
1000
0000
0100
0000
0010
0000
,
0001
0000
0000
0000
1001
0000
0000
0001
0000
0000
0100
0000
0010
0000
1000
0000
,
0100
0000
0000
0000
1100
0000
0000
1000
0000
0000
0001
0000
0101
0000
0000
0000
,
0001
0000
0000
0000
0011
0000
0000
0010
0000
0000
0100
0000
1100
0000
0000
0000
,
1000
0000
0000
0000
1010
0000
0000
0100
0000
0000
0001
0000
0011
0000
0000
0000
,
0010
0100
1000
0001
0010
0100
1000
0001
,
0100
0000
0100
0010
1000
0010
0001
0010
,
0100
0001
1000
0100
0010
0001
0011
0000
,
0010
0100
0001
0100
1000
0010
0001
0010
,
0100
0000
0100
0010
0000
0110
0110
0000
,
0010
1000
0010
0001
0000
0001
0010
0100
,
0001
0100
1000
0100
0000
0100
0010
1000
,
0010
0100
0001
0010
1000
0001
0100
1000
,
0100
0001
0100
0010
0001
0010
0100
1000
,
1001
0000
0001
0100
0010
1000
0100
0010
,
0001
0001
0010
0010
0100
1000
1100
0000
,
1000
0010
0100
0001
0010
0100
1000
0010
,
0100
0000
0100
0010
0000
1001
1001
0000
,
0001
0000
0000
0100
0000
0000
0010
0000
0000
0000
1000
0010
1000
0000
0000
0000
,
0100
0000
0000
0010
0000
0000
0001
0000
0000
0000
1000
0001
1000
0000
0000
0000
,
0001
0000
0000
0100
0000
0000
0010
0000
1000
0000
0000
0000
1000
0000
0010
0000
,
0000
0000
1000
0000
0100
0000
0010
0000
0001
0000
0000
0001
0000
0001
0000
0000
,
1000
0000
0001
0100
0010
0000
1000
0100
,
0010
0000
0000
0000
0001
0000
0010
0000
0100
0000
1000
0100
1000
0000
0000
0000
,
0001
0000
0010
0100
1000
0000
0010
0100
,
0001
0000
0000
0000
0010
0000
0001
0000
1000
0000
0001
1000
0001
0000
0000
0000
,
1000
0000
0001
0100
0010
0000
1000
0100
,
1000
0000
0000
0000
0001
0000
0010
0000
0001
0000
1000
0001
1000
0000
0001
0000
,
0100
0000
0000
0000
0010
0000
1000
0000
0100
0000
0010
0100
0010
0000
0100
0000
,
1000
0000
0000
0000
0001
0100
0001
0100
0000
0000
0000
0000
0000
0000
0000
0000
,
0001
0000
0001
0100
0010
1000
0100
0010
,
0001
0001
0010
0010
0100
1000
0000
0000
,
0100
0100
1000
0010
0100
0001
0010
0100
,
0010
0000
0010
0100
0000
0110
0110
0000
,
0100
0000
0000
1000
0000
0000
0010
0000
0000
0000
0001
0000
0010
0000
0100
0000
,
1000
0000
0000
0100
0000
0000
0001
0000
0000
0000
0010
0000
0100
0000
0001
0000
,
0100
0000
0000
1000
0000
0000
0010
0000
0001
0000
0000
0000
0001
0000
0010
0000
,
0000
0010
0100
1000
0100
0001
0010
0100
,
1000
0000
1000
0100
0010
0001
0010
0000
,
0110
0000
0100
1000
0010
0100
0001
0000
,
0101
0000
0001
0100
0000
0100
1000
0100
,
0010
0000
1000
0000
0100
0000
0010
0000
0001
0000
0010
0001
0010
0000
0100
0000
,
0010
0000
0110
0110
0000
1001
1001
0000
,
0001
0000
0100
0010
0100
0000
0010
0000
0000
0000
0110
0000
0110
0000
0000
0000
,
0010
1000
0100
0010
0000
0110
0110
0000
,
0100
1000
0010
0001
0010
0100
0010
2000
,
0020
0000
0000
0000
,
0000
0000
0000
0000
,
3030
0000
0000
0000
;

//---------------dance-single - Renard----------------
#NOTES:
     dance-single:
     Renard:
     Medium:
     6:
     0.374,0.422,0.219,0.021,0.031:
0000
0000
0000
0000
,
0000
0000
0000
0000
,
0000
0000
0000
0000
,
0000
0000
0000
0000
,
1000
0101
0000
0110
,
0010
1000
0100
0000
0010
0000
0011
0000
,
0010
0110
0000
1100
,
1000
0001
1000
0000
0001
0000
0101
0000
,
0100
0110
0000
1001
,
1000
0100
0010
0000
0001
0000
1001
0000
,
0001
0101
0000
0110
,
0010
1000
0100
0000
1000
0001
0010
0001
,
1000
0000
1000
0000
0001
0100
0001
0000
,
0100
0010
0100
0010
0100
0010
0000
0000
,
1000
1000
0010
0010
,
0100
0000
0000
0001
0000
0010
0001
0000
,
0010
0000
0000
0010
0000
0000
0010
0000
0000
0000
0000
0000
0100
0000
0000
0000
,
1000
0000
0000
1000
0000
0000
1000
0000
0000
0000
0010
0000
0100
0000
0000
0000
,
0001
0000
0000
0100
0000
0000
0010
0000
1000
0000
0000
0000
0001
0000
0000
0000
,
1000
0100
0010
0001
,
1000
0000
0001
0000
0100
0010
0100
0000
,
0010
1000
1000
0000
,
0001
0100
0001
1000
,
1100
0000
0000
0011
0000
0000
0000
0000
,
1001
1001
1001
0000
,
0110
0110
0110
0000
,
0010
0010
1000
0001
,
0100
0001
1000
0000
,
0001
0000
0001
0000
0100
0010
0100
0010
,
1000
0000
1000
0000
0100
0010
0100
0010
,
0001
0000
0001
0000
0100
0010
0100
0010
,
1000
0010
0100
0010
1000
0010
0100
0010
,
1000
0000
1000
0000
0100
0010
0100
0010
,
0001
0000
0001
0000
0100
0010
0100
0010
,
1000
0010
1000
0000
0001
0100
0001
0000
,
1000
0100
0010
0001
0000
0000
0000
0000
,
1000
0101
0000
1010
,
1000
0100
0010
0001
1000
0100
0000
0000
,
1000
0000
0001
0000
0010
0000
0100
1000
,
0001
0000
0001
0100
0000
0000
0100
0000
,
0010
0000
0000
1000
0000
0000
0010
0000
0000
0000
1000
0000
0100
0000
0010
0000
,
0001
0000
0000
0001
0000
0000
0001
0000
0000
0000
0010
0000
0100
0000
0000
0000
,
1000
0000
0000
0001
0000
0000
0100
0000
0010
0000
0000
0000
1000
0000
0010
0000
,
0000
1000
0100
0010
0001
0010
0100
1000
,
0001
0000
0100
0000
0010
0000
1000
0010
,
1000
0100
0010
0001
,
1000
1000
0001
0001
,
0100
0000
0010
0100
0010
0000
1000
0001
,
1000
0000
0001
0000
0100
0000
0010
1000
,
0010
0000
0100
0000
0001
0000
0010
0100
,
0010
0100
1000
0010
,
0100
0000
0100
0000
0001
0010
0100
2000
,
0002
0000
0000
0000
,
0000
0000
0000
0000
,
3003
0000
0000
0000
;

//---------------dance-single - Renard----------------
#NOTES:
     dance-single:
     Renard:
     Easy:
     2:
     0.256,0.310,0.135,0.021,0.000:
0000
0000
0000
0000
,
0000
0000
0000
0000
,
0000
0000
0000
0000
,
0000
0000
0000
0000
,
1000
1001
0000
1001
,
0001
1001
0000
1001
,
0010
0010
0100
0100
,
0010
0010
0100
0000
,
0010
0110
0000
1001
,
0000
0110
0000
1001
,
1000
1000
0001
0001
,
1000
0001
1001
1001
,
0001
0001
1000
1000
,
0001
1000
0001
1000
0001
0000
0000
0000
,
1000
0001
0100
0010
,
1000
0000
0000
0100
0000
0000
0000
0000
,
1000
0000
0000
1000
0000
0000
0000
0000
,
0001
0000
0000
0001
0000
0000
0000
0000
,
0100
0000
0010
0000
1000
0000
0000
0001
,
0000
0000
0000
1000
,
0001
0001
1000
1000
,
0001
1000
0001
0000
,
0100
0000
0010
0000
,
0110
0000
0000
0110
0000
0000
0000
0000
,
0010
0010
0010
0000
,
0100
0100
0100
0000
,
0010
1000
0001
1000
,
0100
0010
0001
0000
,
0001
0001
0010
0000
,
0010
0010
0100
0000
,
0100
0100
1000
0000
,
1000
0010
0100
0001
,
1000
1000
0100
0000
,
0010
0010
0001
0000
,
1000
1000
0001
0000
,
0100
0001
0000
0000
,
1000
1000
0001
0001
,
0100
0000
0010
0100
0010
0000
0000
0000
,
1000
0000
0001
0000
,
0100
0000
0000
0010
0000
0000
0000
0000
,
1000
0000
0000
1000
0000
0000
0000
0000
,
0001
0000
0000
0001
0000
0000
0000
0000
,
0100
0001
1000
0100
,
0010
0010
0001
0001
,
1000
0000
0001
0000
1000
0000
0001
1000
,
0001
1000
0001
0001
,
0100
0000
0010
0000
0100
0000
0010
0100
,
0010
0010
0100
0000
,
0010
0000
1000
0000
0010
0000
1000
0010
,
1000
1000
0010
0000
,
0100
0000
0001
0100
0001
0000
0100
0000
,
0001
1000
0100
0010
,
2002
0000
0000
0000
,
0000
0000
0000
0000
,
3003
0000
0000
0000
;
