#TITLE:Cerberus' Breath;
#SUBTITLE:;
#ARTIST:D-Mode-D;
#TITLETRANSLIT:;
#SUBTITLETRANSLIT:;
#ARTISTTRANSLIT:;
#CREDIT:;
#BANNER:breath.png;
#BACKGROUND:breath-bg.png;
#LYRICSPATH:;
#CDTITLE:;
#MUSIC:breath.ogg;
#OFFSET:0.000;
#SAMPLESTART:44.795;
#SAMPLELENGTH:12.000;
#SELECTABLE:YES;
#BPMS:0.000=182.000;
#STOPS:;
#BGCHANGES:;

//---------------dance-single - Renard----------------
#NOTES:
     dance-single:
     Renard:
     Hard:
     9:
     0.617,0.840,0.920,0.152,0.152:
0000
0000
0000
0000
,
0000
0000
0000
0000
,
0000
0000
0000
0000
,
0000
0000
0000
0000
,
1000
0000
0001
0000
1000
0000
0000
0110
0000
0000
0110
0000
0000
0000
0000
0000
,
0010
0000
1000
0000
0100
0000
0000
0010
0000
0000
0110
0000
0000
0000
0000
0000
,
0010
0000
0001
0000
1000
0000
0000
0001
0000
0000
1001
0000
0000
0000
0000
0000
,
0001
0000
0100
0000
0010
0000
0000
0100
0000
0000
0010
0000
1001
0000
0000
0000
,
2000
0000
0000
0000
0000
0200
0000
0000
,
0020
0000
0000
3331
,
0002
0000
0000
0000
0000
0200
0000
0000
,
0020
0000
0000
1333
,
2000
0000
0000
0000
0000
0200
0000
0000
,
0020
0000
0000
3331
,
1001
0000
0000
0110
0000
0000
0101
0000
,
0000
1100
0000
0000
0110
0000
0101
0000
,
0000
0000
0000
0000
,
0000
0000
0000
0000
,
0110
0110
1001
1001
,
1100
0000
0000
0000
1100
0000
0000
0000
0011
0000
0000
0001
0010
0000
0000
0000
,
0011
0000
0110
0000
0100
1000
0010
0000
,
0100
0000
0000
0000
0001
0000
0000
0100
0000
0000
0010
0000
0000
0000
1000
0000
,
0100
0110
0100
1100
,
1000
0000
0000
0000
1010
0000
0000
0000
0010
0000
0000
0100
0001
0000
0000
0100
,
0010
1000
1100
1001
,
0201
0000
0310
0000
2002
0000
0000
3003
,
1000
0000
1000
0001
0000
0001
0100
0000
0000
0010
0000
1000
,
0100
0000
0010
0000
0001
0000
0010
0000
0000
0000
0100
0000
1000
0000
0000
0001
0000
0000
0001
0000
0000
0000
0000
0000
,
1000
0000
0001
0000
0100
0000
0000
0010
0000
0000
1000
0000
0100
0000
0010
0000
,
0001
0000
0010
0000
0100
0000
0000
1000
0000
0000
0010
0000
0100
0000
0001
0000
,
0100
0000
0010
1000
0000
0001
0100
0000
,
0010
0000
1000
0000
0000
0000
0001
0000
0000
0000
1000
0001
1000
0000
0001
0000
,
1000
0000
1001
0000
0001
0100
0010
0000
,
0110
1001
1100
0011
,
1001
1001
0110
0110
,
1001
1001
0110
0110
,
1010
0000
0000
1010
0000
0000
1010
0000
0000
0101
0000
0000
0101
0000
0000
0101
,
0000
0000
1001
0000
0000
1001
0000
0000
1001
0000
0000
0110
0000
0000
0020
0000
,
0230
0301
0200
1300
,
0200
0310
0100
1001
,
0101
0000
0000
0101
0000
0000
0101
0000
0000
1001
0000
0000
1001
0000
0000
0001
,
1000
0000
0000
1100
0000
0000
0110
0000
0000
0110
0000
0000
0011
0000
0000
0000
,
0010
0000
0110
0000
0100
1000
0010
0100
,
0001
0000
0101
0000
0001
0100
0010
0000
,
0010
0000
1010
0000
0001
0101
0000
0000
,
0100
0000
0110
0000
0010
1010
0000
0001
,
1000
1100
0010
0011
,
0001
0101
0100
1100
,
0100
0010
1000
0100
0010
0001
0010
0100
,
1000
0001
1001
0100
1001
0000
0110
0000
,
0000
0000
0000
0000
,
0000
0000
0000
0000
,
0000
0000
0000
0000
,
1100
1100
1100
1100
1100
1100
1100
1100
,
0011
0011
0011
0000
0011
0011
0011
0000
,
0001
0010
0100
1000
0010
0100
0001
0100
,
0010
0010
0010
0000
0010
0010
0010
0000
,
1000
0000
0100
0000
0010
0001
0000
0001
,
0010
0000
0010
0100
0000
0100
1000
0010
,
1000
1010
0101
0101
,
0011
0000
0011
0000
0010
0100
1000
0001
,
0010
0001
0010
0001
0010
0001
0010
0001
,
0010
0010
0010
0000
0010
0010
0010
0000
,
0100
1000
0010
0100
0001
0100
0010
1000
,
0100
0100
0100
0000
0010
0010
0010
0000
,
0001
0000
0011
0000
0010
0100
0000
0100
,
1000
0000
1000
0010
0000
0010
0100
0001
,
0100
0101
0100
0110
,
0010
0000
1010
0000
1000
0100
0010
0001
,
0010
0001
0010
0100
,
1000
0000
0000
0000
0010
0000
0000
0000
0100
0000
0000
0100
0001
0000
0000
0001
,
0100
0010
1000
0100
,
0010
0000
0000
0000
0001
0000
0000
0010
0000
0000
0100
0000
0000
0000
1000
0000
,
0010
0100
0001
0100
,
0010
0000
0000
0000
1000
0000
0000
0000
0100
0000
0000
0100
0010
0000
0000
0010
,
0001
0010
0100
1000
,
0001
0000
0001
1000
0000
1000
0010
0000
,
0110
0000
0000
0000
;

//---------------dance-single - Renard----------------
#NOTES:
     dance-single:
     Renard:
     Medium:
     6:
     0.424,0.475,0.341,0.038,0.000:
0000
0000
0000
0000
,
0000
0000
0000
0000
,
0000
0000
0000
0000
,
0000
0000
0000
0000
,
1000
0000
0001
0000
0000
0100
0001
0000
,
1000
0000
0100
0000
0000
0010
0001
0000
,
1000
0000
0010
0000
0000
1000
0001
0000
,
0100
0000
0001
0000
0000
1000
0100
0000
,
2000
0000
0000
0000
0000
3001
0000
0000
,
0200
0000
0000
0000
0000
0010
0310
0000
,
0020
0000
0000
0000
0000
0130
0000
0000
,
0002
0000
0000
0000
0000
1000
1003
0000
,
1001
0000
0000
0000
0110
0000
0000
0010
,
0000
1000
0010
0000
1001
0000
0000
0000
,
1000
0000
1000
0001
0000
0001
1000
0000
,
1000
0010
0000
0010
0100
0000
0110
0000
,
0000
0000
0000
0000
,
0000
0000
0000
0000
,
0010
0010
0100
0100
,
0010
0000
0010
0000
0100
0010
0100
0000
,
0010
0000
0110
0000
0000
0001
1000
0000
,
1000
0000
1100
0000
0000
0010
0001
0000
,
1000
0000
1001
0000
0000
0001
0100
0000
,
0001
0000
1001
0000
0000
1000
0100
0000
,
1000
0001
0010
0001
,
1000
0010
0100
0000
,
0010
0010
0100
0100
,
0010
0100
0010
0110
,
0010
1000
0001
1000
,
0100
0010
0001
1000
,
0100
0000
1000
0100
0000
1000
0001
0000
,
1000
0010
0000
1000
0000
0000
0001
0000
,
0100
0001
1000
0100
,
0010
0001
1000
1001
,
0110
0010
1000
1000
,
0001
0001
0100
0100
,
0001
1001
1000
1001
,
0001
1001
1000
1001
,
0001
0100
0010
1000
,
0100
0010
0001
1000
,
1000
1001
0001
1001
,
0001
0000
0000
1000
0000
0000
1001
0000
,
1000
1001
0000
0101
,
0001
1001
0000
1100
,
1000
1001
0000
0101
,
0000
1001
0000
1010
,
1000
1001
0000
0011
,
0001
1001
0000
1010
,
1001
0000
0110
0000
,
1001
1001
0110
0000
,
0000
0000
0000
0000
,
0000
0000
0000
0000
,
0000
0000
0000
0000
,
0010
0010
0010
0010
,
0100
0100
0100
0000
0100
0100
0100
0000
,
0010
1000
0100
0010
,
0001
0001
0001
0000
0001
0001
0001
0000
,
0010
0000
0100
0000
1000
0100
0000
1000
,
0100
0000
1000
0100
0000
1000
0100
1000
,
0001
0001
0010
0010
,
0100
0100
1000
1000
,
0001
1000
0001
1000
0001
1000
0001
1000
,
0001
1000
0001
0000
1000
0001
1000
0000
,
0010
0000
0100
0000
0000
0001
1000
0000
,
0010
0000
0100
0000
0000
0001
1000
0000
,
0001
0000
0001
0000
0100
0010
0000
0100
,
0010
0000
1000
0010
0000
1000
0100
0010
,
0001
0001
0010
0010
,
0100
1000
0001
1000
,
0001
0001
1000
1000
,
0001
0001
0100
0100
,
0001
0001
1000
1000
,
0001
0010
0100
0000
,
0100
0100
1000
1000
,
0001
0010
0001
1000
,
0010
0010
0100
0100
,
0001
0000
1000
0001
0000
0100
0001
0000
,
1001
0000
0000
0000
;

//---------------dance-single - Renard----------------
#NOTES:
     dance-single:
     Renard:
     Easy:
     3:
     0.295,0.402,0.190,0.019,0.000: // measure 1
0000
0000
0000
0000
,  // measure 2
0000
0000
0000
0000
,  // measure 3
0000
0000
0000
0000
,  // measure 4
0000
0000
0000
0000
,  // measure 5
0000
1001
0000
1001
,  // measure 6
0000
0110
0000
0110
,  // measure 7
0000
1001
0000
1001
,  // measure 8
0000
0110
0000
0110
,  // measure 9
0010
0000
0000
0000
,  // measure 10
0010
0000
0000
0100
,  // measure 11
0010
0000
0000
0000
,  // measure 12
0010
0000
0000
0100
,  // measure 13
0001
0000
0000
1000
,  // measure 14
0001
0000
0000
1000
,  // measure 15
0001
0000
0001
0000
,  // measure 16
1000
0001
0100
0010
,  // measure 17
0000
0000
0000
0000
,  // measure 18
0000
0000
0000
0000
,  // measure 19
0010
0010
0010
0010
,  // measure 20
0010
0010
0010
1001
,  // measure 21
1000
0001
0000
0001
,  // measure 22
1000
0100
0000
0100
,  // measure 23
0010
0001
0000
0001
,  // measure 24
1000
0001
0000
0001
,  // measure 25
0100
0010
0000
0010
,  // measure 26
1000
0001
1000
0000
,  // measure 27
0001
0001
0001
0001
,  // measure 28
1000
1000
1000
0000
,  // measure 29
0001
0100
0001
1000
,  // measure 30
0001
0010
0001
1000
,  // measure 31
0001
0100
0000
0100
,  // measure 32
0000
0100
0000
0100
,  // measure 33
0010
1000
0001
0100
,  // measure 34
0010
1000
0001
2000
,  // measure 35
3001
0001
0100
0100
,  // measure 36
0001
0001
1000
1000
,  // measure 37
0000
1100
0000
1100
,  // measure 38
0000
0011
0000
0011
,  // measure 39
1000
1000
0001
0001
,  // measure 40
1000
1000
0001
0001
,  // measure 41
0100
0000
0100
0000
,  // measure 42
0010
0000
0010
0000
,  // measure 43
0100
0100
0001
0001
,  // measure 44
0100
0100
0001
0001
,  // measure 45
1000
0000
1000
0000
,  // measure 46
1000
0000
1000
0000
,  // measure 47
0001
0001
0100
0100
,  // measure 48
0001
0001
0100
0100
,  // measure 49
0001
0000
0001
0000
,  // measure 50
1000
0000
1000
2000
,  // measure 51
0000
0000
0000
0000
,  // measure 52
0000
0000
0000
0000
,  // measure 53
0000
0000
0000
0000
,  // measure 54
3001
0001
0001
0001
,  // measure 55
0001
0110
0001
0110
,  // measure 56
1000
1000
1000
1000
,  // measure 57
1000
0110
1000
0110
,  // measure 58
1000
1000
0001
0000
,  // measure 59
0001
0000
0001
0000
,  // measure 60
0010
0000
0100
0000
,  // measure 61
0010
0000
0100
0000
,  // measure 62
1000
1000
1000
1000
,  // measure 63
1000
0110
1000
0110
,  // measure 64
0001
0000
0010
0000
,  // measure 65
0100
0100
0100
0100
,  // measure 66
1000
0000
0001
0000
,  // measure 67
0100
0000
0001
1000
,  // measure 68
0100
0000
0010
0000
,  // measure 69
0001
0000
1000
0001
,  // measure 70
1000
0000
0001
0000
,  // measure 71
0100
0000
0001
0001
,  // measure 72
0010
0000
0001
0000
,  // measure 73
1000
0000
0001
0000
,  // measure 74
0100
0000
0001
0000
,  // measure 75
1000
0000
0100
0100
,  // measure 76
0010
0000
0001
0000
,  // measure 77
1000
0000
0010
0100
,  // measure 78
1001
0000
0000
0000
;
