#TITLE:Cash Money;
#SUBTITLE:;
#ARTIST:Hardcore Music Terror;
#TITLETRANSLIT:;
#SUBTITLETRANSLIT:;
#ARTISTTRANSLIT:;
#CREDIT:;
#BANNER:money.png;
#BACKGROUND:money-bg.png;
#LYRICSPATH:;
#CDTITLE:;
#MUSIC:money.ogg;
#OFFSET:0.000;
#SAMPLESTART:12.352;
#SAMPLELENGTH:12.000;
#SELECTABLE:YES;
#BPMS:0.000=170.000;
#STOPS:;
#BGCHANGES:;

//---------------dance-single - Renard----------------
#NOTES:
     dance-single:
     Renard:
     Hard:
     9:
     0.559,0.618,0.444,0.132,0.123:
0000
0000
0000
0000
,
0000
0000
0000
0000
,
0000
0000
0000
0000
,
0000
0000
0000
0000
,
0000
0000
0000
0000
,
0000
0000
0000
0000
,
0000
0000
0000
0000
,
0000
0000
0000
0000
,
1000
0000
1000
0001
0000
0001
1000
0000
1000
0001
0000
0000
1001
0000
0000
0000
,
0001
0100
0010
0000
0110
0000
0010
1000
,
0100
0000
1100
0000
0100
1000
0010
0100
,
0001
0000
0001
0100
0010
0010
1000
0100
,
1000
0000
1100
0000
1000
0001
0100
0000
,
0001
0100
0010
0000
0110
0000
0010
1000
,
0100
0000
1000
0000
0001
0001
0100
0010
,
1000
0000
0100
1000
0100
0100
0010
0001
,
0010
0000
0011
0000
0010
0001
0010
0010
,
0001
0001
0100
0010
1000
1000
0100
0010
,
0001
0001
0010
0100
1000
0000
0010
0100
,
0001
0000
0101
0000
0100
0010
1000
0100
,
1000
0000
1001
0000
1001
0000
0001
0100
,
0010
0010
1000
0100
0010
0010
0100
1000
,
0001
0001
0100
0010
1000
0100
0010
0001
,
0010
0000
0100
1000
0010
1000
0001
1000
,
0001
0101
1001
1100
,
2000
0000
0000
0000
0000
0000
3100
0020
,
0000
0000
0000
0031
,
0020
0000
0000
0000
0000
0000
0130
2000
,
0000
0000
3020
0130
,
0110
0110
0110
0110
,
0010
1000
0100
0010
0000
0000
0001
0010
0100
1000
0000
0000
,
0110
0110
0110
0110
,
0010
1000
0100
0010
0000
0000
0001
0010
0100
1000
0000
0000
,
1001
0000
0000
0000
,
0000
0000
0000
0000
,
1000
0000
1001
0000
0001
0100
0010
1000
,
0100
0000
1100
0000
1000
0100
0010
0001
,
1000
0000
1001
0000
0001
0100
0010
1000
,
0001
1001
1001
1001
,
0001
0000
0100
0010
0000
0010
1000
0100
,
0010
0000
0011
0000
0010
0100
1000
0000
,
0001
0000
1001
0000
0001
0100
0010
1000
,
0000
0000
0000
0000
,
1001
0000
0000
0000
1001
0000
0000
0000
0010
0100
0000
0000
0010
0100
0000
0000
,
0110
0000
0000
0000
0110
0000
0000
0000
0001
1000
0000
0000
0001
1000
0000
0000
,
0110
0000
0000
0000
1001
0000
0000
0000
0010
0100
0000
0000
0010
0100
0000
0000
,
1001
0000
0000
0000
,
1000
0000
0001
0000
0100
0000
0000
0000
0010
1000
0000
0010
1000
0000
0000
0000
,
0100
0010
0001
0010
0100
1000
0001
0100
,
0010
0000
1000
0000
0100
0000
1000
0000
0001
0000
0010
0000
0001
0010
0000
0000
,
0001
0000
0010
0000
0100
0000
1000
0000
0010
1000
0000
0010
1000
0000
0000
0000
,
0001
0002
0100
0203
,
1000
0000
2000
0300
0010
0000
0020
3000
,
0001
0000
0002
0030
0100
0000
0200
0003
,
0310
0000
0000
0020
,
1030
0010
0100
0000
0110
0000
0010
1000
,
0100
0000
0010
0000
0001
0010
0100
1000
,
0001
0000
0001
0100
0010
1000
0100
1000
,
1001
1001
1001
0000
,
0001
0100
0010
0000
0110
0000
0010
1000
,
0100
1000
0001
1000
0001
0001
0100
0010
,
1000
0000
0100
0010
0001
0001
0010
0100
,
1000
0000
1100
0000
1000
0001
0100
0010
,
1000
1000
0100
0010
0001
0001
0010
0100
,
1000
1000
0001
0100
0010
0000
1000
0100
,
0010
0000
0011
0000
0010
0100
1000
0001
,
0100
0000
0110
0000
0110
0000
0010
1000
,
0100
0100
1000
0001
0010
0010
0001
0100
,
0010
0010
1000
0100
1000
0000
0100
0010
,
0001
0000
1001
0000
0001
0100
0010
1000
,
0001
0000
0001
1000
0000
1000
0010
0000
0010
0100
0000
0100
0001
0000
0000
0000
,
2002
0000
0000
0000
,
0000
0000
0000
3003
;

//---------------dance-single - Renard----------------
#NOTES:
     dance-single:
     Renard:
     Medium:
     6:
     0.371,0.621,0.227,0.085,0.000:
0000
0000
0000
0000
,
0000
0000
0000
0000
,
0000
0000
0000
0000
,
0000
0000
0000
0000
,
0000
0000
0000
0000
,
0000
0000
0000
0000
,
0000
0000
0000
0000
,
0000
0000
0000
0000
,
0000
0000
0000
0000
,
1000
0000
1000
0000
0001
0000
0100
0001
,
0100
0000
0001
0000
1000
0100
1000
0001
,
1000
0000
0001
1000
0001
1000
0001
0100
,
0010
0010
0010
0000
,
1000
1000
0001
0001
,
0100
0000
0001
0000
1000
0001
1000
0001
,
0100
0000
0001
0100
0001
0100
0001
0100
,
0001
0000
0001
0000
0001
1000
0000
0000
,
0001
0001
1000
1000
,
0001
0000
0010
0000
0100
0000
1000
0100
,
1000
1000
0001
0001
,
0010
0010
0002
0000
,
1003
1000
0001
0001
,
0100
0000
0100
0000
0010
0000
1000
0010
,
1000
0000
0001
0000
0100
0000
0001
1000
,
0001
1000
0002
0000
,
2000
0000
0000
0000
0000
0003
0000
0000
,
0020
0000
3000
0000
,
0200
0000
0000
0030
0000
0000
0000
0000
,
0302
0000
1003
0000
,
1001
1001
1001
1001
,
0110
0110
1001
1001
,
0110
0110
0110
0110
,
1001
1001
0110
0110
,
1001
0000
0000
0000
,
0000
0000
0000
0000
,
1000
1000
0001
0001
,
1000
1000
0001
0001
,
1000
0001
1000
0001
,
1000
0001
1000
0001
,
0100
0100
0010
0010
,
0100
0100
0010
0010
,
0100
0010
1000
0001
,
0000
0000
0000
0000
,
1000
1000
1001
1001
,
0001
0001
1001
1001
,
1000
1000
1001
1001
,
0002
0000
0000
0000
0000
0000
0000
0003
,
1000
1000
0001
0001
,
1000
1000
0001
0001
,
1000
1000
0001
0001
,
0100
0010
0100
0010
,
1000
0000
1000
0000
,
1000
0000
1000
0000
,
1000
0000
1000
0000
,
1000
0000
0000
0000
,
1000
0001
1000
0000
0001
0000
0100
0000
,
0010
0000
0100
0000
0010
0100
0010
0100
,
0010
0010
1000
1000
,
0001
0001
0001
0000
,
1000
0000
0001
0000
1000
0000
0001
1000
,
0001
1000
0001
0100
,
0010
0000
1000
0000
0001
0000
1000
0100
,
1000
0001
0010
0000
,
0001
1000
0001
1000
0001
1000
0001
1000
,
0001
1000
0001
1000
0001
0000
0100
0010
,
0100
0000
0010
0000
0100
0010
0100
0010
,
0100
0010
0010
0000
,
1000
0001
1000
0001
1000
0001
1000
0001
,
1000
0001
0100
0001
,
1000
0000
0100
0000
1000
0000
0001
1000
,
0001
1000
0010
1000
,
2002
0000
0000
0000
,
0000
0000
0000
0000
,
3003
0000
0000
0000
;

//---------------dance-single - Renard----------------
#NOTES:
     dance-single:
     Renard:
     Easy:
     3:
     0.255,0.616,0.198,0.019,0.000: // measure 1
0000
0000
0000
0000
,  // measure 2
0000
0000
0000
0000
,  // measure 3
0000
0000
0000
0000
,  // measure 4
0000
0000
0000
0000
,  // measure 5
0000
0000
0000
0000
,  // measure 6
0000
0000
0000
0000
,  // measure 7
0000
0000
0000
0000
,  // measure 8
0000
0000
0000
0000
,  // measure 9
0000
0000
0000
1001
,  // measure 10
0010
0010
0010
0100
,  // measure 11
0010
1000
0010
0100
,  // measure 12
0001
0001
1000
1000
,  // measure 13
0001
0001
1001
0000
,  // measure 14
0100
0100
0010
1000
,  // measure 15
0001
1000
0100
0100
,  // measure 16
1000
0001
0010
0100
,  // measure 17
0010
0010
0110
0000
,  // measure 18
0100
0000
1000
0000
,  // measure 19
0001
0000
0010
0000
,  // measure 20
0001
0010
0100
1000
,  // measure 21
0001
1000
0001
0000
,  // measure 22
1000
0000
0010
0000
,  // measure 23
0100
0000
0001
0000
,  // measure 24
1000
0010
0100
0001
,  // measure 25
1000
0001
1000
0000
,  // measure 26
1001
0000
0000
0000
,  // measure 27
0000
0000
0000
0000
,  // measure 28
0000
0000
0000
0000
,  // measure 29
0000
0000
0000
0000
,  // measure 30
1001
1001
1001
1001
,  // measure 31
1001
1001
1001
1001
,  // measure 32
1001
1001
1001
1001
,  // measure 33
1001
1001
1001
1001
,  // measure 34
1001
0000
0000
0000
,  // measure 35
0000
0000
0000
0000
,  // measure 36
1000
0000
1000
0001
,  // measure 37
0100
0000
0100
0001
,  // measure 38
0010
0000
0010
0010
,  // measure 39
0001
0000
0001
0000
,  // measure 40
1000
0000
1000
0001
,  // measure 41
0010
0000
0010
0000
,  // measure 42
0100
0000
0100
0010
,  // measure 43
0001
0000
0000
0000
,  // measure 44
0001
0000
1000
1000
,  // measure 45
0001
0000
1000
1000
,  // measure 46
0001
0000
1000
1000
,  // measure 47
0001
0000
0000
0000
,  // measure 48
0100
0000
0010
0000
,  // measure 49
0100
0000
0010
0000
,  // measure 50
0100
0000
0010
0000
,  // measure 51
0100
0010
0100
0010
,  // measure 52
1000
0000
0001
0000
,  // measure 53
1000
0000
0001
0000
,  // measure 54
1000
0000
0001
1000
,  // measure 55
0001
0000
0000
0000
,  // measure 56
1000
0100
1000
0100
,  // measure 57
1000
0000
0100
0000
,  // measure 58
0010
0001
0010
0001
,  // measure 59
1000
0000
0001
0000
,  // measure 60
0100
0001
0100
0000
,  // measure 61
0010
0000
1000
0000
,  // measure 62
0001
1000
0001
1000
,  // measure 63
0010
0100
0010
0000
,  // measure 64
0100
0001
0100
0001
,  // measure 65
1000
0100
1000
0000
,  // measure 66
0001
0010
0001
1000
,  // measure 67
0001
0100
0001
0000
,  // measure 68
1000
0000
1000
0000
,  // measure 69
0001
0000
0001
0000
,  // measure 70
1000
0000
0001
0000
,  // measure 71
0100
0020
2000
0000
,  // measure 72
0000
0000
0000
0000
,  // measure 73
0000
0000
3030
0000
;
