#TITLE:Car of Your Dreams;
#SUBTITLE:;
#ARTIST:Dave & Nuage;
#TITLETRANSLIT:;
#SUBTITLETRANSLIT:;
#ARTISTTRANSLIT:;
#CREDIT:;
#BANNER:car.png;
#BACKGROUND:car-bg.png;
#LYRICSPATH:;
#CDTITLE:;
#MUSIC:car.ogg;
#OFFSET:0.000;
#SAMPLESTART:59.980;
#SAMPLELENGTH:12.000;
#SELECTABLE:YES;
#BPMS:0.000=152.000,52.500=304.000,58.500=152.000,185.500=304.000,187.500=152.000;
#STOPS:;
#BGCHANGES:;

//---------------dance-single - Renard----------------
#NOTES:
     dance-single:
     Renard:
     Challenge:
     10:
     0.818,0.817,0.804,0.106,0.512:
0000
0000
0000
0000
,
0000
0000
0000
0000
,
0000
0000
0000
0000
,
0000
0000
0000
0000
,
1000
0100
0010
0001
0010
0100
1000
0020
,
0000
0000
0000
0000
0000
0000
0000
0000
0130
0001
0100
0001
0100
0001
0100
0000
,
0101
0000
0110
0000
1010
0000
1000
0010
,
0100
0001
0100
0000
0010
0000
1000
0010
1000
0000
0010
0000
0100
0001
1000
0000
,
1100
0000
0011
0000
1001
0000
0100
0010
,
1000
0010
1000
0000
0001
0000
0100
0001
0100
0000
0001
0000
0010
0100
1000
0000
,
0001
0000
0100
0000
0110
0000
1000
0010
0000
0000
0100
0000
0101
0000
0010
0000
,
0100
1000
1100
0100
0010
0001
1001
0000
,
0001
0000
0100
0000
0101
0000
1000
0010
0000
0000
1000
0000
0101
0000
0010
0000
,
2002
0000
0000
0000
,
0000
0000
0000
0000
0000
3003
1001
0000
,
1010
0000
0101
0000
0000
0000
1001
0000
0000
0000
1100
0000
0000
0000
0001
0010
,
0100
0010
0001
1000
0000
0010
0100
1000
0001
0000
0101
0000
1001
0000
0000
0000
,
1010
0000
0000
0101
0000
0000
0000
0000
0000
0001
0100
0001
0100
0000
0000
1010
0000
0000
0000
0000
0000
0101
0000
0000
,
0011
0100
1100
0010
0101
0000
1001
0000
,
0101
0000
1010
0000
0000
0000
1001
0000
0000
0000
0011
0000
0000
0000
1000
0100
,
0010
0100
1000
0001
0000
0100
0010
0001
1000
0000
1010
0000
1001
0000
0000
0000
,
0101
0000
0000
0000
0000
0000
1010
0000
0000
0000
0000
0000
0000
0000
0000
0000
0000
0000
1000
0000
0010
0000
1000
0000
0010
0000
0000
0000
0000
0000
0101
0000
0000
0000
0000
0000
0000
0000
0000
0100
0000
0000
0010
0000
0000
1000
0000
0000
,
0010
0100
0001
0010
0100
1000
0001
0010
0001
1000
0100
0010
0001
0000
0010
0001
,
0010
0000
0100
0000
1000
0000
0010
0000
0100
0000
0001
0000
1000
0000
0100
1000
,
0100
0000
1000
0000
0010
0000
0100
0000
0001
0000
1000
0000
0100
0000
0010
0100
,
0010
0000
0100
0000
1000
0000
0010
0000
0100
0000
0001
0000
1000
0000
0001
1000
,
0001
0000
0100
0000
0010
1000
0010
1000
0001
0000
0100
0000
0010
0000
1000
0010
,
1000
0000
0001
0000
0100
0000
0001
0000
0010
0000
0100
0000
1000
0000
0100
1000
,
0100
0000
1000
0000
0010
0000
0100
0000
0001
0000
0010
0000
0100
0000
1000
0100
,
1000
0000
0001
0000
0010
0000
0001
0010
0001
0000
0000
0000
1011
0000
0000
0000
,
0000
0000
1101
0000
0000
0000
0000
0000
1011
0000
0000
0000
0001
0000
0010
0001
,
0100
0000
0010
1000
0100
0000
0010
0001
0100
0000
0010
1000
0100
0000
0010
0000
,
0001
0000
0010
0000
0100
0000
1000
0000
0001
0000
0000
0000
1000
0000
0100
1000
,
0010
0000
0100
0001
0010
0000
0100
1000
0010
0000
0100
0001
0010
0000
0001
0000
,
0101
0000
1010
0000
0000
0000
0101
0000
1001
0000
0000
0000
1000
0000
0100
0010
,
0001
0000
0010
0000
0100
0000
1000
0000
0010
0000
0100
0000
0001
0000
0100
0001
,
0100
0010
1000
0100
0010
0100
0001
0100
,
1000
0010
0100
0000
0001
0000
1000
0000
0001
0100
0010
0000
2000
0000
0002
0000
,
0000
0000
0010
0000
3103
0000
0101
0100
,
0110
0000
0010
0000
1010
0000
0000
0000
1000
0001
0100
0000
0000
0000
0110
0000
,
0000
0000
1010
0000
0000
0000
0001
0100
0010
1000
0010
0000
0100
0000
0100
0000
,
0001
0001
0010
0010
0100
0000
1000
0010
,
0100
0000
0001
0000
0000
0000
0101
0000
1001
0000
0000
0000
1000
0000
0100
0010
,
0001
0000
0010
0100
1000
0000
0001
0010
0100
0000
0011
0000
0000
0000
1100
0000
,
0000
0000
1010
0000
0000
0000
0101
0000
1001
0000
0000
0000
0001
0010
0100
0000
,
1000
0000
0010
0000
0100
0000
0001
0100
0010
0000
1000
0000
0001
0000
0100
0010
,
1000
0000
0010
0100
0002
0000
0000
0000
0000
0000
0000
0000
0000
0000
0003
0000
,
1001
0000
0001
0100
0000
1010
0000
0101
,
0000
0001
0100
0010
1000
0010
0100
0001
0000
1000
0100
0010
0001
0000
0100
0000
,
0101
0000
0000
0000
0000
0000
0110
0000
0000
1010
0000
0000
0000
0000
0000
0001
0100
0001
0100
0000
0000
1010
0000
0000
,
0000
0000
0101
0000
0101
0000
0010
1000
0100
0010
0001
0000
1001
0000
0000
0000
,
1001
0000
1000
0010
0000
0101
0000
1010
,
0000
1000
0010
0100
0001
0100
0010
1000
0000
0001
0010
0100
1000
0000
0010
0000
,
1010
0000
0000
0000
0000
0000
0110
0000
0000
0101
0000
0000
0000
0000
0000
1000
0010
1000
0010
0000
0000
0101
0000
0000
,
0000
1000
0010
1000
0001
0100
0001
0010
0100
1000
0001
0010
0100
1000
0001
1000
,
0001
0000
0100
0010
1000
0000
0010
0100
0001
0000
0010
0000
0100
0000
1000
0000
,
0001
0000
0010
0100
1000
0000
0001
0100
0010
0000
1000
0010
0000
0000
0100
0000
,
0001
0000
0100
0010
1000
0000
0100
0010
0001
0000
0010
0000
0100
0000
1000
0000
,
1001
0000
0220
1331
,
0001
0000
0100
0010
1000
0000
0010
0100
0001
0000
0100
0010
1000
0000
0010
0100
,
0001
0100
0010
1000
0100
0010
0001
0010
,
0100
0000
1000
0100
0010
0000
0001
0010
0100
0000
1000
0100
0010
0000
0001
0010
,
0100
1000
0010
0100
0202
0000
1313
0000
,
1100
0000
1000
0000
1001
0000
0001
0000
0011
0000
0000
0000
0010
0100
1000
0000
,
0000
0000
1001
0000
0000
0000
0011
0000
0000
0000
0100
1000
0001
0010
0001
0000
,
1000
1000
0100
0100
0001
0001
1000
0000
,
0010
0001
1000
0100
0000
1100
0110
0000
,
0010
0000
1000
0001
0100
0000
0001
1000
0010
0000
0100
0001
1000
0000
0101
0000
,
0000
1010
0000
0011
0000
1100
0110
0000
,
0100
0001
1000
0000
0010
0000
0001
0000
1000
0000
0100
1000
0001
0000
0010
0000
,
0100
0000
0000
0000
0000
0000
0000
0000
0000
0000
0000
0000
0000
0000
0000
0000
0000
0000
0000
0000
0000
0000
0000
0000
1000
0000
0000
0000
0000
0000
0000
0000
0000
0000
0000
0000
0001
0000
0000
0000
0000
0000
0000
0000
0000
0000
0000
0000
0010
0000
0000
0000
0000
0000
0000
0000
0000
0000
0000
0000
0000
0000
0000
0000
0000
0000
0000
0000
0000
0000
0000
0000
0001
0000
0000
0000
0000
0000
0000
0000
0000
0000
0000
0000
1000
0000
0000
0000
0000
0000
0000
0000
0000
0000
0000
0000
0200
0300
0000
0000
0000
0000
0000
0000
0000
0000
0000
0000
0000
0000
0000
0000
0000
0000
0000
0000
0000
0000
0000
0000
0000
0000
0000
0000
0000
0000
0000
0000
0000
0000
0000
0000
0000
0000
0000
0000
0000
0000
0000
0000
0000
0000
0000
0000
0012
0000
0000
0000
0000
0000
0000
0000
0000
0000
0000
0000
0000
0000
0000
0000
0000
0000
0000
0000
0000
0000
0000
0000
0000
0000
0000
0000
0000
0000
0000
0000
0000
0000
0000
0000
0000
0000
0000
0000
0000
0000
0000
0000
0000
0000
0000
0000
,
0000
0003
0000
0000
0000
0000
0000
0000
;

//---------------dance-single - Renard----------------
#NOTES:
     dance-single:
     Renard:
     Hard:
     8:
     0.550,0.532,0.512,0.018,0.088:
0000
0000
0000
0000
,
0000
0000
0000
0000
,
0000
0000
0000
0000
,
0000
0000
0000
0000
,
0000
0000
0000
0000
,
0000
0000
0000
0000
,
1000
0000
1000
0001
0100
0000
0100
0001
,
0000
0001
1000
0000
0100
0000
1100
0000
,
1000
0001
0010
0000
0011
0000
0010
0100
,
0000
0100
1000
0000
1001
0000
0110
0000
,
1001
0000
1001
0000
0110
0000
0010
1000
,
0000
0001
0100
0000
0001
1000
0100
0010
,
0001
0000
0011
0000
0110
0000
0100
2000
,
0002
0000
0000
0000
,
0000
0000
0000
3003
0000
0000
1000
0000
,
1000
0001
0000
0101
0000
0001
0000
1000
,
0100
0000
0010
0001
0000
0000
0010
0000
0100
0000
1000
0000
0001
0000
0000
0000
,
0001
0100
0000
0110
0000
1010
0000
1000
,
0100
0000
0010
0000
0001
0000
0010
0001
0010
0000
0100
0000
1000
0000
0000
0000
,
0001
1000
0000
1010
0000
1001
0000
1000
,
0100
0000
0010
0001
0000
0000
0010
0000
0100
0000
1000
0000
0001
0000
0000
0000
,
0001
0000
0100
0000
0000
0000
0010
0000
0000
0000
1000
0000
0001
0000
1000
0001
,
1000
0000
0001
0000
0100
0000
0010
0100
0010
0000
0100
0000
0010
0000
1000
0000
,
0001
0100
0010
1000
0000
1001
0000
1000
,
0100
0010
0000
0001
0010
0100
0000
1000
,
0001
0100
0010
1000
0001
1000
0000
0101
,
0000
1001
0000
1100
0000
1000
0100
0010
,
0001
0010
0100
1000
0000
0001
0000
1000
,
0010
0100
0000
0001
0100
0010
1000
0000
,
0010
1000
0001
0100
0010
1000
0100
0000
,
0100
0000
1000
0000
0000
0000
0000
0000
0011
0000
0000
0000
0100
0000
1000
0001
,
1000
0001
0100
0010
1000
0100
0010
0000
,
0001
0000
0010
0100
1000
0000
0001
0100
,
0010
0000
1000
0000
0001
0000
1000
0100
1000
0000
0001
0000
0010
0000
0000
0000
,
0100
0110
1001
0110
,
0010
1000
0000
0101
0000
1001
0000
1000
,
0100
0010
0001
0010
0100
1000
0001
0000
,
0010
0001
0000
1001
0000
0110
0000
1001
,
0000
0000
0000
0000
0110
0000
0000
0000
0110
0000
0000
0000
0010
0000
1000
0010
,
1000
0001
0100
0000
0001
0010
0000
0011
,
0000
0011
0000
0010
0100
1000
0001
0000
,
0001
0000
0100
0000
0000
0000
0110
0000
0000
0000
0000
0000
0010
0000
1000
0010
,
1000
0001
1000
0100
0010
0000
0011
0000
,
0110
0000
1100
0000
1000
0010
0000
1000
,
0010
0100
0001
0100
0010
1000
0001
1000
,
0100
0010
0000
0001
0000
0010
0000
0100
,
1000
0001
1000
0000
0000
1001
0000
0000
,
1000
0001
1000
0001
0000
0101
0000
1001
,
0000
0000
1000
0000
0100
0000
0010
0001
0000
0000
0010
0000
0100
0000
1000
0000
,
0001
0100
0010
1000
0000
1001
0000
1000
,
0000
0100
0010
0000
0001
0010
0100
0000
,
1100
0000
1000
0001
0000
1001
0000
0101
,
0000
0000
0001
0000
1000
0100
0000
1000
0000
0000
0001
0000
0010
0000
0100
0000
,
1000
0000
0001
0100
0000
0001
1000
0100
,
0000
0000
0010
0000
0001
0000
0010
0000
0100
0000
0010
0100
0010
0000
0100
0000
,
1000
0000
0010
0100
0000
0001
0100
0010
,
1000
0000
0001
0000
1000
0100
0010
0001
,
0000
0010
0100
1000
0000
0001
1000
0010
,
0100
0001
0101
1010
,
1001
0000
1000
0100
0000
1000
0001
0010
,
0100
0000
1000
0100
1000
0000
0001
0010
0001
0000
1000
0000
0001
0000
0100
0000
,
0010
0000
0010
1000
0000
0101
0000
1010
,
0000
1001
0000
0000
0110
0000
0110
0000
,
0010
0000
0000
0010
1000
0000
0000
1000
0001
0000
0000
0000
0001
0000
0100
0000
,
0000
1001
0000
1001
0000
1000
0100
0010
,
0001
0000
0001
0010
0000
0011
0000
0010
,
0100
1000
0001
0100
0000
0001
1000
0000
,
0001
1000
0000
0000
1000
0010
0000
0000
0010
0100
0000
0000
0000
0000
0101
0000
,
0000
0110
0000
1010
0000
1000
0100
0010
,
0001
0010
0100
1000
0000
1001
0000
0110
,
0000
0010
1000
0001
0100
0010
1000
0001
;

//---------------dance-single - Renard----------------
#NOTES:
     dance-single:
     Renard:
     Medium:
     5:
     0.347,0.437,0.212,0.018,0.000:
0000
0000
0000
0000
,
0000
0000
0000
0000
,
0000
0000
0000
0000
,
0000
0000
0000
0000
,
0000
0000
0000
0000
,
0000
0000
0000
0000
,
1000
1001
1001
0000
,
0001
0000
0001
0000
,
1000
1001
1001
0000
,
0001
0000
1000
0000
,
0110
0110
1001
0000
,
1000
0000
0100
0000
1000
0001
1000
0000
,
0001
0000
0100
0000
0001
1000
0001
2000
,
0002
0000
0000
0000
,
0000
0000
0000
3003
0000
0000
1001
0000
,
1001
0000
0010
0100
0010
0000
0100
0000
,
0001
1000
0100
1100
,
1100
0000
0011
0000
0010
0000
0100
1000
,
0100
0000
1000
0001
0000
0000
0001
0000
,
0100
0010
1000
0001
,
1000
0000
0100
1000
0100
0000
1000
0000
,
0001
0010
0000
0001
0000
1000
0000
0000
,
0001
0100
0001
1000
,
0001
1000
0001
0100
,
0010
0100
0010
1000
,
0001
0000
0100
0000
0010
1000
0000
0001
,
0000
0100
0000
0001
0000
0000
1000
0000
,
0100
0000
0010
0000
0001
0010
0000
0100
,
0000
0000
1000
0000
0010
1000
0000
0000
,
0001
0100
0000
0000
0000
0000
1001
0000
,
0000
0110
0000
0000
1001
0000
1000
0000
,
0100
1000
0000
0001
0010
0001
0000
0000
,
1000
0000
0001
0100
0010
0100
0000
0010
,
0000
1000
0000
0001
0000
0100
0000
0000
,
0000
1001
1001
0001
,
1000
0001
0000
0100
0000
0001
0000
0000
,
0000
1000
0100
0010
,
0001
0010
0000
0100
0000
1000
0000
0001
,
0000
0100
0100
0010
,
1000
0000
0001
0000
0000
0101
0000
0101
,
0000
0101
0000
0000
0000
0000
0001
0000
,
1000
0100
1000
0001
,
0001
1000
0000
0000
0010
0000
0100
0000
,
0001
0000
1000
0000
0000
0001
0000
0100
,
0000
0010
0000
0000
0000
0000
1000
0010
,
1000
0010
0000
1000
0000
0001
0000
0000
,
0000
0000
0000
0000
,
1000
0000
1000
0001
0000
0100
0000
0001
,
0000
1000
0100
0010
,
0001
0000
0001
0010
0000
0100
0000
1000
,
0000
0001
0100
0000
0001
1000
0000
0000
,
0100
0000
1000
0001
0000
0010
0000
0001
,
0000
1000
0010
1000
0001
0100
0001
1000
,
0100
0000
1000
0001
0000
0010
0000
0000
,
0001
0010
0100
1000
0001
0010
0100
1000
,
0001
0000
0001
1000
0000
1000
0001
1000
,
0000
0000
0001
0100
,
0010
0010
0100
0100
,
0010
0000
1010
1010
,
0010
0000
1000
0010
0000
1000
0000
0001
,
0000
0000
0100
0001
,
1000
0000
0001
1000
0000
0100
0000
1000
,
0000
0001
0000
0000
1001
0000
1001
0000
,
1000
0000
1000
0000
0001
0000
0000
0100
,
0000
0001
0000
1000
0000
0000
0000
0000
,
0001
0010
0001
0010
0000
0001
0000
0000
,
1000
0000
0000
1000
0000
0000
0100
0000
,
1000
0000
0001
0000
0010
0000
0000
0001
,
0000
1000
0000
0010
0000
0000
0000
0000
,
0100
0001
0100
0001
0000
1000
0000
0001
,
0000
0000
1000
0000
0001
0100
0001
0000
;

//---------------dance-single - Renard----------------
#NOTES:
     dance-single:
     Renard:
     Easy:
     2:
     0.228,0.312,0.124,0.062,0.000: // measure 1
0000
0000
0000
0000
,  // measure 2
0000
0000
0000
0000
,  // measure 3
0000
0000
0000
0000
,  // measure 4
0000
0000
0000
0000
,  // measure 5
0000
0000
0000
0000
,  // measure 6
0000
0000
0000
0000
,  // measure 7
1001
1001
1001
0000
,  // measure 8
0100
0000
0100
0000
,  // measure 9
1001
1001
1001
0000
,  // measure 10
0010
0000
0010
0000
,  // measure 11
1001
1001
1001
0000
,  // measure 12
0100
0000
0100
0000
,  // measure 13
1001
1001
1001
0000
,  // measure 14
0020
0000
0000
0000
,  // measure 15
0000
0000
0030
0001
,  // measure 16
0000
0001
0000
1000
,  // measure 17
0001
0100
0010
1000
,  // measure 18
0000
1000
0000
0001
,  // measure 19
1000
0001
1000
0001
,  // measure 20
0000
0001
0000
1000
,  // measure 21
0001
0100
0010
1000
,  // measure 22
0000
1000
0000
0001
,  // measure 23
0100
0010
1000
0001
,  // measure 24
0001
0100
0100
0001
,  // measure 25
1000
0010
1000
0100
,  // measure 26
0100
1000
1000
0001
,  // measure 27
0010
0100
1000
0001
,  // measure 28
1000
0010
1000
0001
,  // measure 29
1000
0010
2000
0002
,  // measure 30
0000
0000
3003
0100
,  // measure 31
0000
0100
0000
0010
,  // measure 32
0000
0010
0010
0010
,  // measure 33
0000
0000
0000
0100
,  // measure 34
0000
0100
0100
0100
,  // measure 35
0000
0010
0000
1000
,  // measure 36
0000
0001
0000
1000
,  // measure 37
0000
0001
0000
0100
,  // measure 38
0000
0010
0000
1000
,  // measure 39
0000
0001
0100
0001
,  // measure 40
0000
0001
0000
1000
,  // measure 41
0000
0100
0000
1000
,  // measure 42
0010
1000
0000
0001
,  // measure 43
0000
0100
0000
0001
,  // measure 44
0100
0001
0000
1000
,  // measure 45
0000
0010
0000
1000
,  // measure 46
0000
2000
0000
0002
,  // measure 47
0000
3003
0000
0000
,  // measure 48
1000
0000
1000
0000
,  // measure 49
0001
0000
0000
0000
,  // measure 50
0001
0000
0001
0000
,  // measure 51
1000
0000
0000
0000
,  // measure 52
0010
0000
0010
0000
,  // measure 53
0100
0000
0000
0000
,  // measure 54
0010
1000
0001
1000
,  // measure 55
0001
0000
0001
0000
,  // measure 56
1000
0000
1000
0000
,  // measure 57
2000
0000
0000
0000
,  // measure 58
3001
0000
0001
0000
,  // measure 59
0002
0000
0000
0000
,  // measure 60
1003
0000
1000
0000
,  // measure 61
0001
0000
0100
0000
,  // measure 62
0100
0000
0010
0000
,  // measure 63
1000
0001
1001
1001
,  // measure 64
0001
0001
0001
0000
,  // measure 65
1000
0000
1000
0000
,  // measure 66
0001
0100
0010
0100
,  // measure 67
0010
0000
0010
0000
,  // measure 68
1000
1000
1000
0000
,  // measure 69
0010
0000
0100
0000
,  // measure 70
0010
0100
0010
1000
,  // measure 71
0001
1000
0001
0100
;
