#TITLE:Capital Murder (RENRMX);
#SUBTITLE:;
#ARTIST:Genaside remixed by D-Mode-D;
#TITLETRANSLIT:;
#SUBTITLETRANSLIT:;
#ARTISTTRANSLIT:;
#CREDIT:;
#BANNER:murder.png;
#BACKGROUND:murder-bg.png;
#LYRICSPATH:;
#CDTITLE:;
#MUSIC:murder.ogg;
#OFFSET:0.000;
#SAMPLESTART:76.760;
#SAMPLELENGTH:12.000;
#SELECTABLE:YES;
#BPMS:0.000=175.000;
#STOPS:;
#BGCHANGES:;

//---------------dance-single - Renard----------------
#NOTES:
     dance-single:
     Renard:
     Hard:
     8:
     0.650,0.634,0.509,0.000,0.059:
0000
0000
0000
0000
,
0000
0000
0000
0000
,
0000
0000
0000
0000
,
0000
0000
0000
0000
,
1001
0000
0001
0100
0000
0100
0010
0000
,
1010
0000
1000
0100
0000
0010
0001
0000
,
1000
0001
0000
0100
0010
1000
0100
0010
,
0001
0010
0100
1000
0010
1000
1001
0000
,
1000
0001
0100
0100
0010
0000
1000
0000
,
0100
0010
0001
0001
0010
0000
0110
0000
,
0100
1000
0010
0010
0100
0000
0001
0000
,
0010
0100
1000
1000
0010
0000
1001
0000
,
1000
0100
0010
0010
0001
0000
1000
0000
,
0010
0100
0001
0001
0010
0000
0100
0000
,
1000
0010
0100
0100
0001
0000
0010
0100
,
1000
0010
0100
0001
0010
0000
1001
0000
,
0001
0100
0010
0010
1000
0100
0010
0010
,
0001
0010
0100
1000
0010
0000
1001
0000
,
1000
0010
0100
0100
0001
0010
0100
0100
,
1000
0010
0100
0001
0010
0000
0110
0000
,
0100
1000
0010
0010
0100
0001
0010
0010
,
0100
1000
0010
0100
0001
0000
1001
0000
,
0001
0100
0010
1000
0100
0010
0001
0010
,
0100
1000
0010
0100
0001
1001
0000
0000
,
0001
0001
0100
0010
1000
0000
0010
1000
,
0000
0100
0010
0001
0000
0010
0100
1000
,
0010
0010
0100
0001
0010
0000
0100
1000
,
0000
0001
0010
0001
0000
1000
0010
1000
,
0001
0100
0001
1000
0100
0000
1000
0001
,
0000
0010
0001
1000
0000
0010
0100
0001
,
0000
0010
0000
0001
1000
0010
0100
0001
,
0010
0100
1000
0010
0100
0001
1000
0000
,
0100
0000
1000
0001
0010
0000
0001
1000
,
0000
0010
1000
0001
0000
0100
0001
0010
,
0001
0000
0010
0100
1000
0000
0010
0100
,
0000
0001
1000
0100
0000
1000
0001
0010
,
0001
0000
1000
0010
0100
0000
0001
1000
,
0000
0100
1000
0010
0000
0100
0001
0010
,
0000
0001
0000
1000
0010
0100
0001
0010
,
0001
1000
0010
0100
0001
0010
0001
0000
,
1000
0000
1001
0000
0001
0100
0101
0000
,
0001
1000
1100
0000
0001
0010
0011
0000
,
1000
0000
1010
0000
0001
0100
0001
1000
,
0100
1000
0001
0010
0001
1000
0000
1000
,
0010
0000
1010
0000
1000
0010
0100
0000
,
0001
0010
0001
1000
0100
1000
0001
0000
,
0010
0000
0011
0000
0001
0010
0100
0000
,
1000
0010
0100
0001
0100
0010
0100
0000
,
0010
0000
0000
0000
1000
0000
0000
0100
0000
0000
0010
0000
0000
0001
0000
0000
,
0010
0000
0100
1000
0010
0000
0100
0001
,
0010
0000
0000
0000
0001
0000
0000
1000
0000
0000
0010
0000
0000
0100
0000
0000
,
0001
0000
0010
0100
1000
0000
0010
0100
,
0001
0000
0000
0000
1000
0000
0000
0100
0000
0000
0010
0000
0000
0001
0000
0000
,
0010
0000
0100
1000
0010
0000
0100
0001
,
1000
0000
0000
0000
0001
0000
0000
0010
0000
0000
0100
0000
0000
1000
0000
0000
,
0001
1000
0001
1000
0001
1000
0001
1000
0001
0000
0000
0000
1001
0000
0000
0000
,
0011
0101
1001
1010
,
1100
0000
1000
0100
0010
0001
1000
0000
,
1100
1010
1001
1100
,
1000
0100
1000
0100
0010
0001
0010
0000
,
1001
0101
0011
1001
,
0101
0000
0001
0100
0010
1000
0001
0000
,
1100
1010
1001
1100
,
1000
0001
0010
0100
1000
0001
0100
0000
,
0101
0110
1010
1001
,
1100
0000
0001
0010
0100
1000
0001
0000
,
1010
1001
1100
0011
,
1001
0000
0001
0100
0010
1000
0100
0000
,
1100
1001
1010
1001
,
0101
0000
0001
0100
0010
1000
0100
0000
,
0100
1000
0000
0100
1000
0010
0100
0001
,
0010
0001
1000
0010
0100
0001
1000
0000
,
1001
0000
0000
0000
;

//---------------dance-single - Renard----------------
#NOTES:
     dance-single:
     Renard:
     Medium:
     6:
     0.445,0.529,0.010,0.000,0.000:
0000
0000
0000
0000
,
0000
0000
0000
0000
,
0000
0000
0000
0000
,
0000
0000
0000
0000
,
1000
0000
1000
0001
0000
0001
0100
0000
,
0001
0000
0001
1000
0000
1000
0100
0000
,
1000
0001
0000
0100
0001
1000
0001
1000
,
0001
1000
0001
1000
0001
1000
0001
0000
,
1000
0001
1000
0001
,
1000
0001
1000
0001
1000
0000
0001
0000
,
0100
0010
0100
0010
,
0100
0010
0100
0010
0100
0000
0010
0000
,
1000
0010
1000
0010
,
1000
0010
1000
0010
1000
0000
0010
0000
,
0100
0001
0100
0001
,
0100
0001
0100
0001
0100
0000
0001
0000
,
1000
0000
0100
0000
0000
1000
0001
0000
,
0010
0000
0001
0000
0000
1000
0001
0000
,
1000
0000
0100
0000
0000
1000
0001
0000
,
1000
0000
0010
0000
0000
0100
0001
0000
,
1000
0000
0001
0000
0000
0010
0001
0000
,
0100
0000
0001
0000
0000
1000
0001
0000
,
1000
0000
0100
0000
0000
1000
0001
0000
,
0010
0000
0001
0000
1000
0001
0000
0000
,
1000
0000
1000
0000
0001
0000
0001
0100
,
0000
0000
0001
1000
0000
0000
0100
1000
,
0001
0000
0010
0000
0001
0000
1000
0010
,
0000
0000
1000
0001
0000
0000
1000
0100
,
1000
0000
0001
0000
0010
0000
0001
1000
,
0000
0000
0001
0100
0000
0000
0001
1000
,
0001
1000
0100
0010
,
0001
1000
0001
1000
0001
1000
0001
0000
,
1000
0000
0100
0000
1000
0000
0001
0010
,
0000
0001
1000
0000
0001
0100
0000
0001
,
1000
0000
0100
0000
0010
0000
0001
1000
,
0000
0010
1000
0000
0100
1000
0000
0001
,
1000
0000
0100
0000
0010
0000
0001
1000
,
0000
0100
1000
0000
0010
1000
0000
0001
,
1000
0100
0010
0001
,
1000
0000
0001
0000
0100
0001
0100
0000
,
0001
1000
0100
1000
,
0001
0000
0010
0000
0000
0010
0000
0000
,
0001
1000
0010
0100
,
0001
0000
1000
0000
0000
1000
0000
0000
,
0010
0100
0001
0010
,
0100
0000
0010
0000
0000
0010
0000
0000
,
0100
1000
0010
0100
,
0001
0000
0010
0000
0000
0001
0000
0000
,
1000
0001
0100
0001
,
1000
1000
0001
0001
,
1000
0010
0100
0001
,
0010
0010
0001
0001
,
1000
0010
0100
0001
,
1000
1000
0001
0001
,
1000
0100
0010
0001
,
1000
0000
1000
0000
0001
1000
0001
0000
,
0001
0001
0001
0001
,
0001
0000
0001
0100
0010
1000
0010
0000
,
1000
1000
1000
1000
,
1000
0000
1000
0100
0010
0001
0010
0000
,
0001
0001
0001
0001
,
0001
0000
0001
0010
0100
1000
0001
0000
,
1000
1000
1000
1000
,
1000
0100
1000
0100
0010
0001
0010
0000
,
0001
0001
0001
0001
,
0001
0000
0001
0100
0010
1000
0010
0000
,
1000
1000
1000
1000
,
1000
0010
0100
0001
0100
0001
0100
0000
,
0001
0001
0001
0001
,
0001
0000
0001
0010
0100
1000
0001
0000
,
1000
0001
0100
0001
,
1000
0001
1000
0000
0001
1000
0001
0000
,
1001
0000
0000
0000
;

//---------------dance-single - Renard----------------
#NOTES:
     dance-single:
     Renard:
     Easy:
     2:
     0.259,0.352,0.029,0.000,0.000:
0000
0000
0000
0000
,
0000
0000
0000
0000
,
0000
0000
0000
0000
,
0000
0000
0000
0000
,
1000
0000
1000
0000
,
0001
0000
0001
0000
,
1000
0000
0001
0000
,
1000
0001
1000
0000
,
0001
0000
0001
0000
,
0100
0010
1000
0010
,
1000
0000
1000
0000
,
0100
0010
0001
0010
,
0001
0000
0001
0000
,
1000
0001
1000
0001
,
0100
0000
0100
0000
,
0010
0000
0010
1000
,
0010
0000
0010
0000
,
0010
0000
1000
0001
,
0100
0000
0100
0000
,
0100
0000
0001
1000
,
0010
0000
0011
0000
,
0010
0000
1000
0001
,
1000
0000
1100
0000
,
1000
0000
0001
0000
,
1000
0000
1000
0000
,
0001
0100
0001
0100
,
0001
0000
0001
0000
,
1000
0100
1000
0100
,
1000
0000
1000
0000
,
0001
0010
0001
0010
,
0001
0000
0001
0000
,
1000
0010
1000
0010
,
1000
0000
1000
0000
,
0001
0100
0001
0000
,
1000
0000
1000
0000
,
0001
0010
0001
0000
,
0001
0000
0001
0000
,
1000
0010
1000
0000
,
0001
0000
0001
0000
,
1000
0100
1000
0000
,
0001
0000
0100
0000
,
0010
0000
1000
0100
,
1000
0000
0010
0000
,
0100
0000
0001
0010
,
0001
0000
1000
0000
,
0010
0000
0100
0001
,
0100
0000
0010
0000
,
1000
0000
0100
0010
,
0001
0000
0001
0000
,
1000
0000
1000
0000
,
0001
0000
0010
0000
,
0100
0000
0100
0000
,
1000
0000
0010
0000
,
0100
0000
0100
0000
,
0001
0000
0010
0000
,
0100
0000
0100
0000
,
1000
0000
1000
0000
,
0010
0000
0010
0000
,
0100
0000
0100
0000
,
0001
1000
0001
1000
,
0001
0000
0001
0000
,
1000
0000
1000
0000
,
0100
0000
0100
0000
,
0010
0000
0010
0000
,
0001
0010
0100
1000
,
0001
0010
0100
1000
,
0001
0010
0100
1000
,
0001
0010
0100
1000
,
1000
0010
0100
0001
,
1000
0010
0100
0001
,
1000
0010
0100
0001
,
1000
0010
0100
0001
,
1001
0000
0000
0000
;

//---------------dance-single - Renard----------------
#NOTES:
     dance-single:
     Renard:
     Challenge:
     11:
     0.878,0.881,0.333,0.000,0.651: // measure 1
0000
0000
0000
0000
,  // measure 2
0000
0000
0000
0000
,  // measure 3
0000
0000
0000
0000
,  // measure 4
0000
0000
0000
0000
,  // measure 5
1001
0000
0100
0010
0000
1000
0001
0000
,  // measure 6
1001
0000
0100
0010
0000
1000
0001
0000
,  // measure 7
1100
0000
1000
0001
0000
0100
0010
0000
,  // measure 8
1001
0000
1000
0100
0010
0001
1000
0000
,  // measure 9
0001
0100
0001
0100
0010
1000
0010
1000
,  // measure 10
0100
0000
0010
0000
0001
0000
1000
0001
1000
0001
1000
0000
0001
0000
0100
0000
,  // measure 11
0010
1000
0100
0010
0001
1000
0010
0100
,  // measure 12
0001
0000
0010
0000
0100
0000
1000
0001
1000
0001
1000
0000
0001
0000
0100
0000
,  // measure 13
0010
1000
0100
0010
0001
0010
0100
1000
,  // measure 14
0010
0000
0100
0000
0001
0000
1000
0001
1000
0001
1000
0000
0001
0000
0100
0000
,  // measure 15
0010
1000
0100
0010
0001
1000
0010
0100
,  // measure 16
0001
0000
1000
0000
0001
0000
1000
0001
1000
0001
1000
0000
0001
0000
0100
0010
,  // measure 17
0100
0000
0010
0000
1000
0000
0100
1000
0100
1000
0100
0000
1000
0000
0001
0010
,  // measure 18
0001
0000
0010
0000
0001
0000
1000
0010
1000
0010
1000
0000
0001
0000
0100
0001
,  // measure 19
0100
0000
0001
0000
1000
0000
0100
1000
0100
1000
0100
0000
1000
0000
0001
0010
,  // measure 20
0001
0000
0010
0000
0001
0000
1000
0010
1000
0010
1000
0000
0001
0000
0100
0001
,  // measure 21
0100
0000
0001
0000
1000
0000
0100
1000
0100
1000
0100
0000
1000
0000
0001
0010
,  // measure 22
0001
0000
0010
0000
0001
0000
1000
0010
1000
0010
1000
0000
0010
0000
1000
0001
,  // measure 23
0100
0000
0001
0000
0100
0000
0001
1000
0001
1000
0001
0000
1000
0000
0100
0000
,  // measure 24
1000
0000
0001
1000
0001
0000
1000
0000
0001
0000
1001
0000
0000
0000
0000
0000
,  // measure 25
1000
0001
0100
0010
1000
0000
0100
0010
,  // measure 26
0000
0001
0100
0010
0000
1000
0100
0010
,  // measure 27
0001
0100
0010
1000
0100
0000
0010
0001
,  // measure 28
0000
0100
0010
1000
0000
0100
0010
0001
,  // measure 29
0010
0100
1000
0010
0100
0000
0001
0010
,  // measure 30
0000
0100
1000
0010
0000
0100
0001
0010
,  // measure 31
0000
0000
0100
0000
0000
0000
1000
0000
0001
0000
1000
0001
1000
0000
0001
0000
,  // measure 32
0100
0000
0010
0100
0010
0000
0100
0000
0010
0000
1000
0010
1000
0000
0000
0000
,  // measure 33
0100
0010
0001
0010
0100
1000
0010
0100
,  // measure 34
0001
0010
0100
1000
0010
0100
0001
0010
,  // measure 35
0100
1000
0010
0100
0001
0010
0100
0010
,  // measure 36
0001
1000
0100
0010
0001
1000
0100
0000
,  // measure 37
1000
0100
0010
0001
0100
0010
1000
0100
,  // measure 38
0010
0001
0100
0010
1000
0100
0010
0001
,  // measure 39
1000
0000
0001
1000
0001
0000
1000
0000
0001
0000
0100
0001
0100
0000
0001
0000
,  // measure 40
0100
0000
0010
0100
0010
0000
1000
0010
1000
0000
0001
1000
0001
0000
1000
0000
,  // measure 41
0100
0000
0010
0001
0010
0000
0001
0000
0010
0000
0100
1000
0100
0000
1000
0000
,  // measure 42
0010
0000
1000
0010
1000
0000
0001
0000
1000
0000
0100
0000
1000
0000
0001
0000
,  // measure 43
0010
0000
0001
1000
0001
0000
1000
0000
0010
0000
0100
0010
0100
0000
0010
0000
,  // measure 44
0100
0000
0101
0000
0100
0110
0000
0010
,  // measure 45
1010
0000
0000
0000
1000
0000
0100
0010
0001
0000
0010
0000
0100
0000
1000
0000
,  // measure 46
0001
0000
1000
0000
0001
0000
0100
0000
0010
0000
1000
0010
1000
0000
0100
0000
,  // measure 47
0010
0001
0010
0100
1000
0001
0100
0010
,  // measure 48
1000
0001
1001
0000
1000
1001
0000
0001
,  // measure 49
1000
0000
0100
0000
1100
0000
0000
1010
0000
0000
1001
0000
0000
1100
0000
0000
,  // measure 50
1001
0000
1000
0100
0010
0000
0010
0001
,  // measure 51
0100
0000
0000
0000
0101
0000
0000
1001
0000
0000
0011
0000
0000
0101
0000
0000
,  // measure 52
1001
0000
0001
0100
0010
0000
1000
0000
,  // measure 53
0100
0000
0000
0000
1010
0000
0000
1100
0000
0000
1001
0000
0000
1010
0000
0000
,  // measure 54
1001
0000
1000
0100
0010
0000
0001
0010
,  // measure 55
0100
0000
0000
0000
1100
0000
0000
1010
0000
0000
1001
0000
0000
1100
0000
0000
,  // measure 56
1000
0100
0010
0001
0010
0100
1000
0001
0100
0000
0000
0000
1001
0000
0000
0000
,  // measure 57
0001
0100
0010
1000
0100
0010
0001
0010
0100
0000
0000
0000
1000
0001
0100
0000
,  // measure 58
0000
0000
0010
1000
0100
0010
0001
0000
0000
0000
0010
0100
1000
0001
0100
0010
,  // measure 59
1000
0100
0010
0001
0010
0100
1000
0001
0100
0000
0000
0000
0010
1000
0100
0000
,  // measure 60
0000
0000
1000
0100
0010
0001
0010
0000
0000
0000
0001
0010
0100
1000
0001
0100
,  // measure 61
0010
1000
0100
1000
0001
1000
0100
1000
0001
0000
0000
0000
1000
0100
0010
0000
,  // measure 62
0000
0000
0100
0010
0001
1000
0010
0000
0000
0000
0100
0001
1000
0001
0010
0001
,  // measure 63
1000
0001
0100
0001
0010
0100
1000
0100
0010
0000
0000
0000
0100
0010
0001
0000
,  // measure 64
0000
0000
0100
0010
1000
0100
0010
0000
0000
0000
0001
1000
0010
0100
0001
0000
,  // measure 65
1000
0010
0100
0001
0010
0100
1000
0100
0010
0000
0000
0000
0001
1000
0010
0000
,  // measure 66
0000
0000
0100
0001
0010
0100
1000
0000
0000
0000
0100
0010
0001
1000
0010
0100
,  // measure 67
0001
0010
0100
1000
0100
0010
0001
1000
0010
0000
0000
0000
0100
0001
0010
0000
,  // measure 68
0000
0000
0001
0010
0100
1000
0100
0000
0000
0000
1000
0100
0010
0001
1000
0010
,  // measure 69
0100
0001
0010
0001
1000
0001
0010
0001
1000
0000
0000
0000
0001
0010
0100
0000
,  // measure 70
0000
0000
0010
0100
1000
0001
0100
0000
0000
0000
0010
1000
0001
1000
0100
1000
,  // measure 71
0001
1000
0010
1000
0100
0010
0001
0010
0100
0000
0000
0000
0010
0100
1000
0000
,  // measure 72
0000
0000
0010
0100
0001
0010
0100
0000
0000
0000
0110
0000
1001
0000
0110
0000
,  // measure 73
1001
0000
0000
0000
;
