#TITLE:Cancer;
#SUBTITLE:;
#ARTIST:Emoticon;
#TITLETRANSLIT:;
#SUBTITLETRANSLIT:;
#ARTISTTRANSLIT:;
#CREDIT:;
#BANNER:cancer.png;
#BACKGROUND:cancer-bg.png;
#LYRICSPATH:;
#CDTITLE:;
#MUSIC:cancer.ogg;
#OFFSET:0.000;
#SAMPLESTART:10.717;
#SAMPLELENGTH:12.000;
#SELECTABLE:YES;
#BPMS:0.000=179.155;
#STOPS:;
#BGCHANGES:;

//---------------dance-single - Renard----------------
#NOTES:
     dance-single:
     Renard:
     Hard:
     8:
     0.533,0.666,0.519,0.241,0.000:
0000
0000
0000
0000
,
0000
0000
0000
0000
,
0000
0000
0000
0000
,
0000
0000
0000
0000
,
1001
0000
0001
0100
0101
0000
1000
0100
,
1100
0000
0001
0010
0011
0000
1000
0010
,
1010
0000
1001
0000
,
0101
0000
1001
0110
,
2001
0000
0100
0000
0010
0000
3010
0100
,
0002
0000
0010
0000
0100
0000
1000
0003
,
0101
0000
1001
0000
1010
0000
0001
1000
,
0000
1000
0100
0000
1100
0000
0002
0020
,
0000
0003
0100
0000
0100
0000
1000
0000
,
0100
0001
0000
0001
0000
0000
0130
0000
,
1100
1010
1001
0101
,
0001
0200
0000
0010
0000
1000
0000
0000
,
0010
0000
0000
0000
0010
0000
0001
0010
,
0000
0010
0320
0000
,
1030
0000
0100
0000
0010
0000
0001
0010
,
0000
0100
0000
0000
1100
0000
2000
0002
,
0000
0000
3000
0000
0000
0000
0100
0003
,
0100
0010
0000
0120
0000
0000
1000
0000
,
0100
0001
0100
1000
,
1000
1030
0000
0000
0000
0000
1010
0000
,
1001
1000
1100
0100
,
0110
0010
0011
0001
,
1001
0000
0001
0100
0010
0000
1000
0001
,
0010
0100
1000
0002
,
0100
0010
2000
0000
,
0010
0000
0000
0000
0010
3003
0000
0000
,
2000
0002
0100
0000
,
0100
0000
3103
0001
,
0100
0020
0000
1000
,
0000
0100
0000
0001
,
0032
0000
0000
0000
0020
0003
0000
0000
,
0230
0302
0000
2003
,
3100
0000
0100
0010
0000
0010
0001
0000
,
0001
0010
0110
0100
,
1000
0000
0010
0100
0000
0001
0100
0000
,
0010
1000
0001
0000
1001
0000
0110
0000
,
1001
0000
0010
0100
0000
0110
0000
1001
,
0000
1000
0100
0010
0001
0010
0100
1000
,
1001
0000
0010
0100
0000
1001
0000
0110
,
0000
0001
0010
0100
1000
0001
1000
0000
,
0110
0000
1000
0001
0000
0110
0000
1001
,
0000
1000
0010
0100
0001
0010
0100
1000
,
0001
0000
0001
1000
0000
1010
0000
1010
,
0000
1001
0000
1001
0101
0000
1001
0000
,
1001
0000
0000
0100
0000
0000
0010
0000
,
0000
1000
0000
0000
0100
0000
0010
0000
,
0001
0000
0000
0010
0000
0000
1000
0000
,
0000
0100
0000
0000
0001
0000
0010
0000
,
0001
0000
0000
1000
0000
0000
0010
0000
,
0000
0100
0000
0000
0001
0000
0100
0000
,
1000
0000
0000
0010
0000
0000
0001
0000
,
0000
0100
0000
0000
0010
0000
1000
0000
,
0100
0000
1100
0000
0001
0010
0100
1000
,
0010
0000
0100
0000
0001
0000
0100
0010
,
1000
0000
0100
0000
0010
0000
0001
0010
,
0000
0100
0000
0000
1000
0010
0200
0000
,
0001
1000
0010
0301
,
0001
0010
0100
0000
1000
0000
0010
0000
,
0201
0000
0010
0000
1000
0000
0010
0001
,
0000
0001
0010
0300
0010
0100
0001
0000
,
0020
0000
0100
0000
1000
0000
0100
0030
,
0200
0000
1000
0000
0010
0000
1000
0300
,
2000
0000
0010
0000
0001
0000
0010
3000
,
0002
0100
1000
0103
,
0001
0100
0010
0000
0010
0000
1000
0000
,
0100
0010
0001
0010
,
0100
1000
0020
0000
0100
0000
0001
0000
,
0100
0000
1000
1000
0100
0030
0100
0000
,
0010
0000
1000
0100
0010
0000
0001
0000
,
0010
0000
0100
1000
0010
0000
0100
0000
,
0001
0000
0100
0010
1000
0000
1010
0000
,
1001
0000
1100
0000
1000
0100
0010
0000
,
0001
0010
0100
1000
0000
0001
1000
0000
,
1010
1001
0101
1001
,
1100
0000
0001
0010
0100
1000
0001
0000
,
0100
0010
1000
0001
1000
0000
1001
0000
;

//---------------dance-single - Renard----------------
#NOTES:
     dance-single:
     Renard:
     Medium:
     5:
     0.387,0.407,0.028,0.000,0.000:
0000
0000
0000
0000
,
0000
0000
0000
0000
,
0000
0000
0000
0000
,
0000
0000
0000
0000
,
0001
0000
0010
0000
,
0001
0000
0100
0000
,
0010
0000
0010
0000
,
0010
0000
0010
1001
,
1000
1000
0100
0100
,
0010
0010
0001
0000
,
0010
0000
0000
0000
0100
0000
1000
0010
,
0000
0000
0100
0000
0001
0000
0010
0001
,
0000
0000
0000
1000
,
0001
1000
0000
0001
0000
0000
0100
0000
,
0010
0000
1000
0000
0100
0000
0010
0001
,
0000
0010
0000
0100
0000
1000
0000
0000
,
0010
0000
0000
0000
0000
0000
0100
0001
,
0000
0100
0100
0000
,
0010
0000
0000
0000
1000
0000
0100
0010
,
0000
0001
0000
0000
0010
0000
0100
1000
,
0010
0000
0100
0001
,
1000
0001
0000
1000
0000
0000
0001
0000
,
0100
0010
1000
0010
,
1000
0001
0000
0000
0000
0000
0100
0000
,
0001
0001
1000
1000
,
0100
0100
0010
0001
,
0010
0010
0100
0000
,
1000
0000
0010
0000
0100
0000
0001
0100
,
0001
0100
0100
0000
,
0010
1000
1000
0000
,
0100
1000
1000
0001
,
0010
0000
0001
1000
,
0010
1000
0000
0001
,
0000
0100
0000
0001
,
1000
0000
0100
1000
0100
0000
1000
0000
,
0001
0000
0010
0001
0010
0000
0001
0000
,
1000
0001
1000
0001
1000
0000
0001
0000
,
1000
0001
1000
0000
,
0010
0100
0010
0100
0010
0000
0100
0000
,
0010
0100
0010
0000
,
0010
0010
1000
1000
,
0000
0001
0100
0001
0100
0000
0001
0000
,
1000
1000
0100
0100
,
0000
0010
0001
0010
0001
0010
0001
0000
,
1000
1000
0001
0001
,
0000
0100
0001
0100
0001
0100
0001
0000
,
1000
1000
0010
0010
,
0000
1000
0100
1000
0100
0000
1100
0000
,
1000
1000
0001
0001
,
0010
0010
0100
0000
,
1000
1000
0001
0001
,
0100
0100
0010
0000
,
1000
0000
0010
0100
,
0001
0010
0001
0010
,
0100
1000
0010
0100
,
0001
0100
0000
0000
0001
0000
1000
0000
,
0100
0000
0010
0000
0001
0000
0010
0100
,
1000
0000
0001
0000
,
0100
0000
0010
0000
1000
0000
0010
0100
,
0000
0100
0000
0000
0001
0100
0010
0000
,
1000
0010
1000
0100
,
0010
0001
0010
0100
,
1000
0000
0001
0000
0100
0000
0001
1000
,
0000
0001
0000
0000
1000
0000
0010
0000
,
0100
0100
0001
0001
,
1000
0010
0100
0001
,
1000
0000
0001
0000
,
1000
0100
0000
0010
,
0000
0001
0010
0000
0100
0000
1000
0000
,
0010
0100
0000
0001
,
0000
1000
0010
0000
1000
0000
0001
0000
,
0100
0001
1000
0100
,
0010
0000
0001
0010
0000
0000
0001
0000
,
0010
0000
0100
1000
0000
0000
0100
0000
,
1000
0000
0010
1000
0000
0000
0010
0000
,
0100
0000
0001
0100
0000
0000
0001
0000
,
1000
0000
0100
1000
0100
0000
1000
0000
,
0001
0000
0010
0001
0010
0000
0001
0000
,
1000
0010
1000
0000
1000
0000
1000
0000
,
0001
0100
0001
0000
0001
0000
1001
0000
;

//---------------dance-single - Renard----------------
#NOTES:
     dance-single:
     Renard:
     Easy:
     2:
     0.242,0.333,0.019,0.019,0.000: // measure 1
0000
0000
0000
0000
,  // measure 2
0000
0000
0000
0000
,  // measure 3
0000
0000
0000
0000
,  // measure 4
0000
0000
0000
0000
,  // measure 5
1000
0000
1000
0000
,  // measure 6
0001
0000
0001
0000
,  // measure 7
0100
0000
0100
0000
,  // measure 8
0100
0000
0100
0010
,  // measure 9
1000
0000
0001
0100
,  // measure 10
0001
0000
1000
0000
,  // measure 11
0010
0000
0010
0000
,  // measure 12
0100
0000
0001
0000
,  // measure 13
0010
0000
0100
1000
,  // measure 14
0100
0000
1000
0000
,  // measure 15
0001
0000
0010
0000
,  // measure 16
0001
0000
1000
0000
,  // measure 17
0010
0000
0100
0001
,  // measure 18
0100
0000
0100
0000
,  // measure 19
0010
0000
1000
0000
,  // measure 20
0001
0000
0100
0000
,  // measure 21
0001
0000
1000
0100
,  // measure 22
1000
0000
0001
0000
,  // measure 23
0010
0000
0001
0000
,  // measure 24
1000
0000
0010
0000
,  // measure 25
0100
0000
0100
0000
,  // measure 26
0001
0000
0001
0000
,  // measure 27
0010
0000
0010
0000
,  // measure 28
1000
0000
1000
0000
,  // measure 29
0100
0000
0100
0000
,  // measure 30
0010
0001
1000
0000
,  // measure 31
0001
0000
0001
0000
,  // measure 32
1000
0000
0010
0100
,  // measure 33
0001
1000
0000
0001
,  // measure 34
0000
0100
0000
0010
,  // measure 35
0000
1000
0001
0000
,  // measure 36
0100
0001
0000
1000
,  // measure 37
0001
0000
0001
0000
,  // measure 38
1000
0000
1000
0000
,  // measure 39
0001
0000
0001
0000
,  // measure 40
0100
0010
0100
0110
,  // measure 41
0010
0010
1000
1000
,  // measure 42
0010
0010
1000
0000
,  // measure 43
0001
0000
0100
0000
,  // measure 44
0001
0000
0000
0000
,  // measure 45
1000
1000
0100
0100
,  // measure 46
1000
0100
1000
0000
,  // measure 47
0001
0000
0010
0000
,  // measure 48
0001
0000
0001
0000
,  // measure 49
1000
0000
1000
0000
,  // measure 50
0001
0000
0001
0000
,  // measure 51
0200
0000
0000
0000
,  // measure 52
0010
0000
0010
0000
,  // measure 53
0310
0000
0010
0000
,  // measure 54
1000
0000
1000
0000
,  // measure 55
0002
0000
0000
0000
,  // measure 56
0100
0000
0100
0000
,  // measure 57
0103
0001
0100
0000
,  // measure 58
0010
0000
1000
0000
,  // measure 59
0100
1000
0100
0000
,  // measure 60
1000
0000
0001
0000
,  // measure 61
0010
0001
1000
0000
,  // measure 62
0010
0000
1000
0000
,  // measure 63
0001
0100
0010
0000
,  // measure 64
1000
0000
0100
0000
,  // measure 65
0010
0000
0010
0000
,  // measure 66
0001
0000
0001
0000
,  // measure 67
1000
0000
1000
0000
,  // measure 68
0010
0100
0000
0001
,  // measure 69
0000
0100
0000
0010
,  // measure 70
1000
0100
0000
0010
,  // measure 71
0000
0001
0000
0010
,  // measure 72
0100
1000
0010
1000
,  // measure 73
0001
0100
0000
0001
,  // measure 74
0000
1000
0000
0001
,  // measure 75
0000
0000
1000
0000
,  // measure 76
0010
0100
0000
0001
,  // measure 77
1000
0000
1000
0000
,  // measure 78
0001
0000
0001
0000
,  // measure 79
1000
0100
0010
0001
,  // measure 80
1000
0100
0010
1001
;
