#TITLE:Burning Rome;
#SUBTITLE:;
#ARTIST:Emoticon;
#TITLETRANSLIT:;
#SUBTITLETRANSLIT:;
#ARTISTTRANSLIT:;
#CREDIT:;
#BANNER:rome.png;
#BACKGROUND:rome-bg.png;
#LYRICSPATH:;
#CDTITLE:;
#MUSIC:rome.ogg;
#OFFSET:0.000;
#SAMPLESTART:26.351;
#SAMPLELENGTH:12.000;
#SELECTABLE:YES;
#BPMS:0.000=173.050;
#STOPS:;
#BGCHANGES:;

//---------------dance-single - Renard----------------
#NOTES:
     dance-single:
     Renard:
     Hard:
     9:
     0.575,0.656,0.216,0.227,0.294:
0000
0000
0000
0000
,
0000
0000
0000
0000
,
0000
0000
0000
0000
,
0000
0000
0000
0000
,
0000
0000
0000
0000
,
2000
0000
0000
3020
,
0230
0000
0302
0023
,
0230
0000
0000
0000
,
0000
0000
0000
0000
,
1300
0001
1000
0001
0100
0010
0100
0010
,
1000
0000
0001
0000
1000
0000
0001
0000
1000
0001
1000
0001
1000
0000
0001
0000
,
1000
0000
0001
0000
0000
0100
0000
0000
0010
0000
0000
1000
0000
0000
0100
0000
,
0010
0000
0001
0000
0000
1000
0000
0000
0001
0000
0000
0100
0000
0000
0010
0000
,
1000
0000
0100
0000
0000
0010
0000
0000
0001
0000
0000
1000
0000
0000
0010
0000
,
0100
0000
0001
0000
0100
0000
0010
0000
1000
0010
1000
0000
0010
0000
0100
0000
,
0001
0000
0010
0000
0000
0100
0000
0000
1000
0000
0000
0100
0000
0000
0010
0000
,
0001
0000
1000
0000
0000
0010
0000
0000
0100
0000
0001
0000
0100
0000
0010
0000
,
1000
0000
0010
0000
0000
1000
0000
0000
0100
0000
0000
0010
0000
0000
0001
0000
,
0001
1000
0001
1000
0001
1000
0001
0000
2002
0000
0000
0000
0000
0000
3003
0000
,
1000
0000
1000
0001
0100
0000
0100
0010
,
1000
1000
0010
0100
,
0011
0000
0010
0000
0110
0000
0100
1000
,
0010
0000
0100
0000
0001
0000
0010
0001
0010
0000
0001
0000
0010
0000
0100
0000
,
0010
0000
0100
1000
0010
0000
1010
0000
,
0101
0011
0110
1100
,
1001
0000
0100
0000
0110
0000
1000
0010
,
0100
0000
0001
0000
0010
0000
0100
0000
1000
0000
0001
1000
0001
0000
1000
0000
,
0101
0000
0100
0010
1000
0000
1100
0000
,
0110
0000
0010
0001
0100
0000
0110
0000
,
1010
1000
1001
0001
,
0110
0000
0010
1000
0100
0010
0001
0000
,
1001
0000
0001
0100
0010
0000
1010
0000
,
1001
0000
1000
0100
0010
0000
0001
0000
,
1001
0000
0100
0000
0010
1000
0100
0010
,
0001
1000
0001
0000
1000
0000
0001
0000
1000
0000
0001
1000
0000
0001
1000
0000
,
0001
0100
0001
0100
0001
0000
0000
0100
0000
0100
0000
0000
0100
0000
0000
0000
,
0010
1000
0100
0010
,
0100
1000
0100
1000
0100
0000
0000
1000
0000
1000
0000
0000
0100
0000
0000
0000
,
1000
0010
0100
0001
,
0010
0001
0010
0001
0010
0000
0000
0001
0000
0100
0000
0000
0001
0000
0000
0000
,
0100
0010
1000
0100
,
1000
0010
1000
0010
1000
0000
0000
0010
0000
1000
0000
0000
0010
0000
0000
0000
,
0100
0000
0001
0000
0100
0010
1000
0001
,
0100
0010
0100
0010
0100
0000
0000
0010
0000
0100
0000
0000
0010
0000
0000
0000
,
1000
0100
0010
0001
0010
0100
1000
0000
,
0001
1000
0001
1000
0001
0000
0000
1000
0000
0001
0000
0000
1000
0000
0000
0000
,
0010
0100
0001
0010
0100
1000
0001
0100
,
0010
0100
0010
0100
0010
0000
0000
0100
0000
0010
0000
0000
0100
0000
0000
0000
,
0010
1000
0100
0000
0010
0001
0100
0000
,
0001
1000
0001
1000
0001
0000
0000
0100
0000
0010
0000
0000
1000
0000
0000
0000
,
0001
0000
0000
0000
0000
0000
0000
0000
1000
0001
1000
0001
1000
0001
1000
0000
,
0001
0100
0010
1000
0100
0010
0100
1000
,
0010
0100
0001
0100
0010
1000
0100
0010
,
0001
0010
0100
0000
0100
1000
0010
0000
,
0010
0100
0001
0100
0010
1000
0100
0010
,
0001
1000
0010
0100
0001
0100
0010
0100
,
0010
1000
0100
0010
0001
0010
0100
1000
,
0001
0100
0010
0000
0010
1000
0100
0000
,
0020
0000
0000
0030
,
0002
0000
0000
0203
,
0320
0000
2030
0000
,
3200
0000
0320
0000
,
0032
0000
2000
0003
,
0020
3000
0200
0030
,
0002
0300
2000
0000
,
0020
0000
0000
0000
,
0000
0000
0000
0000
,
3033
0000
0000
0000
;

//---------------dance-single - Renard----------------
#NOTES:
     dance-single:
     Renard:
     Medium:
     5:
     0.359,0.484,0.093,0.175,0.000:
0000
0000
0000
0000
,
0000
0000
0000
0000
,
0000
0000
0000
0000
,
0000
0000
0000
0000
,
0000
0000
0000
0000
,
2000
0000
0000
0000
0000
0000
0001
3000
,
0002
0000
0000
0100
,
0203
0000
0000
0000
,
0000
0000
0000
0000
,
0010
0010
0010
0010
,
0310
0100
0010
0100
0010
0100
0010
0100
,
0010
0110
0000
0110
,
0001
1001
0000
1001
,
1000
1001
0000
1001
,
0100
0110
0110
0110
,
0010
1000
0010
0000
1000
0000
1000
0000
,
0001
0100
0001
0000
0001
0000
0001
0000
,
1000
0100
1000
0000
0001
0010
0001
0000
,
2000
0000
0000
0000
0002
0000
0000
3003
,
1000
1000
1000
0001
,
0100
0100
0001
0001
,
0010
0010
0100
0100
,
0100
0100
0100
0100
,
1000
1000
1000
0010
,
0100
0001
0010
0100
,
0010
0010
0001
0001
,
0001
0001
0001
0001
,
1000
1000
1000
0010
,
0100
0100
0001
0001
,
0010
0010
0100
0100
,
0100
0100
0100
0100
,
1000
1000
1000
0001
,
0010
0010
0010
0010
,
0100
0100
0100
0100
,
0100
0100
0100
0100
,
1000
0000
0001
0000
,
0100
0000
0001
0000
1000
0001
1000
0000
,
0001
0000
0010
0000
,
0100
0000
1000
0000
0001
0000
1000
0001
,
1000
0000
0010
0000
,
0100
0000
0001
0000
0010
0000
0001
1000
,
0001
0000
1000
0000
,
0010
0100
0001
1000
,
0100
1000
0001
0010
,
0001
0000
1000
0000
0010
0000
0100
0010
,
0100
0010
1000
0001
,
0100
0001
1000
0100
,
0010
0001
0010
0100
,
1000
0000
0001
0000
0010
0000
0001
1000
,
0001
0100
0010
1000
,
0002
0000
2000
3003
,
1000
1000
0001
0001
,
1000
0000
0001
0000
1000
0001
1000
0000
,
0001
0001
1000
1000
,
0001
0000
1000
0000
0001
1000
0001
0000
,
0100
0100
0010
0010
,
0100
0000
0010
0000
0100
0010
0100
0000
,
0010
0100
0010
0000
0100
0010
0100
0000
,
0020
0000
0000
0000
,
1030
0000
0000
0001
,
0100
0000
0010
0000
,
0020
0000
2030
0000
,
3200
0000
0320
0000
,
0032
0000
2003
0000
,
3002
0000
0200
0003
,
0020
0000
0000
0000
,
0000
0000
0000
0000
,
0000
0330
0000
0000
0000
0000
0000
0000
;

//---------------dance-single - Renard----------------
#NOTES:
     dance-single:
     Renard:
     Easy:
     2:
     0.240,0.311,0.010,0.361,0.000: // measure 1
0000
0000
0000
0000
,  // measure 2
0000
0000
0000
0000
,  // measure 3
0000
0000
0000
0000
,  // measure 4
0000
0000
0000
0000
,  // measure 5
0000
0000
0000
0000
,  // measure 6
2000
0000
0000
0001
,  // measure 7
3002
0000
0000
0000
,  // measure 8
0203
0000
0000
0000
,  // measure 9
0000
0000
0000
0000
,  // measure 10
0000
0000
0000
0000
,  // measure 11
0000
0000
0000
0300
,  // measure 12
0010
0010
0010
0010
,  // measure 13
0010
0010
0010
0010
,  // measure 14
0100
0100
0100
0100
,  // measure 15
0100
0100
0100
0100
,  // measure 16
0001
0000
1000
0000
,  // measure 17
0001
0000
1000
0000
,  // measure 18
0001
0000
1000
0000
,  // measure 19
1001
0000
0000
0000
,  // measure 20
0002
0000
0000
1003
,  // measure 21
0200
0000
0320
0000
,  // measure 22
0032
0000
2000
0000
,  // measure 23
0000
0000
0003
0000
,  // measure 24
0020
0000
3000
0130
,  // measure 25
0002
0000
0200
0003
,  // measure 26
0020
0300
2000
0000
,  // measure 27
0000
0000
0000
0030
,  // measure 28
0200
0000
0000
3000
,  // measure 29
0020
0300
0002
0030
,  // measure 30
2000
0003
0002
0000
,  // measure 31
0000
0000
0000
3000
,  // measure 32
0200
0000
0003
0010
,  // measure 33
0020
0000
0000
0300
,  // measure 34
2000
0000
0000
0000
,  // measure 35
0000
0000
0000
3030
,  // measure 36
1000
1000
0001
0001
,  // measure 37
0100
0100
0100
0000
,  // measure 38
0010
0010
1000
1000
,  // measure 39
0001
0001
0001
0000
,  // measure 40
0100
0000
0100
0000
,  // measure 41
0001
1000
0001
1000
,  // measure 42
0010
0000
0010
0000
,  // measure 43
1000
0001
0100
0001
,  // measure 44
1000
1000
0100
0100
,  // measure 45
0010
0010
0001
0000
,  // measure 46
0010
0010
0100
0100
,  // measure 47
1000
0010
1000
0000
,  // measure 48
0001
0001
0100
0100
,  // measure 49
0001
1000
0001
0000
,  // measure 50
1000
1000
0010
0010
,  // measure 51
0100
0001
0100
0000
,  // measure 52
0001
0000
0001
0000
,  // measure 53
0001
0000
0001
0000
,  // measure 54
0001
0000
0001
0000
,  // measure 55
0001
0000
0002
0000
,  // measure 56
1000
0000
1000
0000
,  // measure 57
1000
0000
2000
0000
,  // measure 58
0020
0000
0000
0000
,  // measure 59
3033
0000
0000
0000
,  // measure 60
0002
0000
0000
1000
,  // measure 61
2000
0003
0020
3000
,  // measure 62
0200
0030
0002
0300
,  // measure 63
2000
0003
0200
3000
,  // measure 64
0020
0300
0002
0030
,  // measure 65
2000
0000
0000
0000
,  // measure 66
0020
0000
0000
0000
,  // measure 67
0000
0000
0000
0000
,  // measure 68
3033
0000
0000
0000
;
