#TITLE:Buggie Running Beeps;
#SUBTITLE:;
#ARTIST:Keiichi Sugiyama;
#TITLETRANSLIT:;
#SUBTITLETRANSLIT:;
#ARTISTTRANSLIT:;
#CREDIT:;
#BANNER:buggie.png;
#BACKGROUND:buggie-bg.png;
#LYRICSPATH:;
#CDTITLE:;
#MUSIC:buggie.ogg;
#OFFSET:0.000;
#SAMPLESTART:41.143;
#SAMPLELENGTH:12.000;
#SELECTABLE:YES;
#BPMS:0.000=140.000;
#STOPS:;
#BGCHANGES:;

//---------------dance-single - Renard----------------
#NOTES:
     dance-single:
     Renard:
     Challenge:
     10:
     0.840,0.925,0.279,0.192,1.000:
0000
0000
0000
0000
,
0000
0000
0000
0000
,
0000
0000
0000
0000
,
0000
0000
0000
0000
,
1000
0001
0001
0000
0002
0000
0100
0000
0000
0000
0203
0000
1000
0000
0010
0000
,
0000
0320
1000
0100
0000
0100
2030
0100
,
0000
0100
3002
0010
0000
0023
1000
0031
,
0001
0010
0100
1000
0010
0100
0001
0010
0100
1000
0010
0100
0001
0010
0100
1000
,
0001
0100
0010
1000
0000
0000
0010
0000
1000
0000
0100
0010
0000
0000
0001
0000
,
0010
0100
1000
0001
0000
0000
0010
0000
0100
0000
1000
0010
0000
0000
0100
0000
,
0001
0100
0010
1000
0000
0000
0010
0000
1000
0000
0100
0010
0000
0000
0001
0000
,
0010
0100
1000
0001
0000
0000
0010
0000
0100
1000
0001
0100
0000
0001
0100
0000
,
0001
0000
0110
0000
0000
0000
1000
0100
0010
0000
0110
0000
0000
0000
0010
0100
,
1000
0000
0001
0000
0000
0000
0001
0100
0010
0000
1000
0000
0000
0000
0100
0010
,
0001
0000
0011
0000
0000
0000
0010
0100
1000
0000
1001
0000
0000
0000
1000
0001
,
0100
0000
0110
0000
0000
0000
0010
1000
0001
0100
0010
1000
0001
0100
0000
0010
,
0000
1000
0020
0000
0000
0000
0000
0000
0000
0000
0200
0000
0000
0000
0000
0000
,
0000
0001
0000
0000
0000
1000
0000
0330
,
0000
2002
0000
0000
0000
0100
0000
0000
,
0000
0010
0000
3003
0000
0110
0000
1001
,
0000
2200
0000
0000
0000
0001
0000
3300
,
0000
0022
0000
0000
0000
0100
0000
0033
,
0000
2002
0000
0000
0000
0110
3003
0000
,
2200
0000
0011
0000
3300
0000
0000
0000
0000
0000
1000
0001
0100
0001
0000
1000
,
0001
0000
0001
0100
0000
0100
0010
0000
0010
1000
0000
1000
0100
0010
0001
0000
,
0010
0000
0010
0100
0000
0100
1000
0000
1000
0001
0000
0001
0100
0010
1000
0000
,
0100
0000
0010
0001
0000
0010
0100
0000
1000
0001
0000
0100
0010
1000
0010
0000
,
0100
0000
0001
0100
0000
0010
1000
0000
0100
0010
0001
0010
0100
1000
0001
0000
,
0010
0000
0100
1000
0000
0001
0100
0000
0010
1000
0000
0010
0100
0001
0100
0000
,
0010
0000
1000
0100
0000
1000
0001
0000
0010
0001
0000
1000
0001
0100
0010
0000
,
1000
0000
0100
0010
0000
0001
0010
0000
0100
1000
0000
0001
0100
0010
1000
0000
,
0100
1000
0001
0000
0010
0001
0010
0000
0001
0010
0100
1000
0001
0010
0100
1000
,
0001
0000
0010
0001
1000
0000
0100
1000
0001
0000
1000
0001
0100
0000
0010
1000
,
0100
0000
0010
0001
0010
0000
0100
1000
0001
0000
0100
0010
1000
0000
0100
0010
,
0001
0000
0100
0010
1000
0000
0100
0010
0001
0000
0100
0010
1000
0000
0100
1000
,
0001
0000
0010
0100
0010
0000
0001
0010
0100
0000
1000
0001
0100
0000
0010
1000
,
0100
0000
0010
0001
0010
0000
0100
1000
0001
0000
0100
0010
1000
0000
0100
0010
,
0100
0000
1000
0010
0100
0000
0001
0010
0100
0000
1000
0010
0100
0000
0001
0010
,
0100
0000
1000
0100
0010
0000
0001
0010
0100
0000
1000
0001
0100
0000
0010
1000
,
0100
0000
1000
0010
0100
0000
0001
0010
0100
0000
1000
0001
1000
0001
1000
0000
,
0001
0100
0010
1000
0000
1000
0010
0000
0100
0001
0100
0010
0000
1000
0100
0000
,
0010
0001
0010
0100
0000
1000
0001
1000
0000
0001
0000
1000
0000
0001
0000
1000
,
0001
0100
0010
1000
0000
0100
0010
0000
0001
0010
0100
1000
0000
0001
0100
0000
,
0010
1000
0001
0100
0000
0010
1000
0100
0000
0010
0000
0001
0000
0010
0000
0100
,
1000
0001
0100
0010
0000
1000
0100
0000
0010
0001
0010
0100
0000
1000
0001
0000
,
0100
0010
1000
0100
0000
0010
0001
0010
0000
0100
0000
1000
0000
0001
0000
0100
,
0010
1000
0010
0100
0000
0001
0100
0000
0010
1000
0100
0010
0000
0001
0010
0000
,
0100
1000
0001
0100
0000
0010
1000
0100
0000
0010
0000
0001
0000
0010
0000
0100
,
1000
0100
1000
0100
1000
0010
1000
0010
1000
0001
1000
0001
1000
0001
1000
0001
,
1000
0100
1000
0100
1000
0010
1000
0010
1000
0001
1000
0001
1000
0001
1000
0001
,
0100
0001
0100
0001
0010
0001
0010
0001
1000
0001
1000
0001
1000
0001
1000
0001
,
0100
0001
0100
0001
0010
0001
0010
0001
1000
0001
1000
0001
1000
0001
1000
0001
,
0100
0010
0100
0010
0100
1000
0100
1000
0100
0010
0100
0010
0100
0001
0100
0001
,
0100
0010
0100
0010
1000
0010
1000
0010
0001
0010
0001
0010
0100
0010
0001
0010
,
0001
0010
1000
0010
0001
0010
0100
0001
0100
0010
1000
0100
0001
0100
0010
0001
,
1000
0100
0010
0001
0100
0010
1000
0100
0010
0001
1000
0002
2000
0000
0000
3003
,
0001
0100
0010
0000
1010
0000
1000
0100
0010
0000
0011
0000
0010
0100
1000
0000
,
0001
0100
0010
0000
0110
0000
0010
1000
0100
0000
1100
0000
0011
0000
0000
0000
,
0001
0010
0100
0000
0110
0000
0100
1000
0010
0000
1010
0000
1000
0010
0100
0000
,
0001
0100
0010
0000
1010
0000
1000
0100
0010
0000
0011
0000
1100
0000
0000
0000
,
0001
1000
0010
0000
1010
0000
1000
0010
0100
0000
0101
0000
0100
0010
1000
0000
,
0010
1000
0001
0000
1001
0000
0100
0001
1000
0000
0010
0000
1001
0000
0000
0000
,
1000
0100
0010
0000
0110
0000
1000
0100
0010
0000
0011
0000
0010
0100
1000
0000
,
1000
0001
0100
0000
0101
0000
0100
0010
1000
0000
1001
0000
1000
0100
0000
0001
,
0000
2000
0020
0000
0000
0000
3030
0000
0000
0000
0000
0000
0000
0000
0000
0000
;

//---------------dance-single - Renard----------------
#NOTES:
     dance-single:
     Renard:
     Hard:
     8:
     0.526,0.587,0.226,0.000,0.061:
0000
0000
0000
0000
,
0000
0000
0000
0000
,
0000
0000
0000
0000
,
0000
0000
0000
0000
,
1000
0001
0000
0001
0100
0010
0000
0010
,
1000
0100
0000
0100
0010
0001
0000
0001
,
0100
0010
0000
0010
1000
0010
0000
0010
,
0100
0000
0000
0000
0001
0000
0000
0000
1000
0000
0001
1000
0001
0000
1000
0000
,
0010
0100
0010
0000
1000
0001
1000
0000
,
0010
0100
0010
0000
1000
0001
1000
0000
,
0010
0100
0010
0000
1000
0001
1000
0000
,
0010
0100
0010
0000
0000
0110
0000
1001
,
0000
0110
0000
0010
1000
0100
0000
0010
,
0001
0100
0000
0001
0010
0100
0000
1000
,
0010
0100
0000
0010
1000
0100
0000
0010
,
0001
0010
0000
0100
1000
0010
0000
0110
,
0000
1001
0000
0000
0010
0100
0000
0000
,
0001
1000
0000
0000
0100
0010
0000
0000
,
0001
1000
0000
0000
0010
0100
0000
0000
,
0001
1000
0000
0000
0010
0100
0000
0110
,
0000
1001
0000
0000
0001
1000
0100
0010
,
0001
0010
0100
1000
0001
0010
0100
1000
,
0001
0100
0001
1000
0100
0010
0001
1000
,
0001
0000
1000
0001
1000
0000
0001
0000
0100
0000
0010
0100
0010
0100
0000
0010
,
1000
0001
0100
0010
1000
0100
0010
0000
,
0001
0010
0100
1000
0010
0100
0001
0000
,
0001
0100
0010
1000
0100
0010
0001
0000
,
0001
0010
0100
1000
0001
0110
0000
1001
,
0000
0110
0000
0010
1000
0100
0000
0010
,
0001
1000
0000
0001
0100
0010
0000
1000
,
0100
0010
0000
0010
0100
1000
0000
0001
,
0010
0000
0100
0000
0000
0000
0100
0000
0010
0000
1000
0010
1000
0000
0010
0000
,
0001
0100
0010
1000
0100
0010
0001
0010
,
1000
0010
0100
0001
0100
1000
0010
0100
,
0001
1000
0100
0010
0001
0010
0100
1000
,
0001
0100
0010
0000
0010
0000
1001
0000
,
1000
0100
0010
0001
0010
0100
1000
0010
,
0001
0010
0100
0001
1000
0100
0010
0001
,
0010
0100
0001
0100
1000
0010
0100
0001
,
0100
0110
0000
1001
,
1010
0000
1001
0000
0001
0100
0010
1000
,
0001
0000
1100
0000
0010
0001
1000
0010
,
0100
0000
0101
0000
0010
1000
0100
0010
,
0001
0000
0110
0000
0100
1000
0010
0100
,
0001
0000
1001
0000
1000
0100
0010
0000
,
0010
0000
0110
0000
0100
1000
0010
0000
,
0010
1010
0001
0101
,
0001
1000
0010
0100
0001
1000
0010
1000
,
0001
0100
0000
0100
0001
1000
0000
1000
,
0100
1000
0000
1000
0001
0010
0000
0010
,
0001
1000
0000
1000
0010
0100
0000
0100
,
0001
0100
0000
0100
0010
1000
0100
0010
,
0001
1000
0010
0100
0001
0010
0100
1000
,
0010
0100
0001
0010
0100
1000
0010
0100
,
0001
1000
0001
0000
0100
0010
0100
0000
0010
1000
0010
0000
1000
0001
1000
0000
,
0001
0000
0100
0000
0010
0000
1000
0000
0100
0000
0010
0000
0001
0010
0000
0100
,
0000
1000
0001
0000
0100
0000
0010
0000
1000
0000
0100
0000
0010
0000
0001
0000
,
0010
0100
1000
0001
0100
0010
1000
0100
,
1000
0001
0010
0001
1000
0010
0100
0001
,
0010
0100
1000
0010
0000
0110
0000
1001
,
0000
0110
0000
0010
1000
0100
0010
0001
,
0010
0100
1000
0010
0100
0001
0100
0010
,
1000
0100
0010
0001
0010
0100
1000
0010
,
0100
0001
0100
0010
1000
0100
0000
0011
,
0000
0100
1000
0000
0000
0000
0000
0000
0000
0000
0000
0000
0000
0000
0000
0000
;

//---------------dance-single - Renard----------------
#NOTES:
     dance-single:
     Renard:
     Medium:
     5:
     0.296,0.447,0.000,0.000,0.000:
0000
0000
0000
0000
,
0000
0000
0000
0000
,
0000
0000
0000
0000
,
0000
0000
0000
0000
,
0000
1000
0000
0000
0000
0001
0000
0000
,
0000
0100
0000
0000
0000
0100
0000
0000
,
0000
0001
0000
0000
0000
1000
0000
0000
,
0100
0000
0100
0000
0100
1000
0100
1000
,
0001
0100
0000
0000
0001
1000
0000
0000
,
0100
1000
0000
0000
0001
1000
0000
0000
,
0010
1000
0000
0000
0001
1000
0000
0000
,
0100
1000
0000
0000
0001
1000
0001
1000
,
0001
1000
0000
0000
0100
1000
0000
0000
,
0001
1000
0000
0000
0010
1000
0000
0000
,
0001
1000
0000
0000
0100
1000
0000
0000
,
0001
1000
0000
0000
0010
1000
0001
0000
,
1000
0100
0000
0000
0000
0100
0000
0000
,
0000
0010
0000
0000
0000
0010
0000
0000
,
0000
0001
0000
0000
0000
0001
0000
0000
,
0000
1000
0000
0000
0000
1000
0000
0001
,
0000
1000
0001
1000
0001
1000
0001
1000
,
0001
0100
0010
0100
0010
0100
0010
0100
,
0010
1000
0001
1000
0001
1000
0001
1000
,
0010
0100
0010
0100
0010
0100
0010
0000
,
0000
0100
0000
0000
0000
0010
0000
0000
,
0000
1000
0000
0000
0000
0001
0000
0000
,
0000
0100
0000
0000
0000
0010
0000
0000
,
0000
0100
0000
0000
0000
0001
0000
1000
,
0000
0100
1000
0000
0000
0001
0010
0000
,
0000
0100
1000
0000
0000
0001
0010
0000
,
0000
0100
1000
0000
0000
0010
0100
0000
,
0000
0001
1000
0000
0000
0001
0000
0001
,
1000
1000
0001
0001
,
0100
0100
0001
0001
,
1000
1000
0100
0100
,
0010
0010
0001
0001
,
1000
1000
0001
0001
,
0010
0100
1000
0001
,
1000
1000
0001
0001
,
1000
0010
0100
0001
,
1000
0001
0000
0001
,
0100
0010
0000
0010
,
1000
0100
0000
0100
,
0010
0001
0000
0001
,
0100
0010
0000
0010
,
1000
0001
0000
0001
,
0010
0100
0010
0100
,
1000
0001
1000
0001
,
0100
0010
0000
0000
0000
0010
0000
0000
,
0100
0010
0000
0000
0000
0010
0000
0000
,
0100
0010
0000
0000
0000
0010
0000
0000
,
0100
0010
0000
0000
0000
0010
0000
0010
,
0000
0100
0010
0000
0100
0010
0000
0000
,
0100
0010
0000
0000
0100
0010
0000
0010
,
0100
0010
0000
0000
0100
0010
0000
0000
,
0100
0010
0000
0000
0000
1000
0000
0001
,
1000
1000
0001
0001
,
0100
0000
0100
0000
0001
1000
0001
1000
,
0001
0100
0000
0000
0010
1000
0000
0000
,
0001
1000
0000
0000
0100
1000
0001
1000
,
0001
0100
0000
0000
0001
0100
0000
0000
,
0001
1000
0000
0000
0001
1000
0000
0000
,
0010
1000
0000
0000
0010
1000
0000
0000
,
0001
1000
0000
0000
0001
1000
0000
0001
,
0000
1000
0000
0000
0000
0000
0000
0000
;

//---------------dance-single - Renard----------------
#NOTES:
     dance-single:
     Renard:
     Easy:
     2:
     0.197,0.251,0.009,0.044,0.000: // measure 1
0000
0000
0000
0000
,  // measure 2
0000
0000
0000
0000
,  // measure 3
0000
0000
0000
0000
,  // measure 4
0000
0000
0000
0000
,  // measure 5
1000
1000
0001
0000
,  // measure 6
0001
0001
1000
0000
,  // measure 7
0001
0001
1000
0000
,  // measure 8
1000
1000
0001
0001
,  // measure 9
0100
0100
0010
0000
,  // measure 10
0100
0100
0010
0000
,  // measure 11
1000
1000
0001
0000
,  // measure 12
1000
1000
0001
0000
,  // measure 13
0100
0100
0010
0000
,  // measure 14
1000
1000
0001
0000
,  // measure 15
0010
0010
0100
0000
,  // measure 16
1000
1000
0001
1000
,  // measure 17
0001
0000
0001
0000
,  // measure 18
1000
0000
1000
0000
,  // measure 19
0001
0000
1000
0000
,  // measure 20
0001
0000
1000
0001
,  // measure 21
0100
0000
0010
0000
,  // measure 22
1000
0000
0001
0000
,  // measure 23
0100
0000
0001
0000
,  // measure 24
2000
0000
0002
3003
,  // measure 25
1000
1000
0001
0001
,  // measure 26
1000
0001
1000
1000
,  // measure 27
0001
0000
1000
0000
,  // measure 28
0001
0000
1000
0000
,  // measure 29
0001
0001
1000
1000
,  // measure 30
0001
1000
0001
0000
,  // measure 31
1000
0000
0001
0000
,  // measure 32
0100
0000
0001
1000
,  // measure 33
0001
0000
0001
0000
,  // measure 34
1000
0000
1000
0000
,  // measure 35
0001
0000
0001
0000
,  // measure 36
0100
0000
0100
0000
,  // measure 37
0010
0000
0010
0000
,  // measure 38
0100
0000
0100
0000
,  // measure 39
0001
0000
1000
0000
,  // measure 40
0100
0000
0010
0000
,  // measure 41
0001
0000
0010
0000
,  // measure 42
0001
0000
0010
0000
,  // measure 43
0100
0000
1000
0000
,  // measure 44
0100
0000
1000
0000
,  // measure 45
0010
0000
1000
0000
,  // measure 46
0001
0000
0000
0100
,  // measure 47
0010
0000
1000
0000
,  // measure 48
0010
0000
0000
0100
,  // measure 49
0001
0000
0001
0000
,  // measure 50
1000
0000
1000
0000
,  // measure 51
0001
0000
0001
0000
,  // measure 52
1000
0000
1000
0000
,  // measure 53
0001
0001
1000
1000
,  // measure 54
0001
0001
1000
1000
,  // measure 55
0002
0000
2000
0003
,  // measure 56
0002
0000
0000
3003
,  // measure 57
1000
1000
0001
0000
,  // measure 58
0001
0000
0001
0000
,  // measure 59
0100
0100
0010
0000
,  // measure 60
0010
0000
0010
0000
,  // measure 61
1000
0001
1000
0000
,  // measure 62
0010
0100
0010
0000
,  // measure 63
1000
0000
1000
0000
,  // measure 64
0001
0000
0001
0100
,  // measure 65
1001
0000
0000
0000
;
