#TITLE:Bright Sky;
#SUBTITLE:;
#ARTIST:Sota Fujimori;
#TITLETRANSLIT:;
#SUBTITLETRANSLIT:;
#ARTISTTRANSLIT:;
#CREDIT:;
#BANNER:sky.png;
#BACKGROUND:sky-bg.png;
#LYRICSPATH:;
#CDTITLE:;
#MUSIC:sky.ogg;
#OFFSET:0.000;
#SAMPLESTART:20.571;
#SAMPLELENGTH:12.000;
#SELECTABLE:YES;
#BPMS:0.000=140.000;
#STOPS:;
#BGCHANGES:;

//---------------dance-single - Renard----------------
#NOTES:
     dance-single:
     Renard:
     Hard:
     9:
     0.729,0.671,0.264,0.064,0.839: // measure 1
0000
0000
0000
0000
,  // measure 2
0000
0000
0000
0000
,  // measure 3
0000
0000
0000
0000
,  // measure 4
0000
0000
0000
0000
,  // measure 5
1000
0000
0001
0000
1001
0000
0000
0001
0100
0000
0010
0000
0110
0000
0000
0000
,  // measure 6
0010
0000
1000
0000
1010
0000
0000
1000
0100
0000
0010
0000
0110
0000
0000
0000
,  // measure 7
0010
0000
0001
0000
1001
0000
0000
0001
0100
0000
0010
0000
0110
0000
0000
0000
,  // measure 8
0010
0000
1000
0000
1100
0000
0000
1000
0100
0000
0010
0000
0001
0000
1000
0000
,  // measure 9
0001
0000
0100
0000
0110
0000
0000
0010
1000
0000
0100
0000
0010
0000
0000
0000
,  // measure 10
0001
0000
0010
0000
0110
0000
0000
0100
1000
0000
0001
0000
0100
0000
0010
0000
,  // measure 11
1000
0000
0010
0000
1010
0000
0000
1000
0100
0000
0010
0000
0001
0000
0000
0000
,  // measure 12
1000
0001
1001
0010
0100
0110
1000
1001
,  // measure 13
1000
0001
0000
0001
0100
0000
0010
0000
1000
0000
0100
0000
0010
0000
0001
0000
,  // measure 14
1000
0010
0000
0010
0100
0000
0001
0000
0010
0000
0100
0000
1000
0000
0001
0000
,  // measure 15
0100
0010
0000
0010
1000
0000
0100
0000
0010
0000
0001
0000
1000
0000
0100
0000
,  // measure 16
0010
0001
0000
0001
0010
0000
0100
0000
1000
0100
0000
0100
1000
0000
0010
0000
,  // measure 17
0100
0001
0000
0001
0100
0000
0010
0000
1000
0000
0100
0000
0010
0000
0001
0000
,  // measure 18
1000
0100
0000
0100
1000
0000
0001
0000
0010
0000
0100
0000
1000
0000
0001
0000
,  // measure 19
0100
0001
0000
0001
0100
0000
0001
0000
0010
0000
0100
0000
1000
0000
0001
0000
,  // measure 20
0100
0010
0000
0010
0100
0000
0001
1000
0000
1000
0001
0000
0100
0000
0010
0000
,  // measure 21
1000
0000
0010
0000
0100
0000
0000
0001
0000
1000
0100
0000
0010
0000
0000
0000
,  // measure 22
0001
0000
0010
0000
0100
0000
0000
1000
0000
0001
0100
0000
0001
0000
0000
0000
,  // measure 23
1000
0000
0100
0000
0010
0000
0000
0001
0000
1000
0010
0000
0100
0000
0000
0000
,  // measure 24
MMM2
MMM0
MM23
MM0M
M23M
M0MM
23MM
0MMM
,  // measure 25
3MM1
0000
0001
0100
0000
0100
0010
0000
0010
1000
0000
1000
0100
0000
0010
0000
,  // measure 26
0001
0000
0001
0010
0000
0010
0100
0000
0100
1000
0000
1000
0001
0000
0100
0000
,  // measure 27
0010
0000
0010
1000
0000
1000
0001
0000
0001
0100
0000
0100
0010
0000
1000
0000
,  // measure 28
0001
0000
0001
0100
0000
0100
0001
0000
0001
1000
0000
0100
0000
0010
0001
0000
,  // measure 29
1000
0001
0000
0001
0100
0000
0100
0010
0000
0010
1000
0010
0000
1000
0010
0000
,  // measure 30
0010
0100
0000
0100
0001
0000
0001
0010
0000
0010
0100
1000
0000
1000
0001
0000
,  // measure 31
0100
0010
0000
0010
1000
0000
1000
0010
0000
0010
0100
0001
0000
0100
0010
0000
,  // measure 32
1000
0100
0000
0100
1000
0000
1000
0001
0000
0001
0010
0001
0000
0010
0001
0000
,  // measure 33
1000
0001
0000
0001
0100
0000
0100
0010
0000
0010
1000
0010
0000
1000
0010
0000
,  // measure 34
0010
0100
0000
0100
0001
0000
0001
0010
0000
0010
0100
1000
0000
1000
0001
0000
,  // measure 35
0100
0010
0000
0010
1000
0000
1000
0010
0000
0010
0100
0001
0000
0100
0010
0000
,  // measure 36
1000
0100
0000
0100
1000
0000
1000
0001
0000
0001
0010
0001
0000
0001
0010
0000
,  // measure 37
0001
1000
0000
1000
0010
0000
0010
0100
0000
0100
0001
0100
0000
0001
0100
0000
,  // measure 38
0100
0010
0000
0010
1000
0000
1000
0100
0000
0100
0010
0001
0000
0001
1000
0000
,  // measure 39
0010
0100
0000
0100
0001
0000
0001
0100
0000
0100
0010
1000
0000
0010
0100
0000
,  // measure 40
0001
0010
0000
0010
0001
0000
0001
1000
0000
1000
0100
1000
0000
1000
0100
0000
,  // measure 41
1000
0001
0000
0100
0010
0000
1000
0100
0000
0000
0010
0000
MM11
0000
0000
0000
,  // measure 42
0010
0100
0000
1000
0001
0000
0100
0010
0000
0000
1000
0000
1M1M
0000
0000
0000
,  // measure 43
1000
0100
0000
0010
0001
0000
1000
0100
0000
0000
1000
0000
1MM1
0000
0000
0000
,  // measure 44
0001
0100
0000
0010
1000
0000
0010
1000
0000
0000
0010
0000
1MM1
0000
0000
0000
,  // measure 45
0001
0100
0000
0010
1000
0000
0100
0010
0000
0000
0001
0000
1MM1
0000
0000
0000
,  // measure 46
0001
0100
0000
0010
1000
0000
0100
0010
0000
0000
0100
0000
M11M
0000
0000
0000
,  // measure 47
0100
1000
0000
0010
0100
0000
0001
0100
0000
0000
0010
0000
M11M
0000
0000
0000
,  // measure 48
0010
1000
0000
0100
0010
0000
0001
0010
0000
0000
0100
0000
11MM
0000
0000
0000
,  // measure 49
1000
0000
0100
0000
0010
0000
0001
0010
0000
0000
0100
0000
1000
0000
0001
0000
,  // measure 50
0100
0000
0010
0000
1000
0000
0010
0100
0000
0000
0001
0000
0010
0000
0100
0000
,  // measure 51
1000
0000
0001
0000
0100
0000
0010
1000
0000
0000
0001
0000
0100
0000
0010
0000
,  // measure 52
1000
0000
1000
0000
0001
0000
0100
0001
0000
1000
0000
0100
0000
0010
0000
0001
,  // measure 53
1000
0000
0100
0000
0010
0001
0000
0010
0000
0100
0000
1000
0000
0001
0100
0000
,  // measure 54
0010
0000
1000
0000
0100
0010
0000
0001
0000
0010
0000
0100
0000
1000
0001
0000
,  // measure 55
0100
0000
0010
0000
1000
0010
0000
0100
0000
0001
0000
1000
0000
0100
0010
0000
,  // measure 56
0001
0000
0010
0000
0100
1000
0000
0001
0000
0100
0000
0010
0000
1000
0010
0000
,  // measure 57
1000
0000
0010
0000
1M1M
0000
0000
0010
0000
0000
0100
0000
M1M1
0000
0000
0000
,  // measure 58
0001
0000
0010
0000
MM11
0000
0000
0010
0000
0000
0100
0000
11MM
0000
0000
0000
,  // measure 59
0100
0000
1000
0000
1M1M
0000
0000
0010
0000
0000
0100
0000
M1M1
0000
0000
0000
,  // measure 60
0001
0000
0010
0000
MM11
0000
0000
0010
0000
0000
0100
0000
M11M
0000
0000
0000
,  // measure 61
1000
0000
0100
0000
1000
0100
1000
0000
0001
0000
0100
0000
0001
0100
0001
0000
,  // measure 62
0010
0000
0001
0000
0010
0001
0010
0000
0100
0000
1000
0000
0100
1000
0100
0000
,  // measure 63
1000
0000
0010
0000
1000
0010
1000
0000
0001
0000
0100
0000
0001
0100
0001
0000
,  // measure 64
0010
0001
0010
0001
2000
0002
0M20
0M00
,  // measure 65
3M33
0000
0000
0000
;

//---------------dance-single - Renard----------------
#NOTES:
     dance-single:
     Renard:
     Medium:
     6:
     0.449,0.496,0.264,0.356,0.000:
0000
0000
0000
0000
,
0000
0000
0000
0000
,
0000
0000
0000
0000
,
0000
0000
0000
0000
,
1000
0000
1001
0000
0001
0100
0010
0000
,
1000
0000
1001
0000
0001
0100
0010
0000
,
1000
0000
1001
0000
0001
0100
0010
0000
,
1000
0000
1001
0000
0001
0100
0010
0000
,
0001
0000
1001
0000
1000
0100
0010
0000
,
0001
0000
1001
0000
1000
0100
0010
0000
,
0001
0000
1001
0000
1000
0100
0010
0000
,
0001
0000
1000
0001
0000
0100
0010
0000
,
0100
0000
0001
0000
1000
0100
1000
0000
,
0001
0000
0010
0000
0100
1000
0100
0000
,
0010
0000
0001
0000
1000
0100
1000
0000
,
0001
0000
0010
0000
0100
1000
0100
0000
,
1000
0000
0010
0000
0100
0001
0100
0000
,
0010
0000
1000
0000
0001
0100
0001
0000
,
1000
0000
0010
0000
0100
0001
0100
0000
,
0001
0000
1000
0001
0000
0100
0010
0000
,
0100
0000
0010
0000
0000
0100
0010
0000
,
1000
0000
0001
0000
0000
1000
0001
0000
,
0010
0000
0100
0000
0000
0010
0100
0000
,
2000
3200
0320
0032
,
2003
0000
0000
3002
0000
0000
0203
0000
,
0320
0000
0000
2030
0000
0000
3200
0000
,
0320
0000
0000
0032
0000
0000
2003
0000
,
3020
0000
0000
0230
0000
0000
0302
0000
,
0023
0000
0000
0230
0000
0000
2300
0000
,
3020
0000
0000
0230
0000
0000
0302
0000
,
0023
0000
0000
0032
0000
0000
2003
0000
,
3020
0000
0000
0230
0000
0000
0302
0000
,
1003
1100
0010
0011
,
0001
0101
1000
1010
,
1000
1100
0010
0011
,
0001
0101
1000
1010
,
1000
0100
0010
0000
0001
0000
0011
0000
,
0001
0010
0100
0000
1000
0000
1100
0000
,
1000
0010
1000
0000
0001
0100
0001
0000
,
1000
0100
0010
0001
0010
0100
1000
0000
,
0001
0100
0001
0000
1000
0100
1000
0000
,
0001
0010
0001
0000
1000
0010
1000
0000
,
0001
0100
0001
0000
1000
0100
1000
0000
,
0001
0010
0001
0000
1000
0010
1000
0000
,
0001
0100
0001
0000
1000
0100
1000
0000
,
0001
0010
0001
0000
1000
0010
1000
0000
,
0001
0100
0001
0000
1000
0100
1000
0000
,
0001
0010
0001
0000
1000
0010
1000
0000
,
0001
1000
0001
0000
0000
0000
1001
0000
,
0010
0100
0010
0000
0000
0000
0110
0000
,
0100
0010
0100
0000
0000
0000
0110
0000
,
0001
1000
0001
0000
0000
0000
1001
0000
,
1000
0000
0100
0000
0010
0001
0010
0000
,
0100
0000
1000
0000
0001
0010
0001
0000
,
1000
0000
0100
0000
0010
0001
0010
0000
,
0100
0000
1000
0000
0001
0010
0001
0000
,
1000
1001
0001
1001
,
0100
0110
0010
0110
,
1000
1010
0100
0101
,
1000
1100
0010
0011
,
0002
0000
2003
3020
,
0230
0000
0302
2003
,
3200
0000
0310
0001
0020
0000
0130
1000
,
0020
0000
0130
0001
0100
0020
2000
0000
,
3030
0000
0000
0000
;

//---------------dance-single - Renard----------------
#NOTES:
     dance-single:
     Renard:
     Easy:
     2:
     0.301,0.321,0.100,0.374,0.000:
0000
0000
0000
0000
,
0000
0000
0000
0000
,
0000
0000
0000
0000
,
0000
0000
0000
0000
,
1000
1001
0000
1001
,
0001
1001
0000
1001
,
0010
0110
0000
0110
,
0100
0110
0000
0110
,
0010
1000
0010
1000
,
0001
0100
0001
0100
,
0001
0010
0001
0010
,
0100
0000
0000
1000
0000
0000
0100
0000
,
1000
0000
1000
1000
,
0001
0100
0001
0000
,
0001
0000
0001
0001
,
1000
0100
1000
0000
,
0001
0000
0001
0001
,
0010
0001
0010
0000
,
0001
0000
1000
0001
,
1000
0010
1000
0010
,
2000
0000
3010
0100
,
0002
0000
0103
0010
,
2000
0000
3010
0100
,
0001
0001
1000
1000
,
0002
0000
0000
0203
0000
0000
0000
0000
,
0320
0000
0000
2030
0000
0000
0000
0000
,
3200
0000
0000
0320
0000
0000
0000
0000
,
0032
0000
0000
2003
0000
0000
0000
0000
,
3020
0000
0000
0230
0000
0000
0000
0000
,
0302
0000
0000
2003
0000
0000
0000
0000
,
3200
0000
0000
0320
0000
0000
0000
0000
,
0032
0000
0000
2003
0000
0000
0000
0000
,
3020
0000
0000
0230
0000
0000
0000
0000
,
0302
0000
0000
2003
0000
0000
0000
0000
,
3200
0000
0000
0320
0000
0000
0000
0000
,
0032
0000
0000
2003
0000
0000
0000
0000
,
3002
0000
0000
0203
0000
0000
0000
0000
,
0320
0000
0000
2030
0000
0000
0000
0000
,
3200
0000
0000
0320
0000
0000
0000
0000
,
0032
0000
2000
3003
,
1000
0001
1000
0001
,
0100
0010
0100
0010
,
1000
0001
1000
0001
,
0100
0010
0100
0000
,
0001
1000
0001
1000
,
0100
0010
0100
0010
,
0001
1000
0001
1000
,
0010
0100
0010
0100
,
0001
0100
0000
0101
,
1000
0100
0000
1100
,
0001
0100
0000
0101
,
1000
0100
1000
0000
,
0001
0001
2000
0000
,
3001
0001
2000
0000
,
3010
0010
0200
0000
,
0310
0010
0200
0000
,
0301
0001
1000
1000
,
0001
0001
1000
0001
,
0100
0100
0010
0010
,
0100
0010
0100
0010
,
1000
0000
0010
0000
,
0100
0000
0001
0000
,
0010
0001
1000
0100
,
2000
0002
0000
0010
,
3003
0000
0000
0000
;
