#TITLE:Brewer in the Air;
#SUBTITLE:;
#ARTIST:Buckethead;
#TITLETRANSLIT:;
#SUBTITLETRANSLIT:;
#ARTISTTRANSLIT:;
#CREDIT:;
#BANNER:brewer.png;
#BACKGROUND:brewer-bg.png;
#LYRICSPATH:;
#CDTITLE:;
#MUSIC:brewer.ogg;
#OFFSET:0.000;
#SAMPLESTART:7.340;
#SAMPLELENGTH:12.000;
#SELECTABLE:YES;
#BPMS:0.000=80.000,10.000=160.000,74.000=80.000,82.000=160.000,149.000=80.000,157.000=160.000,159.500=80.000,176.000=160.000;
#STOPS:82.000=0.375
,157.000=0.188
;
#BGCHANGES:;

//---------------dance-single - Renard----------------
#NOTES:
     dance-single:
     Renard:
     Challenge:
     11:
     0.864,0.862,0.259,0.056,0.885: // measure 1
0000
0000
0000
0000
,  // measure 2
0000
0000
0000
0000
,  // measure 3
0000
0000
0000
0000
1100
0010
0001
0101
,  // measure 4
0010
1100
0001
0010
1100
0001
0110
0001
,  // measure 5
1100
1000
0001
0010
1100
0001
0100
1010
,  // measure 6
0001
0000
0110
0000
0001
0000
0001
0000
1000
0100
0010
0001
0100
0010
0100
0010
,  // measure 7
1000
0100
0010
0001
0100
0010
0100
0010
1000
0000
0001
0000
0100
0000
1010
0000
,  // measure 8
0100
0011
0100
1000
0101
0010
1001
0100
,  // measure 9
1001
0010
0100
0001
1100
0001
0010
1100
,  // measure 10
0001
0000
0110
0000
0001
0000
1000
0000
0001
0010
0100
1000
0010
0100
0010
0100
,  // measure 11
0001
0010
0100
1000
0010
0100
0010
0100
0001
0000
0010
0000
1000
0000
0010
0000
,  // measure 12
0000
0010
0100
1000
0100
0001
0000
0001
,  // measure 13
0100
1000
0010
0001
0010
0100
1000
0100
,  // measure 14
0000
0100
0001
0100
1000
0100
0010
1000
,  // measure 15
0100
0010
0001
0010
1000
0010
0100
0001
,  // measure 16
0000
0001
0100
1000
0010
0100
0000
0100
,  // measure 17
0001
0010
0100
0001
0100
1000
0010
0100
,  // measure 18
0000
0100
0001
0100
1000
0100
0010
0001
,  // measure 19
0010
0000
1000
0000
0100
0000
0010
0000
0001
0000
0100
0010
0200
0000
0002
0000
,  // measure 20
0000
0000
1000
0000
0010
0000
1303
0000
1000
0100
0010
0000
1001
0000
0220
0000
,  // measure 21
0000
0000
0000
1000
0000
0000
0001
0000
0000
1330
0000
0000
1001
0000
0000
0000
0000
0000
0001
0000
0010
0000
0100
0000
,  // measure 22
1000
0000
0000
0000
0100
0000
0000
0000
0010
0000
0000
0000
0001
0000
0000
0010
0000
0000
0100
0000
0000
1000
0000
0000
0100
0000
0000
0010
0000
0000
0001
0000
0000
0010
0000
0000
0100
0000
0000
1000
0000
0000
0100
0000
0000
0010
0000
0000
,  // measure 23
0001
0100
0001
0100
0010
1000
0100
0010
0001
0010
0100
1000
0100
0010
0001
1000
,  // measure 24
0020
0000
0000
0000
0130
0001
0100
0010
1000
0010
0100
0001
0100
0010
1000
0010
,  // measure 25
1000
0100
0010
0001
1000
0100
0010
0001
0010
0100
1000
0001
0100
0000
0000
0000
,  // measure 26
1001
0000
0000
0000
0001
0100
0010
1000
0010
0100
0001
0010
0100
1000
0100
0010
,  // measure 27
0001
0010
0001
0010
0001
0010
0100
1000
0100
0010
0001
0100
0010
1000
0010
0100
,  // measure 28
0002
0000
0000
0000
1003
0100
1000
0001
0010
0001
1000
0010
1000
0001
0100
0001
,  // measure 29
1000
0100
0010
0001
1000
0010
1000
0010
0100
0001
0010
0100
1000
0001
1000
0010
,  // measure 30
0100
0000
0000
0000
0010
0100
0001
0100
0010
0000
1000
0010
0100
0010
1000
0000
,  // measure 31
0001
0000
0010
0000
0100
1000
0010
1000
0100
0000
0010
0001
0100
0001
0010
0000
,  // measure 32
0001
0000
0000
0000
1000
0010
0100
0010
1000
0000
0001
0100
0010
0100
0001
0000
,  // measure 33
0010
0000
0100
0000
1000
0100
0010
0100
1000
0000
0001
0010
0100
0010
0001
0000
,  // measure 34
0100
0000
0010
0000
1000
0100
0010
0001
0010
0100
1000
0010
0100
0001
0100
0010
,  // measure 35
1000
0000
0100
0000
0010
0001
0010
0100
1000
0100
0010
0001
0100
0010
1000
0100
,  // measure 36
0010
0000
0001
0000
1000
0010
0100
0001
0100
0010
1000
0100
0010
0001
0010
0100
,  // measure 37
1000
0000
0001
0000
0100
0010
1000
0010
0100
0001
0100
0010
1000
0100
0010
0001
,  // measure 38
0010
0000
0000
0000
0001
0001
0001
0001
0010
0010
0010
0010
0100
0100
0100
0100
,  // measure 39
1000
1000
0010
0010
0100
0100
0100
0100
0001
0001
0001
0001
0010
0010
0010
0010
,  // measure 40
0100
0000
0000
0100
0000
0000
1000
0000
0000
1000
0000
0000
1001
0000
0000
0000
0000
0000
0000
0000
0000
0000
0000
0000
0000
0000
0000
0000
0000
0000
0001
0000
0000
0000
0010
0000
0000
0000
0100
0000
0000
0000
1000
0000
0000
0000
0000
0000
,  // measure 41
0010
0000
0100
0001
1000
0000
0010
0000
1001
0000
0001
0000
0010
0000
0100
1000
,  // measure 42
0001
0000
1000
0000
0010
0000
0101
0000
0000
0000
1010
0000
1001
0000
0001
0010
,  // measure 43
0100
0000
1000
0000
0001
0000
0110
0000
0100
0000
0001
0000
0010
0000
0100
1000
,  // measure 44
0001
0000
1000
0000
0010
0000
0100
0001
1000
0000
0010
0000
0100
0001
0010
0100
,  // measure 45
1000
0100
0010
0001
0000
1000
0010
0100
,  // measure 46
0001
0010
0100
1000
0100
0001
0100
0010
,  // measure 47
1000
0010
0001
0100
0000
0100
0010
1000
,  // measure 48
0010
0001
0010
0100
0010
1000
0001
0010
,  // measure 49
0100
1000
0100
0010
0000
0010
1000
0010
,  // measure 50
0001
0100
0000
0100
0010
0100
0001
0010
,  // measure 51
1000
0010
0100
1000
0000
1000
0100
0001
,  // measure 52
0100
0010
1000
0010
0001
0100
0010
1000
,  // measure 53
0100
0010
0001
1000
0010
0100
0001
0010
0100
1000
0100
0010
0001
0000
0000
0000
,  // measure 54
1000
0010
0100
0001
0010
0100
1000
0100
0010
0001
1000
0010
0100
0000
0000
0000
,  // measure 55
0100
0001
1000
0010
0100
0001
0010
0100
1000
0100
0010
0001
1000
0000
0000
0000
,  // measure 56
1000
0010
0100
0001
0010
0100
1000
0100
0010
0001
1000
0010
0100
0001
0010
0100
,  // measure 57
1000
0100
0010
0001
1000
0010
0100
0001
0010
0100
1000
0100
0010
0000
0000
0000
,  // measure 58
0001
0100
0010
1000
0100
0010
0001
0010
0100
1000
0001
0100
0010
0000
0000
0000
,  // measure 59
1000
0100
0010
0001
0010
0100
1000
0001
0100
0010
1000
0100
0010
0000
0000
0000
,  // measure 60
0001
0010
0100
1000
0001
0100
0010
1000
0100
0010
0001
0100
0010
0000
1000
0000
,  // measure 61
1001
0000
0000
0000
;

//---------------dance-single - Renard----------------
#NOTES:
     dance-single:
     Renard:
     Hard:
     9:
     0.629,0.723,0.120,0.000,0.301:
0000
0000
0000
0000
,
0000
0000
0000
0000
,
0000
0000
0000
0000
1000
0001
0100
0010
,
0000
1001
0000
1000
0100
0010
0001
0000
,
1001
0000
0001
0100
0010
1000
0100
0010
,
0000
0000
1001
0000
0000
0000
0000
0000
0001
0010
0001
0000
1000
0000
0100
0000
,
0010
0001
1000
0100
0010
0001
1000
0010
,
0000
1001
0000
1000
0100
0010
0001
0000
,
0110
0000
0010
1000
0100
0010
0001
1000
,
0000
0000
0101
0000
0000
0000
0001
0000
1000
0010
1000
0000
0001
0000
0100
0000
,
0001
0100
0001
0000
0100
0000
0001
0000
0010
0000
0100
0000
1000
0000
0001
0000
,
0000
0001
0100
0010
1000
0100
0000
0100
,
1000
0001
0010
0100
1000
0001
0100
0010
,
0000
0010
1000
0100
0010
0001
0000
0001
,
1000
0000
0010
1000
0010
0000
1000
0000
0100
0000
0010
0000
0001
0000
1000
0000
,
0000
1000
0001
0100
0010
1000
0000
1000
,
0010
0000
0100
0000
0001
0000
0010
0000
0100
0000
1000
0100
1000
0000
0001
0000
,
0000
0000
0010
0000
0001
0000
1000
0001
1000
0000
0001
0000
0100
0000
0010
0000
,
1000
0100
0010
0001
1000
0001
0100
1010
,
0000
0000
1000
0100
0010
0001
1000
0000
0001
0000
0100
0000
0010
0000
1001
0000
,
0000
0000
0000
0000
0000
0000
1000
0000
0000
0100
0000
0000
0010
0000
0000
0001
0000
0000
1000
0000
0000
0000
0000
0000
0110
0000
0000
0000
0000
0000
0000
0000
0000
0000
0000
0000
0010
0000
0000
0000
1000
0000
0000
0000
0010
0000
0000
0000
,
0100
0000
0000
0000
0001
0000
0000
0000
0100
0000
0000
0000
0001
0000
0000
0000
0000
0000
0001
0000
0000
1000
0000
0000
0000
0000
0000
0000
0000
0000
0100
0000
0000
0000
0000
0000
0010
0000
0000
0000
0000
0000
0001
0000
0000
0000
0000
0000
,
0010
0000
0100
0000
1000
0000
0010
0100
0000
0000
0001
0000
0010
0000
0100
0000
,
1000
0000
0000
0000
0001
0000
0100
0010
0000
0000
1000
0000
0100
0000
0010
0000
,
0001
0000
0010
0000
0100
0000
0100
1000
0000
1000
0001
0000
0010
0000
0000
0000
,
1001
0000
0000
0000
0001
0000
0001
1000
0000
0000
0100
0000
0010
0000
0001
0000
,
0010
0000
0100
0000
1000
0000
0001
0100
0000
0000
0010
0000
1000
0000
0100
0000
,
0010
0000
0000
0000
0001
0000
0010
0100
0000
0000
1000
0000
0001
0000
0100
0000
,
0010
0000
1000
0000
0001
0000
0001
0100
0000
0100
0010
0000
1000
0000
0000
0000
,
0100
0000
0010
0001
0010
0100
1000
0001
,
0100
0000
0010
0100
0010
0000
1000
0000
0100
0000
0010
0000
0001
0000
0010
0000
,
0100
0000
1000
0100
1000
0000
0001
0000
0010
0000
0100
0000
1000
0000
0001
0000
,
0100
0010
0100
0000
0010
0000
1000
0000
0100
0000
0010
0000
0001
0000
1000
0000
,
0010
0000
0100
0000
0001
0000
0010
0001
0000
0000
1000
0000
0100
0000
0010
0000
,
0001
0000
1000
0000
0010
0000
0100
0010
0000
0000
1000
0000
0100
0000
0010
0000
,
0001
0000
0010
0000
0100
0000
1000
0001
0000
0000
0010
0000
0100
0000
1000
0000
,
0001
0000
0100
0000
0010
0000
1000
0010
0000
0000
1000
0000
0001
0000
0100
0001
,
0000
0000
0100
0000
0010
1000
0010
1000
0001
0100
0001
0100
0001
0010
0001
0010
,
0100
1000
0001
0010
0100
1000
0100
1000
0010
1000
0010
1000
0001
0100
0001
0100
,
0001
0000
0000
0010
0000
0000
0100
0000
0000
1000
0000
0000
0001
0000
0000
0000
0000
0000
0000
0000
0000
0000
0000
0000
0000
0000
0000
0000
0000
0000
1000
0000
0000
0000
0001
0000
0000
0000
0100
0000
0000
0000
0010
0000
0000
0000
0000
0000
,
0100
0000
0001
0000
0010
0000
0100
0000
1000
0000
0001
0000
0100
0000
0010
1000
,
0100
0010
0001
0110
0000
0010
1000
0100
,
0010
0000
0001
0010
0001
0000
0010
0000
0100
0000
1000
0000
0010
0000
0100
0001
,
0100
0010
1000
0101
0010
1000
0100
0010
,
0001
0010
0100
1000
0000
1000
0100
0010
,
0001
1000
0010
0100
0001
0010
0100
1000
,
0010
0100
0001
0010
0000
0010
0100
1000
,
0010
0100
0001
0010
0001
1000
0010
0100
,
0001
0100
0010
1000
0000
1000
0001
0010
,
0100
1000
0000
1000
0100
0010
0001
1000
,
0001
0100
0010
1000
0000
1000
0001
1000
,
0010
0100
0001
0010
0100
1000
0001
0100
,
0001
0000
1000
0100
0000
0000
0010
0000
0001
0000
0010
0000
0100
0000
1000
0000
,
0001
0000
0100
0010
0000
0000
1000
0000
0100
0000
0010
0000
0001
0000
0010
0000
,
0100
0000
1000
0001
0000
0000
0100
0000
0010
0000
1000
0000
0100
0000
0010
0000
,
0001
0000
1000
0010
0000
0000
0100
0000
0001
0000
0010
0100
0000
0000
1000
0000
,
0001
0000
0100
0010
0000
0000
1000
0000
0100
0000
0010
0000
0001
0000
1000
0000
,
0001
0000
0100
0010
0000
0000
1000
0000
0100
0000
0010
0000
0001
0000
1000
0000
,
0010
0000
0100
0001
0000
0000
0010
0000
0100
0000
1000
0000
0001
0000
0100
0000
,
0010
0000
1000
0100
0000
0010
0001
0000
1000
0100
0000
0010
0001
0000
0000
0000
,
1001
0000
0000
0000
;

//---------------dance-single - Renard----------------
#NOTES:
     dance-single:
     Renard:
     Medium:
     6:
     0.357,0.417,0.056,0.019,0.000:
0000
0000
0000
0000
,
0000
0000
0000
0000
,
0000
0000
0000
0000
1000
0000
1000
0001
,
0000
0100
0000
0000
0010
0000
1001
0000
,
0110
0000
0000
0000
0010
0000
0010
1000
,
0000
0001
0000
0000
1000
0100
1000
0100
,
1000
0100
1000
0100
1000
0000
1000
0001
,
0000
0101
0000
0000
0001
0000
0010
0000
,
0100
0000
0000
0000
1000
0000
1000
0001
,
0000
0001
0000
0000
0010
0001
0010
0001
,
0010
0001
0010
0001
0100
0000
0100
0010
,
0000
0000
1000
0000
0000
0100
0000
0000
,
0010
0000
0001
0000
1000
0000
1000
0001
,
0000
0000
0010
0000
0000
0100
0000
0000
,
1000
0000
0010
0000
0100
0000
0100
0001
,
0000
0000
0010
0000
0000
0100
0000
0000
,
0010
0000
0001
0000
1000
0000
1000
0001
,
0000
0001
0100
0000
0000
0010
0000
0000
,
1000
0000
0100
0000
0010
0000
0001
1000
,
0000
0010
0100
0001
0010
0000
0100
1000
,
0000
0010
0100
0001
1000
0000
0001
0000
,
0001
0000
1000
0000
0100
0000
1000
0001
,
0010
0000
0001
0000
1000
0000
0001
0100
,
0001
0000
1000
0000
0100
0000
0010
0001
,
0010
0000
0100
0000
0100
0000
1000
0010
,
1000
0000
0010
0000
0100
0000
0001
0010
,
0001
0000
1000
0000
0100
0000
1000
0010
,
1000
0000
0001
0000
0100
0000
0001
0010
,
0001
0000
0010
0000
0100
0000
1000
0001
,
0100
0000
0010
0000
0000
0010
0000
0000
,
0010
1000
0100
0000
0000
0100
0000
0000
,
0100
0010
0001
0000
0000
0001
0000
0000
,
0001
0100
0010
0000
0010
0000
1000
0000
,
1000
0000
0001
0000
0000
0001
0000
0000
,
0001
0100
0010
0000
0000
0010
0000
0000
,
0010
1000
0100
0000
0000
0100
0000
0000
,
0100
0010
0001
0000
0001
0000
1000
0000
,
1000
0000
0001
0001
0100
0100
0010
0010
,
1000
0100
0010
0010
0100
0100
1000
1000
,
0010
0100
1001
0000
0000
0001
0000
0001
,
1000
0100
0010
0001
0000
1000
0000
0001
,
0100
0010
1000
0200
0000
0010
0310
0000
,
0010
0001
1000
0001
0000
0100
0000
0010
,
1000
0001
0200
0010
0000
0010
0310
0000
,
0110
0000
0010
1000
0000
0000
0001
0000
,
0000
0100
0000
0000
0001
0000
0010
0000
,
0100
0000
0100
1000
0000
1000
0010
0000
,
0000
0100
0000
0000
0001
0000
0010
0000
,
0100
0000
0100
0010
0000
0010
0001
0000
,
0000
1000
0000
0000
0001
0000
0100
0000
,
0010
0000
0010
1000
0000
1000
0100
0000
,
0100
0010
0000
0010
0001
0000
1000
0000
,
0001
0000
0100
0000
0001
0100
0001
0000
,
1000
0000
0100
0000
1000
0100
1000
0000
,
0001
0000
0010
0000
0001
0010
0001
0000
,
1000
0000
0010
0000
,
0100
0000
0000
0001
0000
0000
1000
0000
,
0100
0000
0000
0010
0000
0000
0001
0000
,
1000
0000
0000
0100
0000
0000
0010
0000
,
0001
0000
1000
0010
1000
0000
0001
0000
,
1001
0000
0000
0000
;

//---------------dance-single - Renard----------------
#NOTES:
     dance-single:
     Renard:
     Easy:
     3:
     0.213,0.278,0.056,0.000,0.000:
0000
0000
0000
0000
,
0000
0000
0000
0000
,
0000
0000
0000
0000
1000
0000
0000
1000
,
0000
1000
0000
0000
1000
0000
1000
0000
,
1000
0000
0000
0000
0001
0000
0000
0001
,
0000
0001
0000
0000
0100
0000
0000
0000
,
0100
0000
0000
0000
0001
0000
0000
0001
,
0000
0001
0000
0000
0001
0000
0001
0000
,
0001
0000
0000
0000
1000
0000
0000
1000
,
0000
1000
0000
0000
0010
0000
0010
0000
,
0010
0000
0010
0000
0100
0000
0000
0100
,
0000
0000
0100
0000
0000
0001
0000
0000
,
1000
0000
0000
0000
0100
0000
0000
0100
,
0000
0000
0100
0000
0000
0010
0000
0000
,
0001
0000
0000
0000
1000
0000
0000
1000
,
0000
0000
1000
0000
0000
0010
0000
0000
,
0100
0000
0000
0000
0001
0000
0000
0001
,
0000
0000
0001
0000
0000
0010
0000
0000
,
0100
1000
0001
0101
,
0000
1100
0010
1001
,
0000
0110
1001
0000
,
0000
1000
0000
1000
,
0000
0001
0000
0001
,
0000
0100
0000
0100
,
0000
0010
0010
0010
,
0010
0100
0000
0100
,
0000
0001
0000
0001
,
0000
1000
0000
1000
,
0000
0100
0100
0100
,
0100
0000
0010
0000
0000
0010
0000
0000
,
0010
0001
0000
0001
,
0000
0000
1000
0000
0000
1000
0000
0000
,
1000
0100
0000
0100
,
0000
0010
0000
0010
,
0000
0001
0000
0001
,
0000
1000
0000
1000
,
0000
0001
0000
1000
,
0000
0001
1000
0001
,
1000
1000
0001
0000
0100
0000
0010
0000
,
0100
0100
0010
0000
0000
0000
0000
0000
,
1000
0001
1000
0001
0000
0100
0000
0100
,
0010
0000
0010
0000
,
1000
0001
1000
0001
0000
1000
0000
0010
,
0100
0000
0000
0001
0000
0000
1000
0000
,
0001
0000
0000
0001
0000
0000
0001
0000
,
0000
0001
0000
0000
0001
0000
0000
0000
,
1000
0000
0000
1000
0000
0000
1000
0000
,
0000
1000
0000
0000
1000
0000
0000
0000
,
0010
0000
0000
0010
0000
0000
0010
0000
,
0000
0010
0000
0000
0010
0000
0000
0000
,
0100
0000
0000
0100
0000
0000
0100
0000
,
0000
0100
0000
0000
0100
0000
0100
0000
,
0010
0000
0010
0000
,
0100
0000
0000
0000
,
0001
0000
0001
0000
,
1000
0000
1000
0000
,
0001
0000
0000
0001
,
0010
0000
0000
0010
,
0100
0000
0000
0100
,
1000
0000
0001
0000
,
0110
0000
0000
0000
;
