#TITLE:Breaking the Habit;
#SUBTITLE:;
#ARTIST:Linkin Park;
#TITLETRANSLIT:;
#SUBTITLETRANSLIT:;
#ARTISTTRANSLIT:;
#CREDIT:;
#BANNER:;
#BACKGROUND:;
#LYRICSPATH:;
#CDTITLE:;
#MUSIC:habit.ogg;
#OFFSET:0.000;
#SAMPLESTART:42.881;
#SAMPLELENGTH:12.000;
#SELECTABLE:YES;
#BPMS:0.000=200.090;
#STOPS:;
#GENRE:Nurock;

//---------------dance-single - Renard----------------
#NOTES:
     dance-single:
     Renard:
     Challenge:
     10:
     0.763,0.821,0.295,0.017,0.048: // measure 1
0000
0000
0000
0000
,  // measure 2
0000
0000
0000
0000
,  // measure 3
0000
0000
0000
0000
,  // measure 4
0000
0000
0000
0000
,  // measure 5
0001
0000
0101
0000
0100
0010
1010
0000
,  // measure 6
1000
0000
1100
0000
0100
0010
0011
0000
,  // measure 7
0010
0000
0110
0000
0100
1000
1001
0000
,  // measure 8
0001
0100
0010
1000
0100
0010
0001
0010
,  // measure 9
0100
0000
0110
0000
0100
1000
1100
0000
,  // measure 10
1000
0000
1010
0000
0010
0100
0110
0000
,  // measure 11
0100
0000
0101
0000
0001
0010
0011
0000
,  // measure 12
0001
0010
0100
1000
0001
1000
0001
1000
,  // measure 13
0001
0000
0100
0010
1000
0000
0010
0100
,  // measure 14
0001
0000
0010
0100
1000
0000
0001
1000
,  // measure 15
1000
0000
0001
0100
0010
0000
1000
0010
,  // measure 16
0100
0000
0001
0010
0100
0000
1000
0001
,  // measure 17
0001
0000
0001
0100
0010
0000
1000
0100
,  // measure 18
0010
0000
0001
0010
0100
0000
1000
0010
,  // measure 19
0010
0000
0100
0001
0100
0000
0010
1000
,  // measure 20
0100
0010
0001
0010
0100
1000
0001
0100
,  // measure 21
0010
0000
0010
0000
1000
0100
0010
0000
,  // measure 22
0001
0000
0001
0000
0010
0100
1000
0001
,  // measure 23
0001
0000
0100
0000
0010
1000
0100
0000
,  // measure 24
1000
0000
0001
0000
0010
0100
1000
0001
,  // measure 25
0001
0000
1000
0000
0010
0000
0100
0001
,  // measure 26
0100
0000
0010
0000
1000
0000
0100
0010
,  // measure 27
0010
0000
0100
1000
0010
0000
0100
0001
,  // measure 28
0100
0000
0010
0000
1000
1000
1000
0000
,  // measure 29
0001
0000
0001
0100
0000
0100
0010
0000
,  // measure 30
1000
0000
1000
0100
0000
0100
0010
0001
,  // measure 31
0001
0000
0010
0100
0000
0100
1000
0000
,  // measure 32
0010
0000
0010
0100
0000
0100
0001
0100
,  // measure 33
0100
0000
0010
1000
0000
1000
0100
0000
,  // measure 34
0010
0000
0010
0001
0000
0001
0010
0100
,  // measure 35
0100
0000
1000
0010
0000
0100
0001
0000
,  // measure 36
1001
0110
0000
1001
,  // measure 37
0001
0100
0010
1000
0100
1000
0001
0010
,  // measure 38
0100
1000
0001
0100
0010
1000
0010
1000
,  // measure 39
0100
0010
0001
0010
0100
1000
0001
0100
,  // measure 40
0010
1000
0100
0010
0001
0010
0100
1000
,  // measure 41
0001
0100
0010
1000
0100
1000
0001
0010
,  // measure 42
0100
1000
0001
0100
0010
0100
0001
1000
,  // measure 43
0100
0010
0100
1000
0001
0100
0010
1000
,  // measure 44
0010
0010
1010
0000
0001
0100
0101
0000
,  // measure 45
0100
0010
1000
0100
0010
0001
0010
0100
,  // measure 46
1000
0001
1000
0100
1000
0001
0010
0001
,  // measure 47
0100
0010
1000
0100
0010
0001
0010
0100
,  // measure 48
1000
0000
0001
0000
0100
0000
0010
0000
1000
0000
0100
1000
0100
0000
1000
0000
,  // measure 49
0010
0000
0100
0000
0001
0000
0010
0000
0100
0000
1000
0000
0100
1000
0100
0000
,  // measure 50
1000
0000
0010
0000
0100
0000
0001
0000
0010
0000
0001
0010
0001
0000
0010
0000
,  // measure 51
0100
0000
1000
0000
0001
0000
0100
0000
0010
0000
1000
0010
1000
0000
0010
0000
,  // measure 52
0100
0000
0001
0000
0010
0000
0100
0000
1000
0000
0001
1000
0001
0000
1000
0000
,  // measure 53
0001
0000
0100
0000
0010
0000
1000
0000
0010
0000
1000
0010
1000
0000
0010
0000
,  // measure 54
0100
0000
0001
0000
0010
0000
0100
0000
1000
0000
0100
1000
0100
0000
1000
0000
,  // measure 55
0001
0000
0100
0000
0010
0000
1000
0000
0001
0000
1000
0001
1000
0000
0001
0000
,  // measure 56
0100
0000
0010
0000
1000
0000
0100
0000
1000
0100
1000
0100
1000
0000
0100
0000
,  // measure 57
1100
1000
0010
0100
0001
0010
0100
0010
,  // measure 58
0110
0100
1000
0010
0100
0001
0100
0001
,  // measure 59
1001
1000
0010
1000
0100
0010
0001
0010
,  // measure 60
0011
0010
0100
1000
0001
0100
0010
1000
,  // measure 61
1010
1000
0100
0010
0001
0010
0100
1000
,  // measure 62
1100
1000
0001
0100
0010
1000
0001
0100
,  // measure 63
0101
0100
0010
1000
0100
0010
0001
0010
,  // measure 64
0011
0010
0100
1000
0001
0100
0010
1000
,  // measure 65
1010
0010
0100
0001
0010
0100
1000
0001
,  // measure 66
1001
0100
0001
0100
0010
1000
0100
1000
,  // measure 67
1100
1000
0001
0010
0100
1000
0001
0100
,  // measure 68
0110
0010
1000
0100
0010
0001
0010
0100
,  // measure 69
0110
1000
0001
0100
0010
1000
0001
1000
,  // measure 70
1001
0001
0100
0010
1000
0100
0010
0001
,  // measure 71
0011
0010
0100
1000
0001
0100
0010
1000
,  // measure 72
1010
0100
0001
0010
0100
1000
1001
0000
,  // measure 73
0001
0000
0001
1000
0000
1000
0100
0000
,  // measure 74
0100
0001
0000
0001
0010
1000
0100
0000
,  // measure 75
1000
0000
1000
0010
0000
0010
0001
0000
,  // measure 76
0001
0100
0000
0100
1000
0010
0001
0000
,  // measure 77
0100
0000
0100
0001
0000
0001
1000
0000
,  // measure 78
1000
0100
0000
0100
0001
0100
1000
0000
,  // measure 79
1000
0000
1000
0001
0000
0001
1000
0000
,  // measure 80
1000
0010
0000
0010
0001
0010
1000
0000
,  // measure 81
1000
0100
0010
0001
0000
0001
0010
0100
,  // measure 82
1000
0001
0100
0000
0100
0010
1000
0000
,  // measure 83
0100
0010
0001
0010
0000
0010
0100
1000
,  // measure 84
0010
0100
0000
0100
0001
0100
0010
0000
,  // measure 85
1000
0010
1000
0010
1000
0100
1000
0100
,  // measure 86
1000
0001
1000
0001
1000
0010
1000
0010
,  // measure 87
1000
0001
1000
0001
1000
0001
0100
0001
,  // measure 88
1000
0000
0001
0000
1000
0000
0001
1000
0001
0000
1000
0000
0100
0000
2000
0000
,  // measure 89
0002
0000
0000
0000
,  // measure 90
0000
0000
0000
0000
,  // measure 91
3003
0000
0000
0000
;

//---------------dance-single - Renard----------------
#NOTES:
     dance-single:
     Renard:
     Hard:
     9:
     0.590,0.665,0.087,0.017,0.000:
0000
0000
0000
0000
,
0000
0000
0000
0000
,
0000
0000
0000
0000
,
0000
0000
0000
0000
,
0001
0000
0001
1000
0000
1000
0100
0000
,
1000
0000
1000
0010
0000
0010
1000
0000
,
0001
0000
0001
0010
0000
0010
0001
0000
,
1000
0100
0010
0001
0010
0100
1000
0000
,
0001
0000
0001
0100
0000
0100
0001
0000
,
1000
0000
1000
0100
0000
0100
1000
0000
,
0001
0000
0001
0010
0000
0010
0001
0000
,
1000
0100
0010
0001
1000
0001
1000
0000
,
0001
0000
0100
0000
0000
0010
1000
0000
,
0010
0000
1000
0000
0000
0100
1000
0000
,
0001
0000
0010
0000
0000
0100
1000
0000
,
0001
0000
0010
0000
0000
0001
0100
0010
,
1000
0000
0010
0000
0000
1000
0001
0000
,
0100
0000
0001
0000
0000
1000
0100
0000
,
1000
0000
0001
0000
0000
0010
0001
0000
,
1000
0000
0001
0000
0000
0100
0001
1000
,
0010
0000
1000
0000
0000
0010
1000
0000
,
0001
0000
0100
0000
0000
0001
1000
0000
,
0100
0000
1000
0000
0000
0001
0100
0000
,
0001
0000
1000
0000
0000
0100
0010
0001
,
1000
0000
0100
0000
0000
1000
0001
0000
,
0100
0000
0001
0000
0000
1000
0010
0000
,
0100
0000
0001
0000
0000
0100
0010
0000
,
1000
0000
0010
0000
0000
0100
0001
0000
,
1000
0000
0001
0100
0000
0010
1000
0000
,
0001
0000
0100
0010
0000
1000
0001
0000
,
1000
0000
0100
0010
0000
0001
1000
0000
,
0100
1000
0001
0100
,
0001
0000
0100
0010
0000
1000
0010
0000
,
1000
0000
0001
0100
0000
0001
1000
0000
,
0100
0010
0001
1000
0000
1000
0100
1000
,
0001
0000
0000
1000
,
0001
0000
0100
0010
0000
1000
0010
0000
,
0100
0001
0000
0100
0000
0010
1000
0100
,
0010
0000
0010
0001
0000
0010
0100
1000
,
0000
0001
1000
0010
0100
0000
0001
0000
,
0100
0000
0100
0010
0000
0010
1000
0010
,
0100
0000
0100
0001
0000
0001
0100
0010
,
1000
0100
0010
0001
0000
0010
0000
0100
,
0000
1000
0001
0100
0010
0000
1000
0000
,
0010
0000
0010
0100
0001
0100
0000
0000
,
0010
0000
0010
1000
0000
0100
0010
0001
,
0010
0000
0010
0100
1000
0001
0000
1000
,
0001
0000
0100
0010
1000
0010
1000
0000
,
0001
0000
0001
0100
0000
0100
0010
0000
,
1000
0000
1000
0100
0000
0100
0010
0000
,
0001
0000
0001
0010
0000
0010
0100
0000
,
1000
0000
1000
0010
0000
0010
0100
0000
,
0001
0000
0001
1000
0000
1000
0001
0000
,
0100
0000
0100
0010
0000
0010
0100
0000
,
0010
1000
0010
1000
0001
1000
0001
1000
,
0001
0100
0001
0100
0010
0100
0010
0000
,
1010
0000
1000
0000
0010
0000
0100
0001
,
0010
0000
0100
1000
0001
0000
0010
0000
,
0110
0000
0100
0000
1000
0000
0001
0100
,
0010
0000
1000
0010
0100
0001
0100
0000
,
0101
0000
0100
0000
0110
0000
0010
1000
,
0100
0000
0010
0001
0010
0100
1000
0000
,
1100
0000
0100
0000
0110
0000
0010
0001
,
0010
0100
1000
0001
1000
0001
1000
0000
,
1001
0000
0001
0100
0010
1000
0100
0000
,
1100
0000
0100
1000
0001
0010
0100
0000
,
0110
0000
0100
1000
0001
0100
0010
0000
,
1010
0000
0010
1000
0001
0100
0001
0000
,
0001
0100
0001
0000
0100
0010
0100
0000
,
0010
1000
0010
0000
1000
0100
1000
0000
,
0001
0010
0100
1000
0000
1000
0001
1000
,
0001
0100
0010
1000
0010
1000
0010
0000
,
1000
0000
1000
0001
0000
0001
0100
0010
,
1000
0000
1000
0100
0000
0100
0010
0001
,
0010
0000
0010
0100
0000
0100
1000
0001
,
0100
0000
0100
0001
0000
0001
0100
0010
,
1000
0000
1000
0100
0000
0100
1000
0001
,
0010
0000
0010
0100
0000
0100
1000
0001
,
0100
0000
0100
0010
0000
0010
1000
0100
,
0010
0000
0010
0001
0000
0001
0010
0100
,
1000
0000
1000
0001
0000
0001
0100
0010
,
1000
0000
1000
0010
0000
0010
0100
0001
,
0100
0000
0100
0001
0000
0001
1000
0100
,
0010
0001
0010
0100
1000
0001
1000
0100
,
1000
0100
0010
0001
0100
0010
1000
0100
,
0010
0001
0100
0010
1000
0100
0010
0001
,
0010
0100
1000
0001
0100
0010
1000
0100
,
0010
0001
0100
0010
1000
0100
0010
0002
,
2000
0000
0000
0000
,
0000
0000
0000
0000
,
3003
0000
0000
0000
;

//---------------dance-single - Renard----------------
#NOTES:
     dance-single:
     Renard:
     Medium:
     6:
     0.396,0.469,0.009,0.017,0.000:
0000
0000
0000
0000
,
0000
0000
0000
0000
,
0000
0000
0000
0000
,
0000
0000
0000
0000
,
0001
0000
0000
1000
0000
0100
0000
0000
,
0010
0000
0000
0001
0000
0010
0000
0000
,
0100
0000
0000
1000
0000
0010
0000
0000
,
0100
0000
0000
0001
0000
0100
0000
0000
,
0010
0000
0000
1000
0000
0100
0000
0000
,
0010
0000
0000
0001
0000
0010
0000
0000
,
0100
0000
0000
1000
0000
0010
0000
0000
,
0100
0000
0000
0001
0000
0100
0000
0000
,
0001
1000
0000
0100
,
0010
0000
0001
0000
0000
0000
1000
0001
,
0100
0010
0000
1000
,
0010
0000
1000
0000
0000
0000
0001
0100
,
0001
1000
0000
0100
,
0010
0000
0001
0000
0000
0000
1000
0001
,
1000
0001
0000
0100
,
0001
0000
1000
0000
0000
0000
0100
1000
,
0001
1000
0000
0001
,
0100
0000
0001
0000
0000
0000
1000
0001
,
0100
0001
0000
1000
,
0100
0000
1000
0000
0000
0000
0001
0100
,
0010
1000
0000
0010
,
0100
0000
0001
0000
0000
0000
0100
0010
,
1000
0010
0000
0100
,
0001
1000
0100
1001
,
1000
0000
1000
0100
0000
1000
0000
0000
,
0001
0000
0001
0100
0000
0001
0000
0000
,
1000
0000
1000
0010
0000
1000
0000
0000
,
0001
0000
0001
0010
0000
0001
0000
0000
,
1000
0000
1000
0001
0000
1000
0000
0000
,
0001
0000
0001
0100
0000
0001
0000
0000
,
1000
0000
1000
0010
0000
1000
0000
0001
,
1000
0000
0000
0001
,
0100
0100
0010
1000
,
0100
0100
0010
0000
,
0001
0001
0010
0100
,
1000
0000
0001
0000
,
0100
0010
1000
0100
,
0010
0000
0010
0001
,
0100
0000
0100
0001
,
1000
0010
0100
0001
,
1000
1000
0001
0100
,
0010
0010
1000
0000
,
0100
0100
0010
0001
,
1000
0000
0001
0100
,
0010
0000
0000
0000
0010
0000
0000
1000
,
0100
0010
0001
0000
,
0010
0000
0000
0000
0010
0000
0000
0100
,
1000
0010
0100
0000
,
0001
0000
0000
0000
0001
0000
0000
0100
,
0010
1000
0100
0010
,
0001
0000
0000
0000
1000
0000
0000
0001
,
0100
0010
1000
0010
,
0100
0001
1000
0100
,
0010
0000
0001
0000
0010
0100
1000
0001
,
0010
0100
1000
0001
,
1000
0001
1000
0000
,
0001
1000
0010
0100
,
0001
0000
0100
0010
1000
0001
0100
0000
,
0001
1000
0100
0010
,
0001
0010
0100
1000
,
0001
0100
0001
1000
,
0100
0000
0010
0001
1000
0001
0100
0000
,
0001
1000
0001
0100
,
0010
1000
0001
0100
,
0001
1000
0100
0010
,
0001
0000
1000
0001
1000
0000
0001
0100
,
0001
0000
1000
0010
1000
0000
0001
0000
,
1000
0100
0010
0001
1000
0000
0001
0000
,
1000
0000
1000
0001
0000
0000
1000
0000
,
0001
0000
0001
0100
0000
0000
0001
0000
,
1000
0000
1000
0100
0000
1000
0000
0000
,
0001
0000
1000
0001
0000
1000
0000
0000
,
0001
0000
0100
0010
0000
0100
0010
0000
,
1000
0010
1000
0000
,
0001
0000
1000
0100
0000
0010
0001
0000
,
1000
0001
1000
0000
,
0001
0000
0001
1000
0000
0000
0001
0000
,
0100
0000
0100
0010
0000
0000
1000
0000
,
0100
0000
0100
0010
0000
0001
0000
0000
,
1000
0000
1000
0001
0000
0100
0000
0000
,
0001
0001
1000
1000
,
0010
0100
0001
0000
,
1000
1000
0001
0001
,
1000
0000
0100
0000
0010
0000
0002
2000
,
0000
0000
0000
0000
,
0000
0000
0000
0000
,
3003
0000
0000
0000
;

//---------------dance-single - Renard----------------
#NOTES:
     dance-single:
     Renard:
     Easy:
     3:
     0.277,0.313,0.165,0.017,0.000:
0000
0000
0000
0000
,
0000
0000
0000
0000
,
0000
0000
0000
0000
,
0000
0000
0000
0000
,
1000
0000
1000
0000
,
0001
0000
0001
0000
,
0100
0000
0100
0000
,
0010
0010
0010
0000
,
1000
0000
1000
0000
,
0001
0000
0001
0000
,
1000
0000
0100
0000
,
0010
0001
0010
0000
,
0100
0000
0000
0000
,
1000
0000
0001
0000
,
0100
0000
0000
0000
,
0010
0000
1000
0000
,
0001
0000
0000
0000
,
1000
0000
0010
0000
,
0100
0000
0001
0000
,
1000
0001
1000
0001
,
1001
0000
0000
0000
,
1000
0000
0001
0000
,
0101
0000
0000
0000
,
0001
1000
0100
0000
,
1100
0000
0000
0000
,
1000
0001
0010
0000
,
0011
0000
0001
0000
,
1000
0000
1010
0000
,
1001
0000
0001
0100
,
0010
0000
1000
0100
,
0010
0000
0001
0000
,
1000
0001
1000
0000
,
0001
0000
0100
0010
,
1000
0000
0010
0100
,
0001
1000
0001
1000
,
0001
0000
0000
0000
,
0100
0000
0000
0010
0000
1000
0000
0000
,
0100
0000
0010
0000
,
0001
0000
0000
0010
0000
0100
0000
0000
,
1000
0000
0001
0000
,
0100
0000
0000
0010
0000
1000
0000
0000
,
0010
0000
0100
0000
,
0001
0000
0000
1000
0000
0100
0000
0000
,
0010
0000
0001
0000
,
0010
0000
0000
0100
0000
1000
0000
0000
,
0010
0000
0100
0000
,
0001
0000
0000
1000
0000
0100
0000
0000
,
1000
0000
0010
0000
,
0100
0000
0100
0001
,
0010
0000
0010
0100
,
1000
0000
1000
0010
,
0100
0000
0100
0000
,
0001
0000
0001
0010
,
0100
0000
0100
1000
,
0010
0000
0010
0100
,
0001
0000
1000
0000
,
1001
0000
0001
0000
,
0100
0010
1000
0000
,
1001
0000
1000
0000
,
0100
0010
0001
0000
,
1001
0000
0001
0000
,
0100
0010
1000
0000
,
1001
0000
1000
0000
,
0001
0100
0010
0000
,
1001
0000
1000
0000
,
0100
0010
0001
0000
,
1001
0000
0001
0000
,
1000
0010
0100
0000
,
1001
0000
1000
0000
,
0001
0100
0001
0000
,
1001
0000
1000
0000
,
0100
0010
0001
0000
,
1000
0000
0001
0000
,
0100
0010
1000
0001
,
1000
0000
0001
0000
,
1000
0100
0010
0001
,
1000
0000
0001
0000
,
0001
0010
0100
1000
,
0001
0000
1000
0000
,
0001
0000
1000
0000
,
0001
0000
0100
0010
,
1000
0000
0010
0000
,
0100
0000
0001
0010
,
0100
0000
1000
0010
,
0110
0000
0000
0000
,
0101
0000
1001
0000
,
1100
0000
0000
0000
,
1001
0000
0000
0000
0000
0000
2000
0002
,
0000
0000
0000
0000
,
0000
0000
0000
0000
,
3003
0000
0000
0000
;
