#TITLE:Break Bones;
#SUBTITLE:;
#ARTIST:Neophyte;
#TITLETRANSLIT:;
#SUBTITLETRANSLIT:;
#ARTISTTRANSLIT:;
#CREDIT:;
#BANNER:bones.jpg;
#BACKGROUND:bones-bg.jpg;
#LYRICSPATH:;
#CDTITLE:;
#MUSIC:bones.ogg;
#OFFSET:0.000;
#SAMPLESTART:68.571;
#SAMPLELENGTH:12.000;
#SELECTABLE:YES;
#BPMS:0.000=175.000;
#STOPS:;
#BGCHANGES:;

//---------------dance-single - Renard----------------
#NOTES:
     dance-single:
     Renard:
     Hard:
     9:
     0.631,0.603,0.448,0.128,0.585:
0000
0000
0000
0000
,
0000
0000
0000
0000
,
0000
0000
0000
0000
,
0000
0000
0000
0000
,
1000
0000
0000
0001
0000
0100
0010
0000
0000
1000
0000
0000
,
0100
0000
1000
0001
0000
0000
0010
0000
0000
0200
0000
0000
,
1300
0000
0000
0010
0000
0100
0001
0000
0000
0100
0000
0000
,
0010
0000
1000
0100
0000
0000
1000
0000
0000
0001
0000
0000
,
0010
0000
0100
1000
0000
0000
0110
0000
0000
1001
0000
0000
,
1000
0000
0100
0010
0000
0000
0001
0000
0000
0110
0000
0000
,
0100
0000
1000
0010
0000
0000
0100
0000
0000
1001
0000
0000
,
1000
0000
0100
0010
0000
0000
0001
0000
0000
0110
0000
0000
,
0010
0000
1000
0100
0000
0010
0001
0000
0000
0110
0000
0000
,
0100
0000
1000
0010
0000
0000
0100
0000
0000
1001
0000
0000
,
0100
0100
0100
0100
,
0010
1000
0100
0010
0001
1000
0001
0000
,
1010
0000
0000
0101
0000
0000
1001
0000
0000
1000
0000
0100
,
0010
0000
0000
0001
0000
0010
0100
0000
1000
0010
0000
0000
,
0101
0000
0000
0110
0000
0000
1010
0000
0000
1000
0000
0001
,
0010
0000
0000
0100
0000
1000
0001
0000
0100
0010
0000
0000
,
1010
0000
0000
0101
0000
0000
1001
0000
0000
1000
0000
0100
,
0010
0000
0000
0001
0000
0010
0100
0000
1000
0001
0000
0000
,
0101
0000
0000
1010
0000
0000
1001
0000
0000
1000
0000
0100
,
0010
0000
0010
0001
0000
0001
1000
0000
0001
0000
0000
0000
,
2000
0000
0000
3100
0000
0000
1100
0000
0000
0100
0000
1000
,
0002
0000
0000
0103
0000
0000
0010
0000
1000
0010
0000
0100
,
0001
0000
0000
0100
0000
0000
0010
0000
0000
1000
0000
0100
,
0010
0000
0000
0001
0000
0010
0100
0000
1000
0001
0000
0010
,
0002
0000
0000
0013
0000
0000
0011
0000
0000
0010
0000
0001
,
2000
0000
0000
3010
0000
0000
0100
0000
0001
0100
0000
0010
,
1000
0000
0000
0010
0000
0000
0100
0000
0000
0001
0000
0010
,
0200
0000
0000
1300
0000
0000
0010
0000
0100
0002
0000
0000
,
1003
0000
1000
0100
0000
0100
0010
0000
0001
0000
0000
0010
,
0100
0000
0100
1000
0000
1000
0010
0000
0100
0000
0000
0001
,
0100
0000
0100
0010
0000
0010
1000
0000
0010
0000
0000
0100
,
0001
0000
0001
1000
0000
1000
0100
0000
0010
0000
0000
0001
,
0010
0000
0010
0100
0000
0100
1000
0000
0000
0010
0000
0000
,
0100
0000
0100
0001
0000
0001
0010
0000
0000
0110
0000
0000
,
0100
0000
0100
1000
0000
1000
0010
0000
0000
0100
0000
0000
,
0001
1000
0100
0010
0001
1000
0001
0000
,
1001
0000
0000
0110
0000
0000
1001
0000
0000
1000
0000
0100
,
0010
0000
0000
0001
0000
0010
0100
0000
1000
0001
0000
0000
,
0011
0000
0000
0110
0000
0000
1100
0000
0000
1000
0000
0001
,
0100
0000
0010
1000
0000
0100
0010
0000
0001
0000
0010
0000
,
0100
0000
0000
1000
0000
0000
1010
0000
0000
1000
0000
0010
,
0100
0000
0000
0001
0000
0010
0100
0000
1000
0000
0001
0000
,
0110
0000
0000
1001
0000
0000
0110
0000
0000
0010
0000
0001
,
1000
0000
0001
1000
0000
0001
1000
0000
0000
1001
0000
0000
,
1000
0000
1000
0100
0000
0100
1000
0000
0000
0011
0000
0000
,
0001
0000
0001
0100
0000
0100
0001
0000
0000
1010
0000
0000
,
1000
0000
0000
0000
1000
0000
0100
0000
0000
0000
0100
0000
0010
0000
0000
0000
0000
0000
0001
0000
0000
0010
0000
0000
,
0100
1000
0010
0100
0001
0000
1001
0000
,
1000
0000
0000
0100
0000
0000
0011
0000
0000
0010
0000
0100
,
1000
0000
0000
0010
0000
0100
0001
0000
0100
0010
0000
0000
,
0100
0000
0000
0001
0000
0000
1010
0000
0000
1000
0000
0100
,
0010
0000
0010
0001
0000
0010
0100
0000
1000
0000
0001
0000
,
1000
0000
0000
0100
0000
0000
0011
0000
0000
0010
0000
0100
,
1000
0000
0000
0010
0000
0100
0001
0000
0100
0010
0000
0000
,
1010
0000
0000
0110
0000
0000
0101
0000
0000
0100
0000
0001
,
1000
0000
0000
0100
0000
0000
0010
0000
0100
1000
0000
0001
,
1000
0000
1000
0001
0000
0001
0100
0000
0000
0010
0000
1000
,
0010
0000
0000
0100
0000
0001
1000
0000
0100
0010
0000
0000
,
0001
0000
0001
1000
0000
1000
0010
0000
0000
0100
0000
0001
,
1000
0000
0100
0010
0000
0001
0010
0000
0110
0000
0110
0000
,
0100
0000
1000
0010
0000
0000
0101
0000
0000
0100
0000
0010
,
1000
0000
0000
0100
0000
0010
0001
0000
0010
0100
0000
0000
,
1000
0000
1000
0001
0000
0001
0100
0000
0000
0010
0000
1000
,
0100
0000
0010
0001
0000
0010
0100
0000
1000
0001
0000
0100
,
0001
0000
0001
0100
0000
0100
0001
0000
0000
0101
0000
0000
,
0001
0000
0001
0100
0000
0100
0001
0000
0000
0101
0000
0000
,
1000
0000
1000
0100
0000
0100
1000
0000
0000
1100
0000
0000
,
2000
3200
0320
0032
,
1003
0000
1000
0100
0000
0100
1000
0000
0000
0100
0000
0000
,
0010
0000
0010
0001
0000
0001
0010
0000
0000
0001
0000
0000
,
1000
0000
0000
0000
1000
0000
0010
0000
0000
0000
0010
0000
0100
0000
0000
0000
0000
0000
0001
0000
0000
1000
0000
0000
,
0100
0010
0001
0100
0010
0000
2002
0000
,
0020
0000
0000
0000
,
0000
0030
3003
0000
;

//---------------dance-single - Renard----------------
#NOTES:
     dance-single:
     Renard:
     Medium:
     7:
     0.418,0.390,0.119,0.018,0.119:
0000
0000
0000
0000
,
0000
0000
0000
0000
,
0000
0000
0000
0000
,
0000
0000
0000
0000
,
1000
0001
1000
0010
,
0100
0000
0100
0001
0000
0000
1000
0000
0000
0100
0000
0000
,
0010
0000
0000
0001
0000
0000
1000
0000
0000
0100
0000
0100
,
1000
0001
0100
0010
,
1000
0010
1000
1010
,
0001
0100
0001
0101
,
1000
0010
1000
1010
,
0001
0100
0001
0100
,
0001
1000
0100
1100
,
1000
0001
0010
0011
,
0001
1000
0010
0100
,
0001
0001
1000
1000
,
0001
0100
0010
1000
,
0010
0000
0000
0100
0000
0000
0001
0000
0000
1000
0000
0100
,
1000
0100
0010
0001
,
1000
0000
0000
0010
0000
0000
0100
0000
0000
0001
0000
0100
,
0001
0100
0010
1000
,
0100
0000
0000
0010
0000
0000
0001
0000
0000
1000
0000
0100
,
1000
0000
0000
0001
0000
0000
0010
0000
0000
0001
0000
1000
,
0000
0000
0000
0010
0000
0000
0100
0000
0001
0100
0000
0001
,
0100
0001
1000
0100
,
0010
0001
0010
0100
,
1000
0010
0100
0001
,
1000
0000
0000
0100
0000
0000
1000
0000
0001
1000
0000
0000
,
0001
0100
0010
1000
,
0100
0010
0001
1000
,
0010
0100
0001
1000
,
0100
0000
0000
1000
0000
0000
0001
0000
1000
0001
0000
0000
,
1000
0000
0000
0001
0000
0000
0100
0000
0010
0000
0000
0000
,
1000
0000
0000
0100
0000
0000
0010
0000
0001
0000
0000
0000
,
0010
0000
0000
0100
0000
0000
1000
0000
0010
0000
0000
0000
,
0100
0000
0000
0001
0000
0000
1000
0000
0100
0000
0000
0000
,
1000
0001
1000
0010
,
1000
0001
1000
0100
,
1000
0001
0010
0001
,
1000
0010
0100
0001
,
1000
0000
0000
1000
0000
0000
1000
0000
0000
0001
0000
0100
,
0001
0100
0010
1000
,
1000
0000
0000
0100
0000
0000
0100
0000
0000
0010
0000
0001
,
1000
0001
0100
0100
,
0010
0000
0000
1000
0000
0000
0001
0000
0000
0100
0000
0100
,
0001
1000
0100
0010
,
0001
0000
0000
1000
0000
0000
0100
0000
0000
1000
0000
1000
,
0100
0010
0001
1000
,
0001
0001
1000
1000
,
0010
0100
0001
1000
,
0100
0010
0001
1000
,
0001
0001
0001
0001
,
1000
0000
0000
0001
0000
0000
1001
0000
0000
0001
0000
1000
,
0001
0100
0010
0000
,
0001
0000
0000
1000
0000
0000
1001
0000
0000
0001
0000
1000
,
0010
0100
0001
0000
,
1000
0000
0000
0001
0000
0000
1001
0000
0000
0001
0000
0100
,
0001
0100
0010
0000
,
0001
0000
0000
1000
0000
0000
1001
0000
0000
0001
0000
0100
,
0001
1000
0100
1000
,
0100
0000
0000
1000
0000
0000
1100
0000
0000
1000
0000
0100
,
1000
0001
1000
0000
,
0010
0000
0000
1000
0000
0000
1100
0000
0000
1000
0000
0010
,
1000
0010
0100
0001
,
1000
0000
0000
0100
0000
0000
1100
0000
0000
1000
0000
0100
,
1000
0010
1000
0000
,
0010
0000
0000
1000
0000
0000
1010
0000
0000
1000
0000
0010
,
0100
0001
0100
0010
,
1000
1000
0010
0100
,
0001
0001
0010
0100
,
1000
1000
0010
0100
,
0001
0001
0010
0100
,
1000
1000
1000
0010
,
0100
0100
0100
0001
,
0010
0010
0010
0100
,
1000
0010
0100
0002
,
2000
0000
0000
0000
,
0000
0000
3003
0000
;

//---------------dance-single - Renard----------------
#NOTES:
     dance-single:
     Renard:
     Easy:
     3:
     0.341,0.319,0.201,0.101,0.000: // measure 1
0000
0000
0000
0000
,  // measure 2
0000
0000
0000
0000
,  // measure 3
0000
0000
0000
0000
,  // measure 4
0000
0000
0000
0000
,  // measure 5
1000
0001
1000
0001
,  // measure 6
2000
0000
3000
0000
,  // measure 7
0001
1000
0001
1000
,  // measure 8
0020
0000
0230
0000
,  // measure 9
0301
1000
0100
1000
,  // measure 10
0001
1000
0100
1000
,  // measure 11
0001
1000
0100
1000
,  // measure 12
0001
1000
0100
1000
,  // measure 13
0001
1000
0100
1000
,  // measure 14
0001
1000
0100
1000
,  // measure 15
0001
0001
0001
0002
,  // measure 16
2000
0000
0000
3003
,  // measure 17
1000
0001
1001
0000
,  // measure 18
0001
1000
1001
0000
,  // measure 19
1000
0001
1001
0000
,  // measure 20
0001
1000
1001
0000
,  // measure 21
1000
0001
1001
0000
,  // measure 22
0001
1000
1001
0000
,  // measure 23
1000
0001
1001
0000
,  // measure 24
0001
1000
1001
0000
,  // measure 25
0010
0100
0110
0000
,  // measure 26
0100
0010
0110
0000
,  // measure 27
0010
0100
0110
0000
,  // measure 28
0100
0010
0110
0000
,  // measure 29
0010
0100
0110
0000
,  // measure 30
0100
0010
0110
0000
,  // measure 31
0010
0100
0110
0000
,  // measure 32
0100
0010
0100
0010
,  // measure 33
1000
1000
1000
0000
,  // measure 34
0001
0001
0001
0000
,  // measure 35
0100
0100
0100
0000
,  // measure 36
0010
0010
0010
0000
,  // measure 37
1000
1000
1000
0000
,  // measure 38
0001
0001
0001
0000
,  // measure 39
0100
0100
0100
0020
,  // measure 40
0200
0000
0000
0330
,  // measure 41
0100
0010
0000
1000
,  // measure 42
0001
0100
0000
0001
,  // measure 43
1000
0100
0000
1000
,  // measure 44
0001
1000
0100
1000
,  // measure 45
0010
0010
0000
1000
,  // measure 46
0001
0100
0000
0001
,  // measure 47
1000
0100
0000
1000
,  // measure 48
0001
0010
0001
1000
,  // measure 49
0010
0010
0010
0010
,  // measure 50
0010
0010
0010
0010
,  // measure 51
0010
0010
0010
0020
,  // measure 52
0200
0000
0000
0330
,  // measure 53
0010
0100
0010
0100
,  // measure 54
0001
0000
1001
0000
,  // measure 55
1000
0010
1000
0010
,  // measure 56
0100
0000
0110
0000
,  // measure 57
0010
1000
0010
0100
,  // measure 58
0010
0000
1010
0000
,  // measure 59
1000
0100
1000
0001
,  // measure 60
1000
0000
1001
0000
,  // measure 61
0001
0100
0001
1000
,  // measure 62
0001
0000
1001
0000
,  // measure 63
0010
0100
0010
0100
,  // measure 64
0001
0000
1001
0000
,  // measure 65
1000
0100
1000
0010
,  // measure 66
0100
0000
0110
0000
,  // measure 67
0010
0100
0001
1000
,  // measure 68
0100
1000
0100
1000
,  // measure 69
0100
0100
0100
0000
,  // measure 70
0010
0010
0010
0000
,  // measure 71
0001
0001
0001
0000
,  // measure 72
1000
0001
1000
0001
,  // measure 73
1000
1000
1000
0000
,  // measure 74
0010
0010
0010
0000
,  // measure 75
0100
0100
0100
0001
,  // measure 76
1000
0100
0020
0002
,  // measure 77
0000
0000
0000
0000
,  // measure 78
0000
0000
0033
0000
;
