#TITLE:Braincracking;
#SUBTITLE:;
#ARTIST:Neophyte;
#TITLETRANSLIT:;
#SUBTITLETRANSLIT:;
#ARTISTTRANSLIT:;
#CREDIT:;
#BANNER:brain.png;
#BACKGROUND:brain-bg.png;
#LYRICSPATH:;
#CDTITLE:;
#MUSIC:brain.ogg;
#OFFSET:0.000;
#SAMPLESTART:70.633;
#SAMPLELENGTH:12.000;
#SELECTABLE:YES;
#BPMS:0.000=163.050;
#STOPS:;
#BGCHANGES:;

//---------------dance-single - Renard----------------
#NOTES:
     dance-single:
     Renard:
     Challenge:
     10:
     0.782,0.848,1.000,0.092,0.638:
0000
0000
0000
0000
,
0000
0000
0000
0000
,
0000
0000
0000
0000
,
0000
0000
0000
0000
,
1001
0000
0000
0000
1010
0000
0000
0010
0100
0000
0000
0000
0001
0000
0000
0000
,
1001
0000
0000
0000
1100
0000
0000
0100
0020
0000
0000
0000
1030
0000
0000
0000
,
0011
0000
0000
0000
0110
0000
0000
0100
1000
0000
0000
0000
1010
0000
0000
0000
,
1001
0000
0000
0000
0101
0000
0000
0010
0200
0000
0000
0000
0300
0000
0000
0000
,
0101
0000
0000
0000
1010
0000
0000
1000
0100
0000
0000
0000
0110
0000
0000
0000
,
0011
0000
0000
0000
0110
0000
0000
0200
1000
0000
0000
0000
0310
0000
0000
0000
,
0011
0000
0000
0000
0110
0000
0000
0100
1000
0000
0000
0000
1010
0000
0000
0000
,
0101
0000
0000
0000
0000
0000
0000
0000
0000
0000
0000
0000
0001
0000
0100
0000
0001
0000
0100
0000
0000
0000
0000
0000
0010
0000
1000
0000
0010
0000
1000
0000
0000
0000
0000
0000
0000
0000
0000
0000
0000
0000
0001
0000
0000
0100
0000
0000
,
0101
0000
0010
0000
1100
0000
0010
0000
1000
0000
0100
0000
0001
0000
0100
0010
,
0001
0000
0010
0000
1100
0000
0000
0010
0001
0000
0000
1000
0200
0000
0000
0300
,
0011
0000
0100
0000
1010
0000
0100
0000
0001
0000
0100
0000
1000
0000
0100
0010
,
0100
0000
0000
0000
0000
0000
0001
0000
0000
0000
0000
0000
0101
0000
0000
0000
0000
0000
0000
0000
0000
0010
0000
0000
1000
0000
0000
0000
0000
0000
0000
0000
0000
0001
0000
0000
0200
0000
0000
0000
0000
0000
0000
0000
0000
0000
0300
0000
,
0011
0000
1000
0000
0101
0000
1000
0000
0100
0000
0001
0000
0010
0000
0001
1000
,
0010
0000
1000
0000
0101
0000
0000
1000
0010
0000
0000
0100
0002
0000
0000
0003
,
1010
0000
0001
0000
1100
0000
0001
0000
0010
0000
0001
0000
0100
0000
0001
1000
,
0001
0000
0010
0000
0011
0000
0000
1000
0200
0000
0000
0000
0020
0000
0000
0330
,
0001
0000
0000
0000
0010
0000
0000
0010
0100
0000
0000
0000
1000
0000
0000
0000
,
0010
0000
0000
0000
0100
0000
0000
0100
0001
0000
0000
0000
0100
0000
0000
0000
,
0010
0000
0000
0000
1000
0000
0000
1000
0100
0000
0000
0000
0010
0000
0000
0000
,
0001
0000
0000
0000
1000
0000
0000
1000
0001
0000
0000
0000
0100
0000
0000
0000
,
0010
0000
0000
0000
1000
0000
0000
0010
0100
0000
0010
0000
0000
0000
0000
0000
,
0100
0001
0100
0010
,
1000
0000
0000
0000
0100
0000
0000
0010
0001
0000
0010
0000
0000
0000
0000
0000
,
0100
1000
0010
0100
,
0001
0000
0000
0000
0100
0000
0000
0010
1000
0000
0010
0000
0000
0000
0000
0000
,
0100
0001
0100
0010
,
1000
0000
0000
0000
0100
0000
0000
0010
0001
0000
0010
0000
0000
0000
0000
0000
,
0100
1000
0010
0100
,
0001
1000
0010
0001
,
0100
0000
0000
0000
1000
0000
0000
0010
1000
0000
0000
0000
0010
0000
0000
0000
,
1000
0100
0001
0010
,
1000
0000
0000
0000
0100
0000
0000
1000
0010
0000
0000
0000
0100
0000
0000
0000
,
0001
0010
1000
0100
,
0001
0000
0000
0000
0010
0000
0000
0001
0010
0000
0000
0000
0001
0000
0000
0000
,
0010
0100
1000
0010
,
0100
0000
0000
0000
0001
0000
0000
1000
0001
0000
0000
0000
1000
0000
MMMM
0000
,
0101
0000
0000
0110
0000
0000
1010
0000
1010
0000
0000
1100
0000
0000
0110
0000
,
0110
0000
0000
0011
0000
0000
0110
0000
0110
0000
0000
1100
0000
0000
1001
0000
,
1010
0000
0000
1100
0000
0000
0011
0000
0110
0000
0000
0011
0000
0000
0110
0000
,
0011
0000
0000
1001
0000
0000
1010
0000
0101
0000
0000
0110
0000
0000
1001
0000
,
1100
0000
0000
0110
0000
0000
0011
0000
0011
0000
0000
0110
0000
0000
0110
0000
,
0110
0000
0000
1100
0000
0000
1010
0000
0101
0000
0000
0110
0000
0000
1001
0000
,
1001
0000
0000
1100
0000
0000
0011
0000
0011
0000
0000
0011
0000
0000
0110
0000
,
0110
0000
0000
0110
0000
0000
1100
0000
2100
0000
0010
0000
3001
0000
0000
0000
,
1001
0000
0000
0010
1000
0000
0100
0000
1010
0000
0000
0001
1000
0000
0010
0000
,
1100
0000
0000
0010
1000
0000
0001
0000
1010
0000
0000
0100
1000
0000
0001
0000
,
1001
0000
0000
0100
0001
0000
0010
0000
0101
0000
0000
1000
0001
0000
0100
0000
,
0011
0000
0000
0100
0001
0000
1000
0000
0101
0000
0000
0010
0001
0000
1000
0000
,
0110
0000
0000
0001
0010
0000
1000
0000
0011
0000
0000
0100
0010
0000
0001
0000
,
1010
0000
0000
0001
0010
0000
0100
0000
0011
0000
0000
1000
0010
0000
0100
0000
,
0110
0000
0000
1000
0100
0000
0001
0000
1100
0000
0000
0010
0100
0000
1000
0000
,
0101
0000
0000
1000
0100
0000
0010
0000
2100
0000
0100
0000
0100
0000
3100
0000
,
1100
0000
0010
0001
0000
0100
0010
0000
0110
0000
0010
1000
0000
0100
0010
0000
,
0011
0000
0010
0100
0000
1000
0001
0000
0101
0000
0001
1000
0000
0010
0100
0000
,
0101
0000
0010
1000
0000
0001
0100
0000
0110
0000
0010
1000
0000
0100
0010
0000
,
0011
0000
0010
0100
0000
1000
0001
0000
0011
0000
0001
0010
0000
0100
0010
0000
,
0011
0000
0100
1000
0000
0010
0100
0000
0110
0000
0100
0001
0000
0010
0100
0000
,
1100
0000
0100
0010
0000
0001
1000
0000
1010
0000
1000
0001
0000
0100
0010
0000
,
1010
0000
0100
0001
0000
1000
0010
0000
0110
0000
0100
0001
0000
0010
0100
0000
,
1100
0000
0100
0010
0000
0001
1000
0000
1100
0000
1000
0100
0000
0010
0100
0000
,
0010
0001
0010
0100
0000
1000
0010
0000
0100
0001
0100
0010
0000
1000
0010
0000
,
0100
0001
0100
0010
0000
1000
0100
0000
0010
0001
0010
0100
0000
1000
0001
0000
,
0010
0100
0010
0001
0000
0010
0001
0000
1000
0010
0100
0001
0000
0100
0010
0000
,
1000
0100
0010
0001
0000
0010
0100
0000
1000
0001
0100
0010
0000
0100
0010
0000
,
1000
0100
0010
0001
0000
0010
0100
0000
1000
0001
0100
0010
0000
1000
0100
0000
,
0010
0001
0100
0010
0000
1000
0100
0000
0010
0001
0100
0010
0000
1000
0001
0000
,
1000
0010
0100
0001
0000
0010
0100
0000
1000
0100
0010
0001
0000
0100
0010
0000
,
1001
0000
0000
0000
;

//---------------dance-single - Renard----------------
#NOTES:
     dance-single:
     Renard:
     Hard:
     9:
     0.542,0.620,0.413,0.000,0.326:
0000
0000
0000
0000
,
0000
0000
0000
0000
,
0000
0000
0000
0000
,
0000
0000
0000
0000
,
1000
0000
0000
0000
0001
0000
0000
0001
0100
0000
0000
0000
0010
0000
0000
0000
,
1000
0000
0000
0000
1000
0000
0000
0100
1000
0000
0000
0000
0000
0000
0000
0000
,
0001
0000
0000
0000
0010
0000
0000
0001
1000
0000
0000
0000
0010
0000
0000
0000
,
0100
0000
0000
0000
0001
0000
0000
1000
0010
0000
0000
0000
0000
0000
0000
0000
,
0100
0000
0000
0000
0001
0000
0000
1000
0100
0000
0000
0000
1000
0000
0000
0000
,
0001
0000
0000
0000
0010
0000
0000
0001
1000
0000
0000
0000
0000
0000
0000
0000
,
0001
0000
0000
0000
0100
0000
0000
0010
0100
0000
0000
0000
0010
0000
0000
0000
,
1000
0100
1000
0001
,
1000
0000
1001
0000
0110
0000
0001
1000
,
0010
0000
0000
0000
1001
0000
0000
1000
0100
0000
0000
0000
1100
0000
0000
0000
,
1000
0000
0000
0000
0001
0000
0000
0010
0001
0000
0000
0000
1010
0000
0000
0000
,
1001
0000
1000
0100
1000
0001
1000
0000
,
1010
0000
0000
0000
0101
0000
0000
0000
1001
0000
0000
0000
1000
0000
0000
0100
,
1000
0000
0000
0000
0001
0000
0000
0010
0001
0000
1000
0000
0010
0000
0000
0000
,
0101
0000
0000
0000
1010
0000
0000
0000
1001
0000
0000
0000
1000
0000
0000
0100
,
0010
0000
0000
0000
0001
0000
0000
0010
0100
0000
1000
0000
0001
0000
0000
0000
,
0100
0100
0100
0100
,
0100
0100
0100
0100
,
0010
0010
0010
0010
,
0010
0010
0010
0010
,
1000
0000
0000
0000
1000
0000
0000
0001
1000
0000
0000
0000
1000
0000
0000
0000
,
1000
0000
0000
0000
1000
0000
0000
0001
1000
0000
0000
0000
1000
0000
0000
0000
,
0001
0000
0000
0000
0001
0000
0000
1000
0001
0000
0000
0000
0001
0000
0000
0000
,
0001
0000
0000
0000
0001
0000
0000
1000
0001
0000
0000
0000
0001
0000
0000
0000
,
0100
0000
0000
0000
0100
0000
0000
0010
0100
0000
0000
0000
0100
0000
0000
0000
,
0100
0000
0000
0000
0100
0000
0000
0010
0100
0000
0000
0000
0100
0000
0000
0000
,
0010
0000
0000
0000
0010
0000
0000
0100
0010
0000
0000
0000
0010
0000
0000
0000
,
0010
0000
0000
0000
0010
0000
0000
0100
0010
0000
0000
0000
0010
0000
0000
0000
,
1000
0000
0000
0000
0010
0000
0000
0100
0001
0000
0000
0100
0010
0000
0000
0000
,
1010
0000
0000
0000
0000
0000
0000
0000
0001
0000
0000
1000
0000
0000
0000
0000
,
0100
0000
0000
0000
1000
0000
0000
0001
0010
0000
0000
0001
1000
0000
0000
0000
,
1001
0000
0000
0000
0000
0000
0000
0000
0001
0000
0000
0100
0000
0000
0000
0000
,
0000
0000
0000
0000
0010
0000
0000
1000
0001
0000
0000
1000
0100
0000
0000
0000
,
1000
0000
0000
0000
0000
0000
0000
0000
0001
0000
0000
0100
0000
0000
0000
0000
,
0000
0000
0000
0000
0010
0000
0000
1000
0010
0000
0000
1000
0001
0000
0000
0000
,
1000
0000
0000
0000
,
0100
0000
0000
0100
0000
0000
0100
0000
1000
0000
0000
1000
0000
0000
1000
0000
,
0001
0000
0000
0001
0000
0000
0001
0000
0010
0000
0000
0010
0000
0000
0010
0000
,
0100
0000
0000
0100
0000
0000
0100
0000
1000
0000
0000
1000
0000
0000
1000
0000
,
0001
0000
0000
0001
0000
0000
0001
0000
0010
0000
0000
0010
0000
0000
0010
0000
,
0001
0000
0000
0001
0000
0000
0001
0000
1000
0000
0000
1000
0000
0000
1000
0000
,
0010
0000
0000
0010
0000
0000
0010
0000
0100
0000
0000
0100
0000
0000
0100
0000
,
0001
0000
0000
0001
0000
0000
0001
0000
1000
0000
0000
1000
0000
0000
1000
0000
,
0010
0000
0000
0010
0000
0000
0010
0000
0100
0000
0001
0000
0001
0000
0000
0000
,
1000
0000
0000
1000
0001
0000
0100
0000
0010
0000
0000
0010
1000
0000
0100
0000
,
0010
0000
0000
0010
0001
0000
0010
0000
0100
0000
0000
0100
1000
0000
0010
0000
,
0100
0000
0000
0100
0001
0000
0100
0000
0010
0000
0000
0010
1000
0000
0001
0000
,
0100
0000
0000
0100
0010
0000
1000
0000
0100
0000
0010
0000
0001
0000
0010
0000
,
0100
0000
0000
0100
1000
0000
0001
0000
0010
0000
0000
0010
0100
0000
1000
0000
,
0001
0000
0000
0001
0010
0000
0100
0000
1000
0000
0000
1000
0010
0000
0100
0000
,
0001
0000
0000
0001
0100
0000
0010
0000
1000
0000
0000
1000
0100
0000
0010
0000
,
0001
0000
0000
0001
0010
0000
0100
0000
1000
0000
0000
0000
0000
0000
0000
0000
,
1001
0000
0110
0000
1001
0000
0010
1000
,
1001
0000
0110
0000
1001
0000
1000
0100
,
0110
0000
0011
0000
0011
0000
0010
0100
,
1000
0010
0100
0001
0101
0000
0110
0000
,
1010
0000
0001
1000
0100
0010
0001
0000
,
0011
0000
0000
0000
0110
0000
0000
0000
0100
0000
0000
1000
0100
0000
1000
0000
,
0010
0000
0000
0000
1010
0000
0000
0000
0101
0000
0000
0001
0100
0000
0010
0000
,
1000
0000
0000
0001
1000
0000
0100
0000
0010
0000
0001
0000
0010
0000
0100
0000
,
0110
0000
0000
0000
1001
0000
0000
0000
0110
0000
0000
0010
1000
0000
0001
0000
,
0100
0000
0000
0000
0110
0000
0000
0000
1001
0000
0000
0010
1000
0000
0001
0100
,
0001
0000
0000
0000
1010
0000
0000
0000
1001
0000
0000
1000
0100
0000
0010
0000
,
0001
0010
0100
1000
0001
1000
0010
0000
,
1010
0000
0000
0000
1001
0000
0000
0000
1100
0000
0000
1000
0100
0000
0010
0000
,
0001
0000
0000
0000
0011
0000
0000
0000
0101
0000
0000
0001
0100
0000
0010
0000
,
1000
0000
0000
0000
1001
0000
0000
0000
1010
0000
0000
1000
0100
0000
0010
0000
,
1001
0000
0000
0000
;

//---------------dance-single - Renard----------------
#NOTES:
     dance-single:
     Renard:
     Medium:
     6:
     0.428,0.587,0.579,0.110,0.000:
0000
0000
0000
0000
,
0000
0000
0000
0000
,
0000
0000
0000
0000
,
0000
0000
0000
0000
,
1001
1001
1001
1001
,
1001
1001
1001
0000
,
0110
0110
0110
0110
,
0110
0110
0110
0000
,
1001
1001
1001
1001
,
1001
1001
1001
0000
,
0110
0110
0110
0110
,
0110
1001
1001
0000
,
1000
1000
0100
0100
,
0010
0000
0010
0001
0010
0000
0000
0000
,
0001
0001
0010
0010
,
0100
0000
0100
1000
0100
0000
0000
0000
,
1000
1000
0010
0010
,
0100
0000
0100
0001
1000
0000
0000
0000
,
0001
0001
0010
0010
,
0100
0000
0100
1000
0001
0000
0100
0000
,
0001
0001
0001
0001
,
0001
0001
0001
0001
,
0001
0001
0001
0001
,
0001
0001
0001
0001
,
1000
0010
0200
0000
,
0302
0000
0023
0000
,
0130
1000
0010
0000
,
2000
0000
3002
0000
,
0103
0001
2000
0000
,
3200
0000
0320
0000
,
0031
1000
0020
0000
,
0230
0000
0001
0000
,
0301
0001
0100
0100
,
0010
0000
0110
0000
,
0010
1000
0100
0100
,
0010
0000
0011
0000
,
0010
0100
1000
1000
,
0001
0000
1001
0000
,
0001
0100
0010
1000
,
0002
0000
0000
0000
,
1003
1000
1000
1000
,
0001
0001
0010
0010
,
1000
1000
1000
1000
,
0001
0001
0010
0010
,
1000
1000
1000
1000
,
0001
0001
0010
0010
,
1000
1000
1000
1000
,
0001
0001
0010
0001
,
1001
1001
1001
1001
,
0110
0110
1001
1001
,
0110
0110
0110
0110
,
1001
1001
0110
0110
,
1001
1001
1001
1001
,
0110
0110
1001
1001
,
0110
0110
0110
0110
,
1001
1001
0110
0000
,
0010
0000
1000
0000
0010
1000
0010
0000
,
0100
0001
0100
0000
0001
0000
1000
0000
,
0100
0000
1000
0000
0001
0000
1000
0001
,
1000
0000
0001
1000
0001
0000
0000
0000
,
0100
0001
1000
0100
,
1000
0000
0001
1000
0001
0000
1000
0001
,
1000
0001
0100
0001
,
1000
1000
0001
0001
,
1000
1000
1000
0010
,
2000
0000
3001
0000
0100
0000
0001
1000
,
0001
1000
0100
0010
,
0001
0000
1000
0000
0001
0000
0100
0010
,
0100
0010
1000
0100
,
0010
0001
1000
0001
,
1000
0010
0100
0001
,
1001
0000
0000
0000
;

//---------------dance-single - Renard----------------
#NOTES:
     dance-single:
     Renard:
     Easy:
     4:
     0.293,0.587,0.266,0.037,0.000: // measure 1
0000
0000
0000
0000
,  // measure 2
0000
0000
0000
0000
,  // measure 3
0000
0000
0000
0000
,  // measure 4
0000
0000
0000
0000
,  // measure 5
1000
0000
1000
1000
,  // measure 6
0001
0000
0100
0000
,  // measure 7
0010
0000
0010
0010
,  // measure 8
1000
0000
0001
0000
,  // measure 9
1000
0000
0001
0001
,  // measure 10
0100
0000
0001
0000
,  // measure 11
1000
0000
0100
0100
,  // measure 12
0010
0001
0001
0000
,  // measure 13
1001
0000
1001
0000
,  // measure 14
0110
0000
0110
0000
,  // measure 15
1001
0000
1001
0000
,  // measure 16
0110
0000
0110
0000
,  // measure 17
1001
0000
1001
0000
,  // measure 18
0110
0000
0110
0000
,  // measure 19
1001
0000
1001
0000
,  // measure 20
0110
0000
0110
0000
,  // measure 21
0020
0000
0000
0000
,  // measure 22
0000
0000
0000
0100
,  // measure 23
0230
0000
0000
0000
,  // measure 24
0000
0000
0000
0001
,  // measure 25
0301
0000
0001
0000
,  // measure 26
0100
0000
0100
0000
,  // measure 27
0001
0000
0001
0000
,  // measure 28
1000
0000
1000
0000
,  // measure 29
0100
0000
0100
0000
,  // measure 30
1000
0000
1000
0000
,  // measure 31
0010
0000
0010
0000
,  // measure 32
1000
0000
1000
0000
,  // measure 33
0001
0010
0001
1000
,  // measure 34
0002
0000
0000
0000
,  // measure 35
1003
0001
0100
0010
,  // measure 36
1000
1000
1000
0000
,  // measure 37
0010
0100
0001
0010
,  // measure 38
0200
0000
0000
0000
,  // measure 39
1300
0010
0100
0001
,  // measure 40
1000
1000
1000
0000
,  // measure 41
0001
0000
0001
0000
,  // measure 42
0100
0000
0100
0000
,  // measure 43
0001
0000
0001
0000
,  // measure 44
0100
0000
0100
0000
,  // measure 45
0001
0000
0001
0000
,  // measure 46
0100
0000
0100
0000
,  // measure 47
0001
0000
0001
0000
,  // measure 48
0100
0000
0100
0010
,  // measure 49
1000
0010
1000
0010
,  // measure 50
0100
0001
0100
0001
,  // measure 51
1000
0010
1000
0010
,  // measure 52
0100
0001
0100
0001
,  // measure 53
1000
0010
1000
0010
,  // measure 54
0100
0001
0100
0001
,  // measure 55
1000
0010
1000
0010
,  // measure 56
0100
0001
0100
0000
,  // measure 57
0001
1000
0001
1000
,  // measure 58
0010
0100
0010
0100
,  // measure 59
1000
0001
1000
0001
,  // measure 60
0100
0010
0100
0001
,  // measure 61
1000
0010
1000
0001
,  // measure 62
0100
0001
1000
0010
,  // measure 63
1000
0001
0100
0001
,  // measure 64
1000
0010
1000
0001
,  // measure 65
0100
0100
0001
0001
,  // measure 66
0100
0100
0001
0001
,  // measure 67
1000
1000
0010
0010
,  // measure 68
1000
1000
0010
0010
,  // measure 69
1010
1010
1010
1010
,  // measure 70
0101
0101
0101
0101
,  // measure 71
1001
1001
1001
1001
,  // measure 72
0110
0000
0000
0000
;
