#TITLE:Boytoy 2007;
#SUBTITLE:;
#ARTIST:Emoticon feat Kai'enne;
#TITLETRANSLIT:;
#SUBTITLETRANSLIT:;
#ARTISTTRANSLIT:;
#CREDIT:;
#BANNER:;
#BACKGROUND:;
#LYRICSPATH:;
#CDTITLE:;
#MUSIC:boy.ogg;
#OFFSET:0.000;
#SAMPLESTART:33.882;
#SAMPLELENGTH:12.000;
#SELECTABLE:YES;
#BPMS:0.000=180.000;
#STOPS:;
#BGCHANGES:;
#GENRE:Trancecore;

//---------------dance-single - Renard----------------
#NOTES:
     dance-single:
     Renard:
     Hard:
     8:
     0.667,0.591,0.971,0.000,0.000:
0000
0000
0000
0000
,
0000
0000
0000
0000
,
0000
0000
0000
0000
,
0000
0000
0000
0000
,
0001
0100
0001
1000
1100
0000
0011
0000
,
0001
0100
0010
1000
1100
0000
0011
0000
,
0001
1000
0010
1000
1010
0000
0101
0000
,
0001
0010
0100
1000
0001
1000
1001
0000
,
0001
0100
0010
0100
0001
1000
0100
0010
,
0000
0001
0010
0100
1000
0000
1010
0000
,
0001
0100
0010
1000
0100
0000
0101
0000
,
0100
1000
0010
0001
0010
0000
0011
0000
,
0010
1000
0100
1000
0000
0001
0010
0000
,
0001
1000
0010
0100
0001
0000
0101
0000
,
0001
0100
1000
0100
0001
0000
0011
0000
,
0001
0010
1000
0010
0001
0000
1001
0000
,
0010
0000
1000
0001
0000
0100
0010
1000
,
0100
0010
0001
0000
1001
0000
1010
0000
,
0101
0000
0010
1000
0100
1000
0001
0010
,
0001
0100
0000
0000
1001
0000
1100
0000
,
0011
0000
1000
0010
0000
0010
0100
0001
,
1000
0100
1000
0001
1000
0000
1001
0000
,
1010
0000
0100
0001
0000
0001
0010
0000
,
0100
1000
0001
1000
0010
0000
1001
0000
,
1000
0000
0110
0000
0001
0010
0100
1000
,
0000
0110
0000
1001
0000
1000
0100
0010
,
0001
0000
0110
0000
0001
0010
0100
1000
,
0000
0110
0000
1001
0000
1000
0100
0010
,
0001
0000
0110
0000
0001
0010
0100
1000
,
0000
0110
0000
1001
0000
1000
0100
0010
,
0001
0000
0110
0000
0001
0100
0010
1000
,
0000
0110
0000
0001
0000
1000
0010
0100
,
0001
0000
0110
0000
0100
1000
0010
0100
,
0000
1001
0000
1100
0000
0001
0010
0100
,
1000
0000
0011
0000
0001
1000
0010
0100
,
0000
1001
0000
0110
0000
1000
0010
0100
,
0001
0000
0011
0000
0001
0010
0100
1000
,
0000
0011
0000
1100
0000
0001
1000
0010
,
0100
0000
0101
0000
0010
1000
0100
0010
,
0000
0011
0000
1100
0000
0001
0100
0010
,
1000
0000
1000
0010
0100
0001
0010
0001
,
0000
0001
0100
0010
1000
0100
0010
0000
,
1001
0000
1010
0000
0101
0000
0001
0100
,
0000
0100
0010
1000
0100
0010
0001
0000
,
1001
0000
1010
0000
0001
0100
0010
1000
,
0000
1000
0100
0010
0001
0010
0100
1000
,
1010
0101
1010
1001
,
1000
0100
0010
0001
0010
0100
1000
0000
,
0101
0000
1010
0000
0001
0100
0010
1000
,
0000
1000
0100
0010
0001
1000
0001
0000
,
1010
0000
0101
0000
0001
1000
0000
1100
,
0000
0100
0010
0001
1000
0010
0100
0000
,
0101
0000
1100
0000
0001
0010
1000
0010
,
0000
1010
0000
0011
0000
0001
0100
1000
,
1100
0000
0101
0000
0001
0010
0000
1010
,
0000
0011
0000
0001
1000
0001
1001
0000
,
1010
0000
0101
0000
1000
0100
0010
0001
,
0000
1001
0000
1010
0000
0101
0000
1000
,
0100
0000
0011
0000
0100
1000
0010
0100
,
0000
1001
0000
0110
0000
0001
0000
1000
,
0010
0000
0101
0000
0010
1000
0100
0010
,
0000
0011
0000
1100
0000
0001
1000
0010
,
0100
0000
0101
0000
0010
1000
0100
0010
,
0000
0110
0000
1100
0000
0001
1000
0010
,
0100
0000
0101
0000
0010
1000
0100
0010
,
0000
0011
0000
1100
0000
0011
0000
1100
,
1000
0000
0110
0000
0001
1000
0010
0100
,
0000
0011
0000
1100
0000
0011
0000
1001
,
1000
0000
0110
0000
0001
0010
0100
0010
,
0000
0011
0000
0110
0000
1100
0000
1001
,
1000
0000
0110
0000
0001
1000
0010
1001
;

//---------------dance-single - Renard----------------
#NOTES:
     dance-single:
     Renard:
     Medium:
     6:
     0.447,0.521,0.235,0.078,0.000:
0000
0000
0000
0000
,
0000
0000
0000
0000
,
0000
0000
0000
0000
,
0000
0000
0000
0000
,
1001
0000
1010
0000
0001
0100
0001
0000
,
1000
0100
0010
0000
,
0101
0000
0011
0000
1000
0100
1000
0000
,
0001
1000
0001
0000
,
1000
0000
1000
0000
0010
0000
0100
0001
,
0000
0001
0100
0000
0010
0000
1000
0000
,
0100
0000
0010
0000
0001
0000
1000
0010
,
0000
0010
1000
0000
0010
0000
0100
0000
,
0001
0000
1000
0000
0100
0000
0010
0001
,
0000
0001
0010
0000
0011
0000
1100
0000
,
1000
0000
0010
0000
0100
0000
0001
1000
,
0000
1000
0001
0000
0100
0000
0100
0000
,
0020
1000
0100
0001
,
0230
1000
0010
0001
,
0320
1000
0100
0001
,
0200
0000
0330
0000
,
2000
0001
0010
0100
,
3002
1000
0100
0010
,
2003
0010
0100
0001
,
3002
0010
0100
1003
,
1001
0000
1010
0000
0101
0000
1000
0100
,
0000
0100
0000
0100
0000
0100
0000
0100
,
1000
0000
0010
0000
0100
0000
0001
1000
,
0000
0001
0000
0010
0000
0100
0000
1000
,
0001
0000
0101
0000
1010
0000
0001
1000
,
0000
0100
0000
0010
0000
0001
0000
1000
,
0010
0000
0100
0000
0001
0000
1000
0100
,
0000
0010
0000
0001
0000
1000
0000
0010
,
0100
0000
0101
0000
0110
0000
0010
1000
,
0000
1100
0000
0011
0000
0101
0000
0001
,
1000
0000
0010
0000
0100
0000
0001
1000
,
0000
0100
0000
0010
0000
0001
0000
1000
,
0010
0000
0101
0000
1010
0000
1000
0100
,
0000
0010
0000
0011
0000
0110
0000
0100
,
1000
0000
0110
0000
0001
0000
0100
0010
,
0000
1000
0000
0100
0000
0010
0000
0001
,
1000
0001
0100
0001
,
1000
0000
0100
0000
0010
0000
0001
1000
,
0001
0100
0010
1000
,
0100
0000
1000
0000
0001
0000
0010
0001
,
1000
0001
0100
0010
,
1000
0000
0100
0000
1000
0000
0001
0010
,
0001
1000
0010
0100
,
0001
0000
1000
0000
0001
0100
0001
0000
,
1000
0000
1000
0000
0100
0000
0100
0010
,
0000
0010
0001
0000
0100
0000
0010
0000
,
1000
0000
0001
0000
0010
0000
0010
0100
,
0000
0100
1000
0000
0010
0000
0100
0000
,
0001
0000
0000
0001
0000
0000
0100
0000
,
0000
0100
0000
0000
0010
0000
1000
0000
,
0100
0000
0000
0100
0000
0000
0010
0000
,
0000
0010
0000
0000
0001
0000
1000
0000
,
0101
0000
1010
0000
0001
0000
0100
0001
,
0000
1000
0000
0100
0000
0010
0000
0001
,
1000
0000
0010
0000
0100
0000
0001
1000
,
0000
0001
0000
0100
0000
0001
0000
1000
,
0100
0000
0010
0000
0001
0000
1000
0001
,
0000
0100
0000
0010
0000
1000
0000
0100
,
1000
0000
0010
0000
0100
0000
0001
1000
,
0000
1001
0000
1000
0000
0001
0000
0100
,
0010
0000
1000
0000
0100
0000
0010
0001
,
0000
1000
0000
0001
0000
0100
0000
0001
,
1000
0000
0001
0000
1000
0000
0100
1000
,
0000
0001
0000
0010
0000
0001
0000
1000
,
0010
0000
1000
0000
0001
0000
0100
0001
,
0000
1000
0000
0100
0000
1000
0000
0001
,
0100
0000
0001
0000
1000
0000
0001
1000
;

//---------------dance-single - Renard----------------
#NOTES:
     dance-single:
     Renard:
     Easy:
     3:
     0.436,0.556,0.500,0.000,0.000:
0000
0000
0000
0000
,
0000
0000
0000
0000
,
0000
0000
0000
0000
,
0000
0000
0000
0000
,
1001
1010
0001
0101
,
1000
0100
0010
0000
,
0101
0011
1000
1100
,
0001
1000
0001
0000
,
1000
1000
0010
0100
,
0001
0101
0010
1000
,
0100
0010
0001
1000
,
0010
1010
0010
0100
,
0001
1000
0100
0010
,
0001
0011
0011
1100
,
1000
0010
0100
0001
,
1000
1001
0100
0100
,
0010
1000
0100
0001
,
0100
1000
0010
0001
,
0010
1000
0100
0001
,
0100
0000
0000
0000
,
1000
0001
0010
0100
,
0001
1000
0100
0010
,
1000
0010
0100
0001
,
0001
0010
0100
1000
,
1001
1010
0101
1000
,
0100
0100
0100
0100
,
1100
0010
0100
0001
,
1000
0001
0010
0100
,
1001
0101
1010
0001
,
1000
0100
0010
0001
,
1010
0100
0001
1000
,
0100
0010
0001
1000
,
0110
0101
0110
0010
,
1000
1100
0011
0101
,
1001
0010
0100
0001
,
1000
0100
0010
0001
,
1010
0101
1010
1000
,
0100
0010
0011
0110
,
1100
0110
0001
0100
,
0010
1000
0100
0010
,
1001
0001
0100
0001
,
1000
0100
0010
0001
,
1001
0100
0010
1000
,
0100
1000
0001
0010
,
1001
0001
0100
0010
,
1000
0100
1000
0001
,
0011
1000
0010
0100
,
0001
1000
0001
0101
,
1000
1000
0100
0100
,
0010
0011
0100
0010
,
1000
0001
0010
0010
,
0100
1100
0010
0100
,
0001
0000
0001
0100
,
0000
0100
0010
1000
,
0100
0000
0100
0010
,
0000
0010
0001
1000
,
0101
1010
0001
0100
,
0001
1000
0100
0010
,
1001
0010
0100
0001
,
1000
0001
0100
0001
,
1100
0010
0001
1000
,
0001
0100
0010
1000
,
1100
0010
0100
0001
,
1000
1001
1000
0001
,
0110
1000
0100
0010
,
0001
1000
0001
0100
,
1001
0001
1000
0100
,
1000
0001
0010
0001
,
1010
1000
0001
0100
,
0001
1000
0100
1000
,
0101
0000
0001
0000
1000
0000
0001
1000
;

//---------------dance-single - Renard----------------
#NOTES:
     dance-single:
     Renard:
     Challenge:
     11:
     0.822,0.834,0.294,0.000,0.505: // measure 1
0000
0000
0000
0000
,  // measure 2
0000
0000
0000
0000
,  // measure 3
0000
0000
0000
0000
,  // measure 4
0000
0000
0000
0000
,  // measure 5
1000
0000
1010
1010
0100
0000
0011
0000
,  // measure 6
0100
0000
1010
1010
0100
0000
0011
0000
,  // measure 7
0100
0000
0011
0011
0100
0000
1010
0000
,  // measure 8
0100
0000
0011
0011
0100
0000
1001
0000
,  // measure 9
1000
0000
0000
0000
0010
0000
0100
0001
0100
0000
0010
0000
1000
0000
0100
0000
,  // measure 10
0000
0000
0001
0000
0010
0000
0100
1000
0100
0000
1000
0000
0001
0000
0000
0000
,  // measure 11
0100
0000
0000
0000
0010
0000
1000
0000
0001
1000
0001
0000
1000
0000
0010
0000
,  // measure 12
0100
0010
0100
0000
0010
1000
0010
0000
1000
0000
0000
0000
0001
0000
0000
0000
,  // measure 13
0100
0000
0000
0100
0001
0000
1000
0000
0100
0000
0010
0100
0010
0000
0100
0000
,  // measure 14
1000
0000
0000
1000
0010
0000
0100
0000
0001
0000
0100
0001
0100
0000
0001
0000
,  // measure 15
1000
0000
0001
1000
0001
0000
1000
0000
0010
0000
0100
0010
0100
0000
0010
0000
,  // measure 16
1000
0001
1000
0001
1000
0000
0001
0000
1000
0000
0000
0000
1001
0000
0000
0000
,  // measure 17
1000
0000
1000
0001
0000
0001
0100
0010
,  // measure 18
1000
0100
0001
0100
1000
0010
0001
0010
,  // measure 19
1000
0000
1000
0100
0000
0100
0010
0000
,  // measure 20
0001
0010
1000
0010
0001
0100
1000
0100
,  // measure 21
0001
0000
0001
0100
0000
0100
0010
0000
,  // measure 22
1000
0100
0001
0100
1000
0010
0001
0010
,  // measure 23
1000
0000
1000
0100
0000
0100
0010
0000
,  // measure 24
0001
0010
1000
0010
0001
0100
1000
0100
,  // measure 25
0001
0000
0000
0001
0100
0000
0000
0100
0010
0000
1000
0100
1000
0000
0100
0000
,  // measure 26
0010
0000
0001
0010
0001
0000
0010
0000
0001
0000
0100
0001
0100
0000
0001
0000
,  // measure 27
1000
0000
0000
1000
0010
0000
0000
0010
0100
0000
0001
0010
0001
0000
0010
0000
,  // measure 28
0100
0000
1000
0100
1000
0000
0001
0000
0100
0000
0001
0100
0001
0000
0100
0000
,  // measure 29
0010
0000
0000
0010
1000
0000
0000
1000
0100
0000
0010
0100
0010
0000
0100
0000
,  // measure 30
1000
0000
0010
0100
0010
0000
0100
0000
0001
0000
0010
0100
0010
0000
0100
0000
,  // measure 31
1000
0000
0000
1000
0010
0000
0000
0010
0100
0000
0001
0010
0001
0000
0010
0000
,  // measure 32
0100
0000
0010
0100
0010
0000
0100
0000
1000
0000
0100
1000
0100
0000
1000
0000
,  // measure 33
0001
0000
0000
0001
0100
0000
0000
0100
0010
0000
1000
0010
1000
0000
0010
0000
,  // measure 34
0100
0000
0001
0100
0001
0000
1000
0000
0100
0000
1000
0100
1000
0000
0001
0000
,  // measure 35
0010
0000
0000
0010
0001
0000
0000
0001
0100
0000
0010
1000
0010
0000
1000
0000
,  // measure 36
0001
0000
0100
0001
0100
0000
0001
0000
1000
0000
0100
1000
0100
0000
1000
0000
,  // measure 37
0100
0000
0000
0100
0010
0000
0000
0010
0001
0000
1000
0001
1000
0000
0001
0000
,  // measure 38
1000
0000
0010
1000
0010
0000
1000
0000
0010
0000
0100
0001
0100
0000
0001
0000
,  // measure 39
0010
0000
0000
0010
0100
0000
0000
1000
0010
0000
0100
0001
0100
0000
0001
0000
,  // measure 40
0100
0000
0010
1000
0010
0000
1000
0000
0001
1000
0001
1000
0001
0000
1001
0000
,  // measure 41
1001
0000
0000
0000
1000
0000
0000
1000
0010
0000
0100
0000
0001
0000
0010
0000
,  // measure 42
0100
0110
1000
0110
,  // measure 43
0001
0000
0000
0001
0010
0000
0100
0000
1000
0000
0010
0000
0100
0000
0001
0000
,  // measure 44
0100
0100
0110
0000
0010
0010
0110
0000
,  // measure 45
1000
0000
0000
1000
0010
0000
0100
0000
0001
0000
0010
0000
0100
0000
1000
0000
,  // measure 46
0010
0101
0010
1100
,  // measure 47
0010
0000
0000
0010
0100
0000
0001
0000
0010
0000
0100
0000
1000
0000
0001
0000
,  // measure 48
0100
0001
0100
0000
0101
0000
0000
0000
1000
0100
1000
0000
1100
0000
0000
0000
,  // measure 49
1000
0000
0000
1000
0010
0000
0100
0000
0001
0000
0010
0000
0100
0000
1000
0000
,  // measure 50
0001
1000
0001
0000
1001
0000
0000
0000
1000
0001
1000
0000
1001
0000
0000
0000
,  // measure 51
1000
0000
0000
1000
0010
0000
0100
0000
0001
0000
0010
0000
0100
0000
0010
0000
,  // measure 52
0100
0010
0110
0000
0100
0010
0110
0000
,  // measure 53
0100
0000
0000
0100
1000
0000
0010
0000
0100
0000
0001
0000
0010
0000
0001
0000
,  // measure 54
1000
0001
1000
0000
0001
0000
0000
0000
0100
0010
0100
0000
0010
0000
0000
0000
,  // measure 55
1000
0000
0000
1000
0010
0000
0100
0000
0001
0000
0010
0000
0001
0000
1000
0000
,  // measure 56
0001
0100
0001
0000
0101
0000
0000
0000
0100
0010
0100
0000
0110
0000
0000
0000
,  // measure 57
0010
0000
1000
0100
1000
0000
0100
0000
0010
0000
0001
0010
0001
0000
0010
0000
,  // measure 58
0001
0000
0100
0001
1000
0000
0001
0000
1000
0000
0001
0000
1000
0000
0000
0000
,  // measure 59
0100
0000
1000
0100
1000
0000
0100
0000
0010
0000
0001
0010
0001
0000
0010
0000
,  // measure 60
0001
0000
0100
0001
0100
0000
0010
0000
1000
0000
0001
0000
1000
0000
0000
0000
,  // measure 61
0100
0000
1000
0100
1000
0000
0100
0000
0010
0000
0100
0010
0100
0000
0010
0000
,  // measure 62
0001
0000
0010
0001
0010
0000
0001
0000
1000
0000
0001
0000
1000
0000
0000
0000
,  // measure 63
0010
0000
1000
0001
1000
0000
0010
0000
0100
0000
0001
1000
0001
0000
1000
0000
,  // measure 64
0100
0000
0010
0001
0010
0000
0001
1000
0001
1000
0001
0000
1000
0000
0000
0000
,  // measure 65
0001
0000
1000
0010
1000
0000
0001
1000
0100
0000
1000
0001
1000
0000
0001
0010
,  // measure 66
0100
0000
0010
0001
0010
0000
0100
0010
0001
0000
0100
0000
0010
0000
1000
0001
,  // measure 67
0100
0000
0010
1000
0001
0000
0100
0001
1000
0000
0100
0000
0010
0000
0001
0000
,  // measure 68
0010
0000
0001
0100
0001
0000
1000
0001
0010
0000
0001
0100
0001
0000
1000
0000
,  // measure 69
0010
0000
0100
1000
0100
0000
0001
0100
0010
0000
0100
0000
0001
0000
0100
0000
,  // measure 70
0001
0000
0010
0100
0010
0000
1000
0010
0001
0000
0010
0000
0100
0000
0010
0000
,  // measure 71
0001
0000
1000
0010
1000
0000
0001
1000
0100
1000
0010
0000
0001
0000
0101
0000
;
