#TITLE:Boys on Film;
#SUBTITLE:;
#ARTIST:Freezepop;
#TITLETRANSLIT:;
#SUBTITLETRANSLIT:;
#ARTISTTRANSLIT:;
#CREDIT:;
#BANNER:boys on film.png;
#BACKGROUND:boys on film-bg.png;
#LYRICSPATH:;
#CDTITLE:;
#MUSIC:boys on film.ogg;
#OFFSET:0.002;
#SAMPLESTART:34.567;
#SAMPLELENGTH:12.000;
#SELECTABLE:YES;
#BPMS:0.000=180.000;
#STOPS:235.000=1.333
,239.000=1.333
;
#BGCHANGES:;
#GENRE:Synthpop;

//---------------dance-single - Renard----------------
#NOTES:
     dance-single:
     Renard:
     Hard:
     9:
     0.597,0.643,0.348,0.009,0.018:
0000
0000
0000
0000
,
0000
0000
0000
0000
,
0000
0000
0000
0000
,
0000
0000
0000
0000
,
0000
0000
0000
0000
,
0000
0000
0000
0000
,
0000
0000
0000
0000
,
0000
0000
0000
0000
,
1010
0100
0011
0100
,
1010
0100
2001
0010
,
3001
0010
0100
1000
0010
0000
0100
0000
,
0001
1000
0100
1000
,
0001
0010
0100
0000
1000
0000
0010
0000
,
0100
0000
0001
0000
1000
0100
0010
0000
,
0001
0010
0100
1000
0001
0000
0100
0000
,
0010
1000
0100
1000
,
0010
0100
0001
1000
0100
0000
1000
0000
,
0100
0000
1000
0000
0010
0100
0001
0000
,
1000
0100
0010
0001
1000
0000
0001
0000
,
0010
0100
1000
0010
,
0100
0001
1000
0000
0001
0000
0100
0000
,
0010
0000
1000
0000
0100
1000
0100
0000
,
1000
0001
1000
0001
0100
0000
0010
0000
,
1000
0100
1000
0001
,
0010
0100
1000
0100
0010
0000
0001
0000
,
0100
0000
0010
0000
1000
0100
0010
0000
,
0011
0101
1100
1010
,
0011
0000
0001
0100
0010
1000
0100
0000
,
1100
1010
0011
0101
,
1100
0000
1000
0010
0100
0001
0010
0000
,
0011
0101
1100
1010
,
0011
0000
0001
0100
0010
1000
0100
0000
,
1100
1010
0011
0101
,
1100
0000
1000
0010
0100
0001
0010
0001
,
1000
0100
0010
0001
0010
0000
0010
0100
,
0000
0100
1000
0010
0100
0001
0010
0001
,
1000
0100
1000
0010
0100
0000
0100
0001
,
0000
0001
1000
0000
1000
0100
0000
0100
,
0010
0001
0010
0100
1000
0010
0100
0001
,
0000
0001
0100
0000
0010
1000
0010
0000
,
1000
0010
0100
0001
0010
0000
0010
0100
,
0000
0100
1000
0000
1000
0001
0000
0001
,
0100
0010
1000
0000
0010
0100
0001
0000
,
0010
0000
0100
0000
1000
0100
1000
0000
,
0001
0010
0001
0000
0100
0001
0100
0000
,
0010
0000
1000
0000
0100
1000
0100
0000
,
1000
0010
1000
0000
0001
0100
0001
0000
,
1000
0000
0100
0000
0010
0001
0010
0000
,
0100
1000
0100
0000
1000
0010
1000
0000
,
0010
0000
0100
0000
0001
0010
0001
0000
,
0001
0100
0010
0000
1000
0100
0010
0000
,
0001
0000
0010
0000
0100
1000
0001
0000
,
0100
0001
1000
0000
0001
0100
0001
0000
,
1000
0000
0100
0000
1000
0010
0100
0000
,
0001
0010
0100
0000
1000
0000
0001
0100
,
0001
0000
1000
0100
1000
0000
0001
0010
,
0001
0000
0100
0000
0010
0000
1000
0100
,
1000
0000
0001
0010
0001
0100
0010
1000
,
1100
1100
1010
0000
,
0011
0011
0101
1001
,
1001
1010
1100
0011
,
0001
0001
0100
0100
,
1010
1100
0011
0101
,
1000
1000
0001
0001
,
0001
0010
0100
1000
0100
0010
0001
1000
,
0010
0100
0001
0100
0010
1000
0100
0010
,
0001
0010
0001
1000
0010
1000
0001
0100
,
0001
1000
0100
1000
0001
0010
0100
1000
,
0100
1000
0010
1000
0001
1000
0010
1000
,
0100
0010
0001
0010
0100
1000
0100
1000
,
0001
0010
0001
0100
0001
1000
0001
0100
,
0001
0010
0100
1000
0010
0100
0001
1000
,
0100
0010
0001
1000
0010
0100
0001
1000
,
0100
0000
1000
0000
0001
0000
0100
0000
0001
0000
1000
0000
0100
1000
0100
0000
,
0010
0001
0010
0100
1000
0010
0100
0001
,
0100
0000
0010
0000
1000
0000
0100
0000
1000
0000
0001
0000
0010
0001
0010
0000
,
0100
1000
0010
0100
0001
0100
0010
1000
,
0100
0000
0010
0000
0001
0000
0010
0000
0100
0000
1000
0000
0001
1000
0001
0000
,
1000
0100
1000
0001
0010
0001
0100
0010
,
1000
0000
0100
0000
0010
0000
0001
0000
0010
0000
0100
0000
1000
0001
1000
0000
,
0001
0000
0000
0000
;

//---------------dance-single - Renard----------------
#NOTES:
     dance-single:
     Renard:
     Challenge:
     11:
     0.769,0.893,0.429,0.000,0.451:
0000
0000
0000
0000
,
0000
0000
0000
0000
,
0000
0000
0000
0000
,
0000
0000
0000
0000
,
0000
0000
0000
0000
,
0000
0000
0000
0000
,
0000
0000
0000
0000
,
0000
0000
0000
0000
,
1000
0100
0010
0000
0001
0010
0100
0000
,
0100
0010
0001
0000
1000
0100
0010
0000
,
0001
0100
0010
1000
0001
0000
0000
0000
0001
0000
0000
0000
1000
0000
0000
0000
,
1000
0000
0000
0000
0001
0000
0000
0000
0001
1000
0100
0010
0001
0000
0000
0000
,
0001
0100
0010
1000
0001
0000
0000
0000
1000
0000
0000
0000
0001
0000
0000
0000
,
0100
0000
0000
0000
0100
0000
0000
0000
0010
1000
0001
0100
0010
0000
0000
0000
,
1000
0100
0010
0001
1000
0000
0000
0000
1000
0000
0000
0000
0001
0000
0000
0000
,
0100
0000
0000
0000
0010
0000
0000
0000
1000
0001
1000
0100
0010
0000
0000
0000
,
0001
1000
0001
0010
0100
0000
0000
0000
0100
0000
0000
0000
1000
0000
0000
0000
,
0010
0000
0000
0000
0100
0000
0000
0000
0001
0100
0001
0100
0010
0000
0000
0000
,
1000
0010
1000
0010
0100
0000
0000
0000
0100
0000
0000
0000
0010
0000
0000
0000
,
1000
0000
0000
0000
1000
0000
0000
0000
0001
0010
0100
1000
0001
0000
0000
0000
,
1000
0100
0010
0001
1000
0000
0000
0000
1000
0000
0000
0000
0010
0000
0000
0000
,
0100
0000
0000
0000
0001
0000
0000
0000
0100
0010
1000
0001
0100
0000
0000
0000
,
0100
0001
1000
0010
0100
0000
0000
0000
0010
0000
0000
0000
0010
0000
0000
0000
,
1000
0000
0000
0000
0100
0000
0000
0000
0010
0100
1000
0001
0010
0000
0000
0000
,
0010
0100
1000
0001
0010
0000
0000
0000
0100
0000
0000
0000
1000
0000
0000
0000
,
0010
0000
0000
0000
0100
0000
0000
0000
0001
0100
0010
1000
0001
0000
0000
0000
,
1000
0100
0011
0000
1100
0000
1010
0000
,
0001
0100
0010
0010
1000
1000
0100
0100
,
0010
0001
1100
0000
0011
0000
0101
0000
,
0010
1000
0001
0001
0100
0100
0010
0010
,
1000
0100
0011
0000
0101
0000
1010
0000
,
1000
1000
0001
0001
0010
0010
0100
0100
,
1000
0010
0101
0000
1010
0000
1100
0000
,
0010
0010
0001
0001
0100
0010
1000
0001
,
0100
0001
1000
0010
0100
0001
0010
0100
,
0000
0000
0100
0000
1000
0000
0100
0000
0010
0000
0001
0000
1000
0001
1000
0000
,
0010
1000
0001
0100
0010
1000
0100
0010
,
0000
0000
0010
0000
0001
0000
0010
0000
0100
0000
1000
0000
0001
1000
0001
0000
,
1000
0000
0100
0000
1000
0100
1000
0000
0100
0000
1000
0000
0010
0000
0100
0000
,
0000
0000
0100
0000
0001
0000
0010
0000
0100
0000
1000
0000
0001
1000
0001
0000
,
0100
0010
1000
0100
0010
0001
0010
0100
,
0000
0100
1100
0000
1000
1010
0000
0010
,
1000
0010
0100
0001
0100
0000
0010
0000
1000
0000
0000
0000
0100
0000
0010
0000
,
0001
0000
0000
0000
0010
0000
0100
0000
1000
0100
0010
0001
1000
0000
0000
0000
,
0001
0010
0100
1000
0001
0000
1000
0000
0010
0000
0000
0000
0100
0000
0001
0000
,
0100
0000
0010
0000
1000
0000
0000
0000
0010
1000
0001
0100
0010
0000
0100
0000
,
0001
0100
0010
1000
0001
0000
0000
0000
0100
0000
0010
0000
1000
0000
0000
0000
,
0100
0000
0010
0000
0001
0000
0010
0000
0100
1000
0001
0100
0001
0000
0000
0000
,
1000
0100
1000
0001
0010
0000
0001
0000
0100
0000
0010
0000
1000
0000
0000
0000
,
0101
0000
0100
0000
0110
0000
0000
0000
0010
1000
0010
1000
0010
0000
0000
0000
,
0100
0001
0100
0001
0100
0000
0000
0000
0101
0000
0100
0000
0110
0000
0000
0000
,
1010
0000
0000
0000
1100
0000
0000
0000
0010
0001
0010
0100
1000
0000
0000
0000
,
0100
1000
0100
0010
0001
0000
0000
0000
0011
0000
0010
0000
0110
0000
0000
0000
,
1100
0000
0000
0000
1010
0000
0000
0000
1000
0010
0100
0001
0100
0000
0000
0000
,
0001
0100
0010
1000
0100
0000
0000
0000
1100
0000
0100
0000
0110
0000
0000
0000
,
0011
0000
0010
0000
0110
0000
0000
0000
0100
1000
0001
0100
0001
0000
0000
0000
,
1000
0100
0010
0001
1000
0000
0000
0000
0101
0000
0001
0000
0101
0000
0000
0000
,
1010
1000
1010
0000
1001
0001
1001
0000
,
1100
0011
1011
0000
,
0011
1100
1001
1101
,
1100
0011
1011
0000
,
0001
0001
0100
0100
,
1010
1010
0101
1111
,
0001
0001
1000
0000
,
0001
0010
0100
1000
0001
0000
1000
0000
0001
0000
0100
0000
0010
0000
1000
0000
,
0010
0100
0001
0010
0100
1000
0001
0000
,
0100
0001
1000
0010
0100
0000
0001
0000
0100
0000
0010
0000
1000
0000
0100
0000
,
0010
0000
0001
0000
0010
0000
0100
0000
1000
0000
0001
1000
0001
0000
1000
0001
,
1000
0100
0010
0001
1000
0000
0001
0000
1000
0000
0010
0000
0100
0000
0001
0000
,
0100
0010
1000
0100
0010
0001
1000
0000
,
0010
1000
0001
0100
0010
0000
1000
0000
0010
0000
0100
0000
0001
0000
0010
0000
,
0100
0000
1000
0000
0100
0000
0010
0000
0001
0000
1000
0001
1000
0000
0001
1000
,
0001
0000
0100
0001
0100
0000
0010
1000
0010
0000
1000
0000
0100
0000
0010
0000
,
0001
0000
0010
0000
0100
0000
1000
0000
0001
0100
0001
0100
0001
0000
0100
0000
,
0010
0000
1000
0010
1000
0000
0001
0100
0001
0000
1000
0100
0010
0000
0001
0000
,
0010
0000
0100
0000
1000
0000
0001
0000
0100
0001
0100
0001
0100
0000
0001
0000
,
1000
0000
0100
1000
0100
0000
0010
0001
0010
0000
0100
1000
0010
0000
0100
0001
,
0010
0000
0001
0000
0100
0000
0010
0000
1000
0100
0010
0001
1000
0000
0001
0000
,
0010
0000
0100
1000
0001
0000
0010
0100
1000
0000
0001
0010
0100
0000
1000
0001
,
0100
0000
0010
1000
0001
0000
0100
0001
1000
0100
0010
0001
1000
0000
0001
0000
,
1000
0000
0000
0000
;

//---------------dance-single - Renard----------------
#NOTES:
     dance-single:
     Renard:
     Medium:
     7:
     0.399,0.464,0.080,0.000,0.000: // measure 1
0000
0000
0000
0000
,  // measure 2
0000
0000
0000
0000
,  // measure 3
0000
0000
0000
0000
,  // measure 4
0000
0000
0000
0000
,  // measure 5
0000
0000
0000
0000
,  // measure 6
0000
0000
0000
0000
,  // measure 7
0000
0000
0000
0000
,  // measure 8
0000
0000
0000
0000
,  // measure 9
1000
1000
1000
1000
,  // measure 10
0001
0001
0001
0001
,  // measure 11
1000
0000
0001
0000
0100
0000
0010
1000
,  // measure 12
0010
0010
1000
1000
,  // measure 13
0001
0000
0001
0000
0100
0000
0001
0010
,  // measure 14
0001
0010
0100
0100
,  // measure 15
1000
0000
1000
0000
0010
0000
0100
0001
,  // measure 16
0100
0010
1000
1000
,  // measure 17
0100
0000
0100
0000
0010
0000
0001
0010
,  // measure 18
0001
0010
0100
0100
,  // measure 19
1000
0000
0001
0100
0001
0000
1000
0000
,  // measure 20
0100
0000
1000
0000
,  // measure 21
0010
0000
0100
0001
0100
0000
0001
0000
,  // measure 22
0010
0010
0100
0000
,  // measure 23
1000
0000
0010
1000
0010
0000
0100
0000
,  // measure 24
0001
0000
1000
0000
,  // measure 25
0100
1000
0100
0000
1000
0000
0001
0000
,  // measure 26
0100
0001
0100
0000
0001
0000
0001
0000
,  // measure 27
1000
0100
0010
0001
,  // measure 28
1000
0000
0001
0100
0010
0000
0000
0000
,  // measure 29
1000
0100
0010
0001
,  // measure 30
0100
0000
0010
1000
0100
0000
0000
0000
,  // measure 31
0010
0001
0010
0100
,  // measure 32
1000
0000
0010
0100
0001
0000
0100
0000
,  // measure 33
0010
1000
0100
0000
,  // measure 34
0010
0000
0001
0010
0100
0000
1000
0000
,  // measure 35
0001
0000
0001
0000
1000
0000
0000
0001
,  // measure 36
0000
1000
0010
0100
,  // measure 37
0001
0000
0010
0000
0100
0000
0000
1000
,  // measure 38
0000
0000
0001
0000
0000
0010
0000
0000
,  // measure 39
0100
0000
1000
0000
0010
0000
0000
0100
,  // measure 40
0000
0001
0010
0100
,  // measure 41
1000
0000
0001
0000
0100
0000
0000
0010
,  // measure 42
0000
0000
1000
0000
0000
0100
0000
0000
,  // measure 43
1000
0000
1000
0000
0001
0000
0100
0001
,  // measure 44
0100
0001
0001
0001
,  // measure 45
1000
0000
1000
0000
1000
0000
0100
1000
,  // measure 46
0100
1000
1000
1000
,  // measure 47
0010
0000
0010
0000
1000
0010
1000
0000
,  // measure 48
1000
0000
1000
0000
0010
1000
0010
0000
,  // measure 49
1000
0001
0010
0001
,  // measure 50
0010
0001
0010
0000
0001
0000
0001
0000
,  // measure 51
1000
0001
0100
0100
,  // measure 52
0010
0010
1000
0100
,  // measure 53
0011
0010
0100
1000
,  // measure 54
0010
0000
0100
0000
0001
0100
0001
0000
,  // measure 55
0100
0010
1000
0100
,  // measure 56
0010
0100
0010
0100
,  // measure 57
1001
0000
1010
0000
,  // measure 58
0101
0000
0001
0010
,  // measure 59
0001
0010
0101
0000
,  // measure 60
1010
0101
0011
1001
,  // measure 61
1000
1000
0100
0100
,  // measure 62
0010
0000
0010
0000
0001
0010
0001
0000
,  // measure 63
0010
0010
0100
0100
,  // measure 64
1000
0000
1000
0000
0001
1000
0001
0000
,  // measure 65
1000
0001
1000
0001
1000
0000
1000
0000
,  // measure 66
0001
0001
1000
1000
,  // measure 67
0001
1000
0001
1000
0001
0000
0001
0000
,  // measure 68
1000
1000
0001
0001
,  // measure 69
0100
0010
0100
0010
0100
0000
0100
0000
,  // measure 70
0010
0010
0100
0100
,  // measure 71
0010
0100
0010
0100
0010
0000
0010
0000
,  // measure 72
0100
0100
0010
0010
,  // measure 73
1000
0100
0010
0001
,  // measure 74
0010
0000
0100
0000
1000
0001
1000
0000
,  // measure 75
0001
0010
0100
1000
,  // measure 76
0100
0000
0010
0000
0001
1000
0001
0000
,  // measure 77
1000
0001
0100
0010
,  // measure 78
1000
0000
0100
1000
0100
0000
1000
0000
,  // measure 79
0001
0010
0100
1000
,  // measure 80
0010
0000
0100
0000
0001
0100
0001
0000
,  // measure 81
1000
0000
0000
0000
;

//---------------dance-single - Renard----------------
#NOTES:
     dance-single:
     Renard:
     Easy:
     3:
     0.346,0.321,0.000,0.000,0.000:
0000
0000
0000
0000
,
0000
0000
0000
0000
,
0000
0000
0000
0000
,
0000
0000
0000
0000
,
0000
0000
0000
0000
,
0000
0000
0000
0000
,
0000
0000
0000
0000
,
0000
0000
0000
0000
,
0100
0100
0100
0100
,
0010
0010
0010
0010
,
0100
0010
0001
1000
,
0100
1000
0100
0100
,
0010
0010
0001
0010
,
0010
1000
0001
0001
,
0100
0100
1000
0001
,
0001
1000
0100
0100
,
0001
0001
1000
0010
,
0010
1000
0001
0001
,
0100
0010
0001
0100
,
0001
0000
0100
0000
,
1000
0001
0001
0010
,
1000
1000
0001
0000
,
0100
1000
0100
0001
,
0010
0000
0100
0000
,
0001
0001
0100
0010
,
0001
0001
0010
0010
,
0100
0001
1000
0010
,
0100
0010
0001
0000
,
0100
0001
1000
0010
,
0001
1000
0001
0000
,
1000
0010
1000
0001
,
0100
1000
0001
0001
,
1000
0100
0001
0000
,
1000
0010
0001
0100
,
0010
0010
0100
0000
,
0010
0100
1000
0001
,
0010
1000
0001
0000
,
0100
0010
0000
1000
,
0001
0100
1000
0000
,
0001
0010
1000
0001
,
0100
0010
0001
0000
,
1000
0100
0000
0001
,
0100
0100
0010
0001
,
0001
0010
0010
0010
,
0100
0100
0100
0001
,
0001
0100
0100
0100
,
1000
1000
0100
0100
,
0100
0100
1000
0100
,
0100
0010
1000
0010
,
1000
0010
0010
0010
,
0100
0010
0001
0001
,
1000
1000
0100
0001
,
0010
1000
0001
0100
,
1000
0001
0010
0001
,
0001
1000
0100
0001
,
1000
0001
1000
0001
,
0010
0000
0100
0000
,
0001
0000
0010
1000
,
0010
1000
0001
0000
,
0100
0001
0010
0010
,
0100
0100
0001
0001
,
1000
1000
0010
0010
,
1000
1000
0001
0001
,
0100
0100
0010
0010
,
0100
0010
0010
0100
,
0010
0010
0100
0100
,
0010
0010
0010
0010
,
0100
0100
0010
0010
,
0001
0001
0001
0001
,
1000
1000
0001
0001
,
1000
0001
0001
1000
,
0001
0001
1000
1000
,
0100
0001
1000
0010
,
1000
0001
0100
0010
,
0010
1000
0001
0100
,
0001
1000
0010
0010
,
0100
0010
0001
1000
,
0100
0001
0001
0100
,
0010
1000
0001
0100
,
1000
0001
0010
0001
,
0100
0000
0000
0000
;
